osu file format v14

[General]
AudioFilename: Lady Gaga - Bad Romance [Christmas Version].mp3
AudioLeadIn: 0
PreviewTime: 74036
Countdown: 0
SampleSet: Soft
StackLeniency: 0.7
Mode: 0
LetterboxInBreaks: 0
WidescreenStoryboard: 0

[Editor]
Bookmarks: 1305,115003
DistanceSpacing: 1.2
BeatDivisor: 4
GridSize: 4
TimelineZoom: 1

[Metadata]
Title:Bad Romance [Christmas Version]
TitleUnicode:Bad Romance [Christmas Version]
Artist:Lady Gaga
ArtistUnicode:Lady Gaga
Creator:Gero
Version:Christmas, oh-la-la!
Source:
Tags:The Fame Monster Ball House of RedOne Dance Electropop‎ ‎Synthpop Santa Claus Merry X-mas Xmas White Snow
BeatmapID:1483474
BeatmapSetID:700788

[Difficulty]
HPDrainRate:5.5
CircleSize:4.5
OverallDifficulty:7
ApproachRate:8
SliderMultiplier:1.6
SliderTickRate:1

[Events]
//Background and Video events
0,0,"BG.jpg",0,0
Video,0,"Video.avi"
//Break Periods
//Storyboard Layer 0 (Background)
//Storyboard Layer 1 (Fail)
//Storyboard Layer 2 (Pass)
//Storyboard Layer 3 (Foreground)
//Storyboard Sound Samples

[TimingPoints]
1558,504.201680672269,4,2,1,60,1,0
33826,-100,4,2,1,50,0,0
74163,-100,4,2,1,70,0,1
90171,-100,4,2,1,70,0,0
90297,-100,4,2,1,70,0,1
106431,-100,4,2,1,60,0,0
108448,-100,4,2,1,50,0,0
110465,-100,4,2,1,40,0,0
112482,-100,4,2,1,30,0,0
115003,-100,4,2,1,20,0,0

[Colours]
Combo1 : 133,186,54
Combo2 : 255,62,62

[HitObjects]
324,58,1305,5,4,0:0:0:0:
324,58,1558,6,0,P|256:22|188:58,1,160,4|2,0:0|0:0,0:0:0:0:
120,125,2314,1,0,0:0:0:0:
188,192,2566,2,0,B|202:206|222:213|222:213|242:206|256:192,1,80
391,259,3070,2,0,B|377:245|357:238|357:238|337:245|323:259,1,80,2|0,0:0|0:0,0:0:0:0:
459,326,3574,6,0,B|477:257|477:257|483:250|483:250|489:244|489:244|507:175,1,160,0|2,0:0|0:0,0:0:0:0:
432,120,4331,1,0,0:0:0:0:
508,65,4583,2,0,B|432:40|432:40|356:65,1,160,0|2,0:0|0:0,0:0:0:0:
432,120,5339,1,4,0:0:0:0:
354,175,5591,6,0,P|320:194|298:227,1,80,4|0,0:0|0:0,0:0:0:0:
157,175,6095,2,0,P|191:194|213:227,1,80,2|0,0:0|0:0,0:0:0:0:
256,312,6600,1,0,0:0:0:0:
299,227,6852,2,0,B|268:204|256:161|256:161|244:204|213:227,1,160
256,312,7608,5,0,0:0:0:0:
157,175,8112,1,2,0:0:0:0:
157,175,8616,5,0,0:0:0:0:
299,227,8868,1,0,0:0:0:0:
213,227,9121,1,2,0:0:0:0:
355,175,9373,1,4,0:0:0:0:
213,123,9625,6,0,P|256:68|299:123,1,160,4|2,0:0|0:0,0:0:0:0:
356,48,10381,1,0,0:0:0:0:
413,123,10633,2,0,B|452:132|452:132|491:123,1,80
356,198,11137,2,0,B|317:189|317:189|278:198,1,80,2|0,0:0|0:0,0:0:0:0:
413,273,11642,6,0,B|444:248|452:205|452:205|460:248|491:273,1,160,0|2,0:0|0:0,0:0:0:0:
452,362,12398,1,0,0:0:0:0:
413,273,12650,2,0,L|299:386,1,160,0|2,0:0|0:0,0:0:0:0:
256,300,13406,1,4,0:0:0:0:
212,214,13658,6,0,P|256:160|300:214,1,160,4|2,0:0|0:0,0:0:0:0:
256,300,14415,1,0,0:0:0:0:
212,214,14667,1,0,0:0:0:0:
168,300,14919,2,0,B|88:300|88:300|31:242,1,160
31,141,15675,6,0,B|88:84|88:84|168:84,1,160,0|2,0:0|0:0,0:0:0:0:
480,141,16684,2,0,B|424:84|424:84|344:84,1,160,0|2,0:0|0:0,0:0:0:0:
256,120,17440,1,4,0:0:0:0:
168,82,17692,6,0,B|180:44|180:44|210:17,1,80,14|0,0:0|0:0,0:0:0:0:
302,17,18196,2,0,B|332:44|332:44|344:82,1,80,10|0,0:0|0:0,0:0:0:0:
256,120,18700,1,10,0:0:0:0:
343,156,18952,1,8,0:0:0:0:
256,192,19205,1,10,0:0:0:0:
169,156,19457,1,8,0:0:0:0:
256,192,19709,5,2,0:0:0:0:
343,228,19961,1,8,0:0:0:0:
256,264,20213,2,0,B|205:264|205:264|173:264|133:288|121:324,1,160,10|10,0:0|0:0,0:0:0:0:
209,360,20969,1,8,0:0:0:0:
121,324,21221,1,10,0:0:0:0:
33,288,21473,1,4,0:0:0:0:
121,252,21726,6,0,B|136:212|171:192|171:192|136:172|121:132,2,160,14|10|10,0:0|0:0|0:0,0:0:0:0:
33,288,22986,1,8,0:0:0:0:
121,324,23238,2,0,B|160:324|160:324|192:349,1,80,10|8,0:0|0:0,0:0:0:0:
256,276,23742,5,2,0:0:0:0:
319,349,23994,2,0,B|352:324|352:324|391:324,1,80,8|10,0:0|0:0,0:0:0:0:
479,288,24499,1,8,0:0:0:0:
391,252,24751,2,0,B|376:212|341:192|341:192|376:172|391:132,1,160,10|10,0:0|0:0,0:0:0:0:
479,96,25507,1,4,0:0:0:0:
391,60,25759,6,0,P|353:49|315:60,1,80,14|0,0:0|0:0,0:0:0:0:
121,60,26263,2,0,P|159:49|197:60,1,80,10|0,0:0|0:0,0:0:0:0:
256,136,26768,1,10,0:0:0:0:
315,59,27020,1,8,0:0:0:0:
256,136,27272,1,10,0:0:0:0:
196,212,27524,1,8,0:0:0:0:
256,288,27776,5,2,0:0:0:0:
316,212,28028,1,8,0:0:0:0:
256,136,28280,2,0,B|276:96|316:88|316:88|356:96|376:136,1,160,10|10,0:0|0:0,0:0:0:0:
436,212,29036,1,8,0:0:0:0:
376,288,29289,2,0,L|436:341,1,80,10|4,0:0|0:0,0:0:0:0:
316,364,29793,6,0,B|256:311|256:311|196:364,2,160,14|10|10,0:0|0:0|0:0,0:0:0:0:
376,288,31053,1,8,0:0:0:0:
316,212,31305,1,10,0:0:0:0:
376,288,31558,1,8,0:0:0:0:
316,212,31810,6,0,B|316:172|316:172|301:134,1,80,2|8,0:0|0:0,0:0:0:0:
196,212,32314,2,0,B|196:172|196:172|210:134,1,80,10|8,0:0|0:0,0:0:0:0:
256,52,32818,2,0,B|116:130,1,160,10|10,0:0|0:0,0:0:0:0:
40,192,33574,1,4,0:0:0:0:
116,253,33826,5,6,0:0:0:0:
192,192,34079,1,2,0:3:0:0:
116,253,34331,2,0,B|97:288|97:288|116:323,1,80,8|2,0:3|0:3,0:0:0:0:
192,384,34835,1,2,0:3:0:0:
268,323,35087,2,0,B|310:311|310:311|342:327|342:327|374:343|374:343|418:331,1,160,8|8,0:3|0:3,0:0:0:0:
490,268,35843,6,0,P|501:230|490:192,1,80,2|8,0:3|0:3,0:0:0:0:
418,129,36347,1,8,0:3:0:0:
346,192,36600,1,2,0:3:0:0:
274,129,36852,2,0,B|237:109|205:125|197:129|189:133|157:149|120:129,1,160,8|2,0:3|0:3,0:0:0:0:
48,192,37608,1,8,0:3:0:0:
119,255,37860,6,0,P|157:266|195:255,1,80,8|2,0:3|0:3,0:0:0:0:
294,341,38364,2,0,P|256:330|218:341,1,80,8|8,0:3|0:3,0:0:0:0:
317,255,38868,2,0,P|355:266|393:255,1,80,2|2,0:3|0:3,0:0:0:0:
464,192,39373,1,8,0:3:0:0:
392,128,39625,1,2,0:3:0:0:
472,184,39877,5,8,0:3:0:0:
400,120,40129,1,8,0:3:0:0:
328,56,40381,1,2,0:3:0:0:
256,120,40633,2,0,P|226:192|256:264,1,160,8|8,0:3|0:3,0:0:0:0:
328,328,41389,1,2,0:3:0:0:
400,264,41642,1,8,0:3:0:0:
328,328,41894,5,8,0:3:0:0:
192,192,42398,1,8,0:3:0:0:
328,56,42902,1,8,0:3:0:0:
256,264,43406,1,8,0:3:0:0:
256,120,43910,5,2,0:3:0:0:
328,328,44415,1,2,0:3:0:0:
192,192,44919,1,2,0:3:0:0:
256,120,45171,5,8,0:3:0:0:
320,192,45423,1,2,0:3:0:0:
256,264,45675,1,2,0:3:0:0:
192,192,45927,6,0,B|158:225|158:225|149:257|149:257|118:265|118:265|84:299,1,160,8|8,0:3|0:3,0:0:0:0:
320,192,46936,2,0,B|353:225|353:225|362:257|362:257|393:265|393:265|427:299,1,160,2|8,0:3|0:3,0:0:0:0:
192,192,47944,6,0,B|158:225|158:225|149:257|149:257|118:265|118:265|84:299,1,160,2|8,0:3|0:3,0:0:0:0:
152,366,48700,1,2,0:3:0:0:
220,299,48952,2,0,L|282:248,1,80,8|0,0:3|0:0,0:0:0:0:
282,135,49457,2,0,L|220:85,1,80,8|4,0:3|0:0,0:0:0:0:
116,131,49961,5,6,0:0:0:0:
192,192,50213,1,2,0:3:0:0:
116,131,50465,2,0,B|97:96|97:96|116:61,1,80,8|2,0:3|0:3,0:0:0:0:
192,0,50969,1,2,0:3:0:0:
268,61,51221,2,0,B|310:73|310:73|342:57|342:57|374:41|374:41|418:53,1,160,8|8,0:3|0:3,0:0:0:0:
490,116,51978,6,0,P|501:154|490:192,1,80,2|8,0:3|0:3,0:0:0:0:
418,255,52482,1,8,0:3:0:0:
346,192,52734,1,2,0:3:0:0:
274,255,52986,2,0,B|237:275|205:259|197:255|189:251|157:235|120:255,1,160,8|2,0:3|0:3,0:0:0:0:
48,192,53742,1,8,0:3:0:0:
119,129,53994,6,0,P|157:118|195:129,1,80,8|2,0:3|0:3,0:0:0:0:
294,43,54499,2,0,P|256:54|218:43,1,80,8|8,0:3|0:3,0:0:0:0:
317,129,55003,2,0,P|355:118|393:129,1,80,2|2,0:3|0:3,0:0:0:0:
464,192,55507,1,8,0:3:0:0:
392,256,55759,1,2,0:3:0:0:
472,200,56011,5,8,0:3:0:0:
400,264,56263,1,8,0:3:0:0:
328,328,56515,1,2,0:3:0:0:
256,264,56768,2,0,P|226:192|256:120,1,160,8|8,0:3|0:3,0:0:0:0:
328,56,57524,1,2,0:3:0:0:
400,120,57776,1,8,0:3:0:0:
328,56,58028,5,8,0:3:0:0:
192,192,58532,1,8,0:3:0:0:
328,328,59036,1,2,0:3:0:0:
256,120,59541,1,8,0:3:0:0:
256,264,60045,5,2,0:3:0:0:
328,56,60549,1,2,0:3:0:0:
192,192,61053,1,2,0:3:0:0:
256,264,61305,5,8,0:3:0:0:
320,192,61558,1,2,0:3:0:0:
256,120,61810,1,2,0:3:0:0:
192,192,62062,5,8,0:3:0:0:
328,56,62566,1,8,0:3:0:0:
192,192,63070,1,8,0:3:0:0:
256,120,63322,5,2,0:3:0:0:
320,192,63574,1,8,0:3:0:0:
256,264,63826,1,8,0:3:0:0:
192,192,64079,6,0,B|158:158|158:158|149:126|149:126|118:118|118:118|84:84,1,160,8|8,0:3|0:3,0:0:0:0:
320,192,65087,2,0,B|353:158|353:158|362:126|362:126|393:118|393:118|427:84,1,160,2|8,0:3|0:3,0:0:0:0:
256,84,65843,1,8,0:3:0:0:
320,192,66095,6,0,P|331:230|320:268,1,80,8|8,0:3|0:3,0:0:0:0:
301,292,66474,1,2,0:3:0:0:
272,306,66600,1,8,0:3:0:0:
240,306,66726,1,8,0:3:0:0:
211,292,66852,1,8,0:3:0:0:
192,268,66978,6,0,L|151:337,1,80,2|8,0:3|0:3,0:0:0:0:
128,359,67356,1,2,0:3:0:0:
104,337,67482,1,2,0:3:0:0:
80,315,67608,1,8,0:3:0:0:
12,247,67860,1,2,0:3:0:0:
192,192,68112,6,0,P|181:154|192:116,1,80,8|8,0:3|0:3,0:0:0:0:
211,92,68491,1,2,0:3:0:0:
240,78,68617,1,8,0:3:0:0:
272,78,68743,1,8,0:3:0:0:
301,92,68869,1,8,0:3:0:0:
320,116,68995,6,0,L|361:47,1,80,2|8,0:3|0:3,0:0:0:0:
384,25,69373,1,2,0:3:0:0:
408,47,69499,1,2,0:3:0:0:
432,69,69625,1,8,0:3:0:0:
500,137,69877,1,2,0:3:0:0:
320,268,70129,5,8,0:3:0:0:
380,192,70381,1,2,0:3:0:0:
320,116,70633,1,8,0:3:0:0:
380,192,70885,1,8,0:3:0:0:
320,268,71137,6,0,P|256:309|192:268,1,160,2|8,0:3|0:3,0:0:0:0:
132,192,71894,1,8,0:3:0:0:
192,116,72146,2,0,P|256:75|320:116,1,160,2|8,0:3|0:3,0:0:0:0:
380,192,72902,1,2,0:3:0:0:
440,268,73154,2,0,B|440:216|460:192|460:192|440:168|440:116,1,160,8|8,0:3|0:3,0:0:0:0:
380,192,73910,1,4,0:0:0:0:
218,116,74163,5,6,0:0:0:0:
158,192,74415,1,8,0:0:0:0:
218,268,74667,2,0,P|256:279|294:268,1,80,10|8,0:0|0:0,0:0:0:0:
354,192,75171,1,10,0:0:0:0:
414,268,75423,2,0,B|439:192|439:192|414:116,1,160,8|8,0:0|0:0,0:0:0:0:
474,40,76179,6,0,L|499:116,1,80,10|8,0:0|0:0,0:0:0:0:
440,192,76684,1,10,0:0:0:0:
499,268,76936,2,0,L|474:344,1,80,8|2,0:0|0:0,0:0:0:0:
414,268,77440,2,0,B|393:268|377:255|377:255|361:268|340:268,1,80,8|10,0:0|0:0,0:0:0:0:
256,312,77944,1,12,0:0:0:0:
172,268,78196,6,0,B|151:268|135:255|135:255|119:268|98:268,1,80,14|8,0:0|0:0,0:0:0:0:
40,192,78700,1,10,0:0:0:0:
98,116,78952,1,8,0:0:0:0:
39,39,79205,2,0,B|74:12|122:12|157:39|157:39|189:39,1,160,10|10,0:0|0:0,0:0:0:0:
256,108,79961,1,8,0:0:0:0:
322,177,80213,6,0,B|359:197|395:181|399:177|403:173|439:157|476:177,2,160,10|2|2,0:0|0:0|0:0,0:0:0:0:
256,108,81473,1,0,0:0:0:0:
190,177,81726,1,2,0:0:0:0:
256,246,81978,1,4,0:0:0:0:
322,177,82230,5,6,0:0:0:0:
256,246,82482,1,8,0:0:0:0:
190,315,82734,2,0,B|170:334|170:334|168:342|168:342|162:336|162:336|159:345|159:345|140:364,1,80,10|8,0:0|0:0,0:0:0:0:
256,246,83238,2,0,B|256:219|256:219|251:212|251:212|260:212|260:212|256:203|256:203|256:176,1,80,10|8,0:0|0:0,0:0:0:0:
322,315,83742,2,0,B|341:334|341:334|343:342|343:342|349:336|349:336|352:345|352:345|371:364,1,80,10|8,0:0|0:0,0:0:0:0:
454,315,84247,5,10,0:0:0:0:
388,246,84499,1,8,0:0:0:0:
388,138,84751,1,10,0:0:0:0:
453,69,85003,2,0,P|477:101|484:140,1,80,8|2,0:0|0:0,0:0:0:0:
484,243,85507,2,0,P|477:282|453:314,1,80,8|10,0:0|0:0,0:0:0:0:
388,246,86011,6,0,B|348:232|333:192|333:192|348:152|388:138,1,160,12|8,0:0|0:0,0:0:0:0:
453,69,86768,1,10,0:0:0:0:
388,0,87020,1,8,0:0:0:0:
189,69,87272,2,0,B|232:72|256:107|256:107|280:72|323:69,1,160,10|10,0:0|0:0,0:0:0:0:
124,0,88028,1,8,0:0:0:0:
59,69,88280,5,10,0:0:0:0:
256,192,88784,1,2,0:0:0:0:
453,315,89289,5,2,0:0:0:0:
354,364,89541,1,0,0:0:0:0:
256,315,89793,1,2,0:0:0:0:
158,364,90045,1,4,0:0:0:0:
59,315,90297,6,0,B|111:254|111:254|190:254,1,160,6|2,0:0|0:0,0:0:0:0:
256,192,91053,1,0,0:0:0:0:
321,254,91305,1,2,0:0:0:0:
256,192,91558,1,0,0:0:0:0:
321,130,91810,2,0,P|359:119|397:130,1,80,2|0,0:0|0:0,0:0:0:0:
461,68,92314,6,0,B|469:114|506:130|506:130|469:146|461:192,1,160,2|2,0:0|0:0,0:0:0:0:
396,254,93070,1,0,0:0:0:0:
459,315,93322,2,0,B|436:346|396:363|396:363|356:346|333:315,1,160,2|2,0:0|0:0,0:0:0:0:
396,254,94079,1,4,0:0:0:0:
333,192,94331,6,0,B|256:171|256:171|179:192,1,160,6|2,0:0|0:0,0:0:0:0:
116,130,95087,1,0,0:0:0:0:
53,192,95339,1,2,0:0:0:0:
116,254,95591,2,0,L|172:310,1,80,0|2,0:0|0:0,0:0:0:0:
256,260,96095,1,0,0:0:0:0:
339,310,96347,6,0,B|410:310|410:310|418:306|418:306|426:302|426:302|497:302,2,160,2|2|2,0:0|0:0|0:0,0:0:0:0:
256,260,97608,1,0,0:0:0:0:
173,310,97860,1,2,0:0:0:0:
256,260,98112,1,4,0:0:0:0:
339,209,98364,6,0,P|339:130|303:59,1,160,6|2,0:0|0:0,0:0:0:0:
256,144,99121,1,0,0:0:0:0:
208,59,99373,2,0,P|170:48|132:59,1,80,2|0,0:0|0:0,0:0:0:0:
12,144,99877,2,0,P|50:133|88:144,1,80,2|0,0:0|0:0,0:0:0:0:
208,229,100381,6,0,P|170:218|132:229,1,80,2|0,0:0|0:0,0:0:0:0:
88,314,100885,1,10,0:0:0:0:
132,228,101137,1,0,0:0:0:0:
88,144,101389,1,10,0:0:0:0:
132,58,101642,1,0,0:0:0:0:
132,58,101768,1,8,0:0:0:0:
132,58,101894,1,2,0:0:0:0:
177,144,102146,1,4,0:0:0:0:
222,58,102398,6,0,B|265:58|265:58|328:58|358:117,1,160,6|2,0:0|0:0,0:0:0:0:
300,192,103154,1,0,0:0:0:0:
358,266,103406,1,2,0:0:0:0:
300,340,103658,2,0,B|260:340|260:340|231:368,1,80,0|2,0:0|0:0,0:0:0:0:
140,340,104163,1,0,0:0:0:0:
47,368,104415,6,0,B|64:330|38:292|38:292|84:287|101:250,1,160,2|2,0:0|0:0,0:0:0:0:
47,16,105423,2,0,B|64:54|38:92|38:92|84:97|101:134,1,160,2|2,0:0|0:0,0:0:0:0:
140,44,106179,1,4,0:0:0:0:
232,16,106431,6,0,B|282:66|282:66|290:69|290:69|299:71|299:71|349:122,2,160,14|10|10,0:0|0:0|0:0,0:0:0:0:
140,44,107692,1,8,0:0:0:0:
101,133,107944,1,10,0:0:0:0:
140,44,108196,1,8,0:0:0:0:
179,133,108448,5,2,0:0:0:0:
140,222,108700,1,8,0:0:0:0:
179,311,108952,1,10,0:0:0:0:
218,222,109205,1,0,0:0:0:0:
223,216,109331,1,8,0:0:0:0:
226,210,109457,6,0,B|267:210|267:210|295:238,1,80,10|8,0:0|0:0,0:0:0:0:
366,185,109961,1,10,0:0:0:0:
295,132,110213,1,4,0:0:0:0:
366,67,110465,6,0,P|437:36|508:67,1,160,14|10,0:0|0:0,0:0:0:0:
437,132,111221,1,0,0:0:0:0:
508,197,111473,2,0,B|517:236|517:236|508:275,1,80,10|8,0:0|0:0,0:0:0:0:
422,236,111978,2,0,B|431:275|431:275|422:314,1,80,10|8,0:0|0:0,0:0:0:0:
336,275,112482,5,2,0:0:0:0:
422,314,112734,1,8,0:0:0:0:
336,275,112986,2,0,L|279:331,1,80,10|8,0:0|0:0,0:0:0:0:
249,236,113490,2,0,L|192:292,1,80,10|0,0:0|0:0,0:0:0:0:
106,254,113994,1,14,0:0:0:0:
20,216,114247,1,4,0:0:0:0:
20,216,115003,5,8,0:0:0:0:
