osu file format v14

[General]
AudioFilename: Lady Gaga - Bad Romance [Christmas Version].mp3
AudioLeadIn: 0
PreviewTime: 74036
Countdown: 0
SampleSet: Soft
StackLeniency: 0.7
Mode: 0
LetterboxInBreaks: 0
WidescreenStoryboard: 0

[Editor]
Bookmarks: 1558,115003
DistanceSpacing: 1.2
BeatDivisor: 4
GridSize: 4
TimelineZoom: 1

[Metadata]
Title:Bad Romance [Christmas Version]
TitleUnicode:Bad Romance [Christmas Version]
Artist:Lady Gaga
ArtistUnicode:Lady Gaga
Creator:Gero
Version:Average
Source:
Tags:The Fame Monster Ball House of RedOne Dance Electropop‎ ‎Synthpop Santa Claus Merry X-mas Xmas White Snow
BeatmapID:1483473
BeatmapSetID:700788

[Difficulty]
HPDrainRate:4
CircleSize:3.5
OverallDifficulty:4
ApproachRate:5
SliderMultiplier:1.4
SliderTickRate:1

[Events]
//Background and Video events
0,0,"BG.jpg",0,0
Video,0,"Video.avi"
//Break Periods
//Storyboard Layer 0 (Background)
//Storyboard Layer 1 (Fail)
//Storyboard Layer 2 (Pass)
//Storyboard Layer 3 (Foreground)
//Storyboard Sound Samples

[TimingPoints]
1558,504.201680672269,4,2,1,60,1,0
33826,-100,4,2,1,50,0,0
74163,-100,4,2,1,70,0,1
90171,-100,4,2,1,70,0,0
90297,-100,4,2,1,70,0,1
106431,-100,4,2,1,60,0,0
108448,-100,4,2,1,50,0,0
110465,-100,4,2,1,40,0,0
112482,-100,4,2,1,30,0,0
115003,-100,4,2,1,20,0,0

[Colours]
Combo1 : 133,186,54
Combo2 : 255,62,62

[HitObjects]
168,252,1558,6,0,P|256:301|344:252,1,210,4|0,0:0|0:0,0:0:0:0:
284,192,2566,2,0,B|268:200|256:213|256:213|244:200|228:192,2,70,0|0|2,0:0|0:0|0:0,0:0:0:0:
404,312,3574,2,0,B|472:312|472:312|522:261,1,140,0|2,0:0|0:0,0:0:0:0:
472,192,4331,1,0,0:0:0:0:
512,122,4583,2,0,B|472:72|472:72|396:72,1,140,0|2,0:0|0:0,0:0:0:0:
284,192,5591,6,0,B|227:192|227:192|219:196|219:196|219:188|219:188|211:192|211:192|154:192,1,140,4|2,0:0|0:0,0:0:0:0:
94,251,6347,1,0,0:0:0:0:
34,192,6600,1,0,0:0:0:0:
94,133,6852,2,0,B|126:113|132:77|132:77|126:41|94:21,1,140,0|0,0:0|0:0,0:0:0:0:
34,77,7608,2,0,L|314:77,1,280
373,17,8868,1,0,0:0:0:0:
432,77,9121,2,0,B|424:111|424:111|432:145,1,70,2|4,0:0|0:0,0:0:0:0:
373,205,9625,6,0,B|389:273|389:273|373:341,1,140,4|2,0:0|0:0,0:0:0:0:
296,312,10381,1,0,0:0:0:0:
220,282,10633,2,0,B|204:350,2,70,0|0|2,0:0|0:0|0:0,0:0:0:0:
80,191,11642,2,0,P|117:134|181:108,1,140,0|2,0:0|0:0,0:0:0:0:
256,148,12398,1,0,0:0:0:0:
330,108,12650,2,0,P|394:134|431:191,1,140,0|2,0:0|0:0,0:0:0:0:
292,282,13658,6,0,B|264:304|256:340|256:340|248:304|220:282,1,140,4|2,0:0|0:0,0:0:0:0:
176,354,14415,1,0,0:0:0:0:
132,282,14667,1,0,0:0:0:0:
176,210,14919,2,0,B|132:166|132:166|123:163|123:163|115:160|115:160|72:117,1,140,0|0,0:0|0:0,0:0:0:0:
132,58,15675,2,0,B|184:32|236:52|256:86|256:86|276:52|328:32|380:58,1,280
316,354,17692,6,0,P|256:385|196:354,2,140,14|10|10,0:0|0:0|0:0,0:0:0:0:
375,294,18952,1,8,0:0:0:0:
316,234,19205,1,10,0:0:0:0:
375,174,19457,2,0,B|360:136|374:105|374:105|343:91|329:54,1,140,8|8,0:0|0:0,0:0:0:0:
256,96,20213,2,0,B|186:96|186:96|136:145,1,140,10|10,0:0|0:0,0:0:0:0:
68,192,20969,1,8,0:0:0:0:
136,238,21221,2,0,B|136:273|136:273|111:297,1,70,10|4,0:0|0:0,0:0:0:0:
179,343,21726,6,0,B|241:343|241:343|249:347|249:347|257:350|257:350|318:350,2,140,14|10|10,0:0|0:0|0:0,0:0:0:0:
111,299,22986,1,8,0:0:0:0:
44,345,23238,1,10,0:0:0:0:
44,345,23490,2,0,B|27:315|-7:299|-7:299|27:283|44:253,1,140,8|8,0:0|0:0,0:0:0:0:
111,207,24247,2,0,P|119:173|111:139,1,70,10|8,0:0|0:0,0:0:0:0:
44,93,24751,2,0,B|69:53|121:53|121:53|169:53,1,140,10|10,0:0|0:0,0:0:0:0:
256,192,25759,5,14,0:0:0:0:
342,331,26263,1,10,0:0:0:0:
429,192,26768,2,0,L|462:130,1,70,10|8,0:0|0:0,0:0:0:0:
396,76,27272,1,10,0:0:0:0:
331,131,27524,2,0,B|261:131|261:131|217:76,1,140,8|8,0:0|0:0,0:0:0:0:
163,140,28280,2,0,B|142:112|142:112|72:112|72:112|51:140,1,140,10|10,0:0|0:0,0:0:0:0:
107,204,29036,1,8,0:0:0:0:
163,268,29289,2,0,B|195:283|195:283|227:268,1,70,10|4,0:0|0:0,0:0:0:0:
282,332,29793,5,14,0:0:0:0:
376,192,30297,1,10,0:0:0:0:
282,52,30801,2,0,B|264:44|256:30|256:30|248:44|230:52,2,70,10|8|10,0:0|0:0|0:0,0:0:0:0:
256,132,31558,2,0,P|225:192|256:252,1,140,8|8,0:0|0:0,0:0:0:0:
282,332,32314,2,0,B|264:340|256:354|256:354|248:340|230:332,2,70,10|8|10,0:0|0:0|0:0,0:0:0:0:
376,192,33322,1,10,0:0:0:0:
282,52,33826,6,0,B|262:20|226:14|226:14|190:20|170:52,1,140,6|8,0:0|0:3,0:0:0:0:
110,111,34583,1,2,0:3:0:0:
51,53,34835,1,2,0:3:0:0:
110,111,35087,2,0,L|208:209,1,140,8|8,0:3|0:3,0:0:0:0:
149,269,35843,2,0,L|198:318,1,70,2|8,0:3|0:3,0:0:0:0:
256,380,36347,1,8,0:3:0:0:
313,318,36600,2,0,L|363:269,1,70,2|8,0:3|0:3,0:0:0:0:
256,140,37356,1,2,0:3:0:0:
149,269,37860,6,0,P|85:293|21:269,1,140,8|8,0:3|0:3,0:0:0:0:
64,192,38616,1,8,0:3:0:0:
20,115,38868,2,0,B|12:81|12:81|20:47,2,70,2|2|8,0:3|0:3|0:3,0:0:0:0:
64,192,39625,1,2,0:3:0:0:
108,115,39877,2,0,B|108:84|144:48|180:48|180:48|212:48,1,140,8|2,0:3|0:3,0:0:0:0:
299,48,40633,2,0,B|332:48|332:48|368:48|404:84|404:115,1,140,8|8,0:3|0:3,0:0:0:0:
448,192,41389,1,2,0:3:0:0:
492,269,41642,1,8,0:3:0:0:
448,346,41894,6,0,B|396:272|288:276|336:360|176:360|224:276|116:272|64:346,1,420,8|8,0:3|0:3,0:0:0:0:
4,192,43910,1,2,0:3:0:0:
63,37,44415,1,2,0:3:0:0:
123,192,44919,2,0,L|193:192,1,70,2|8,0:3|0:3,0:0:0:0:
256,136,45423,2,0,L|326:136,1,70,2|2,0:3|0:3,0:0:0:0:
389,80,45927,6,0,P|460:192|389:304,1,280,8|2,0:3|0:3,0:0:0:0:
256,248,47440,1,8,0:3:0:0:
123,304,47944,2,0,P|52:192|123:80,1,280,2|8,0:3|0:3,0:0:0:0:
256,136,49457,1,8,0:3:0:0:
389,80,49961,6,0,B|432:123|432:123|440:125|440:125|449:128|449:128|492:172,1,140,6|8,0:0|0:3,0:0:0:0:
432,231,50717,1,2,0:3:0:0:
492,289,50969,1,2,0:3:0:0:
492,289,51221,2,0,B|432:325|432:325|372:289,1,140,8|8,0:3|0:3,0:0:0:0:
312,231,51978,2,0,B|277:231|277:231|252:255,1,70,2|8,0:3|0:3,0:0:0:0:
196,192,52482,1,8,0:3:0:0:
252,128,52734,2,0,B|228:96|196:88|196:88|164:96|140:128,1,140,2|8,0:3|0:3,0:0:0:0:
84,192,53490,1,2,0:3:0:0:
192,320,53994,6,0,P|256:344|320:320,1,140,8|8,0:3|0:3,0:0:0:0:
379,260,54751,1,8,0:3:0:0:
438,319,55003,2,0,P|470:307|502:319,2,70,2|2|8,0:3|0:3|0:3,0:0:0:0:
379,260,55759,1,2,0:3:0:0:
438,201,56011,2,0,L|523:90,1,140,8|2,0:3|0:3,0:0:0:0:
463,30,56768,2,0,B|430:30|430:30|394:30|358:66|358:97,1,140,8|8,0:3|0:3,0:0:0:0:
307,163,57524,1,2,0:3:0:0:
256,97,57776,1,8,0:3:0:0:
205,163,58028,6,0,B|168:180|136:252|168:328|256:368|344:328|376:252|344:180|307:163,1,420,8|8,0:3|0:3,0:0:0:0:
154,97,60045,1,2,0:3:0:0:
358,97,60549,1,2,0:3:0:0:
205,163,61053,2,0,B|214:196|214:196|214:231,1,70,2|8,0:3|0:3,0:0:0:0:
298,231,61558,2,0,B|298:196|298:196|307:163,1,70,2|2,0:3|0:3,0:0:0:0:
358,97,62062,6,0,B|415:97|415:97|423:101|423:101|423:93|423:93|431:97|431:97|488:97,2,140,8|8|8,0:3|0:3|0:3,0:0:0:0:
307,31,63322,1,2,0:3:0:0:
256,97,63574,1,8,0:3:0:0:
205,31,63826,1,8,0:3:0:0:
154,97,64079,2,0,B|97:97|97:97|89:101|89:101|89:93|89:93|81:97|81:97|24:97,2,140,8|8|2,0:3|0:3|0:3,0:0:0:0:
256,232,65591,1,8,0:3:0:0:
358,97,66095,6,0,P|420:69|482:97,2,140,8|8|2,0:3|0:3|0:3,0:0:0:0:
420,151,67356,1,8,0:3:0:0:
256,232,67860,1,2,0:3:0:0:
194,286,68112,2,0,P|256:314|318:286,2,140,8|8|2,0:3|0:3|0:3,0:0:0:0:
256,232,69373,1,8,0:3:0:0:
92,151,69877,1,2,0:3:0:0:
154,97,70129,6,0,B|189:97|189:97|213:72,1,70,8|2,0:3|0:3,0:0:0:0:
298,72,70633,2,0,B|323:97|323:97|358:97,1,70,8|8,0:3|0:3,0:0:0:0:
419,151,71137,2,0,P|363:192|324:249,1,140,2|8,0:3|0:3,0:0:0:0:
256,300,71894,1,8,0:3:0:0:
187,249,72146,2,0,P|148:192|92:151,1,140,2|8,0:3|0:3,0:0:0:0:
154,97,72902,1,2,0:3:0:0:
216,152,73154,2,0,B|248:128|256:96|256:96|264:128|296:152,1,140,8|8,0:3|0:3,0:0:0:0:
448,288,74163,6,0,B|463:320|463:320|448:352,2,70,6|8|10,0:0|0:0|0:0,0:0:0:0:
512,234,74919,1,8,0:0:0:0:
512,150,75171,1,10,0:0:0:0:
448,96,75423,2,0,B|396:96|372:64|372:64|317:64,1,140,8|8,0:0|0:0,0:0:0:0:
256,124,76179,2,0,L|256:208,2,70,10|8|10,0:0|0:0|0:0,0:0:0:0:
194,64,76936,2,0,B|140:64|140:64|116:96|64:96,1,140,8|8,0:0|0:0,0:0:0:0:
0,150,77692,1,10,0:0:0:0:
0,234,77944,6,0,B|40:274|40:274|43:282|43:282|48:277|48:277|51:285|51:285|91:325,1,140,12|8,0:0|0:0,0:0:0:0:
148,264,78700,2,0,L|197:313,1,70,10|8,0:0|0:0,0:0:0:0:
255,252,79205,2,0,B|291:236|319:248|323:252|327:256|355:268|391:252,1,140,10|10,0:0|0:0,0:0:0:0:
468,288,79961,2,0,P|392:252|468:216,1,210,8|2,0:0|0:0,0:0:0:0:
391,66,81221,2,0,B|356:66|356:66|330:41,1,70,2|0,0:0|0:0,0:0:0:0:
281,110,81726,2,0,B|256:86|256:86|231:110,1,70,2|4,0:0|0:0,0:0:0:0:
181,41,82230,6,0,B|156:66|156:66|121:66,1,70,6|8,0:0|0:0,0:0:0:0:
44,100,82734,2,0,B|36:66|36:66|44:32,2,70,10|8|10,0:0|0:0|0:0,0:0:0:0:
104,158,83490,2,0,B|112:192|112:192|104:226,2,70,8|10|8,0:0|0:0|0:0,0:0:0:0:
28,192,84247,2,0,L|102:310,1,140,10|10,0:0|0:0,0:0:0:0:
187,310,85003,2,0,B|256:322|256:322|325:310,1,140,8|8,0:0|0:0,0:0:0:0:
409,310,85759,1,10,0:0:0:0:
410,310,86011,6,0,L|484:192,1,140,12|8,0:0|0:0,0:0:0:0:
408,158,86768,2,0,B|374:150|374:150|340:158,1,70,10|8,0:0|0:0,0:0:0:0:
262,124,87272,2,0,P|202:155|142:124,1,140,10|10,0:0|0:0,0:0:0:0:
64,89,88028,2,0,L|170:269,1,210,8|2,0:0|0:0,0:0:0:0:
262,124,89289,2,0,L|297:184,1,70,2|0,0:0|0:0,0:0:0:0:
352,124,89793,2,0,L|387:184,1,70,2|4,0:0|0:0,0:0:0:0:
445,123,90297,6,0,B|469:144|484:184|469:224|445:245|445:245|477:310,1,210,6|0,0:0|0:0,0:0:0:0:
386,310,91305,2,0,B|350:294|322:306|318:310|314:314|286:326|250:310,1,140,2|2,0:0|0:0,0:0:0:0:
67,261,92314,2,0,B|43:240|28:200|43:160|67:139|67:139|34:73,1,210,2|0,0:0|0:0,0:0:0:0:
126,74,93322,2,0,B|162:90|190:78|194:74|198:70|226:58|262:74,1,140,2|2,0:0|0:0,0:0:0:0:
445,123,94331,6,0,P|456:192|445:261,1,140,6|2,0:0|0:0,0:0:0:0:
385,320,95087,1,0,0:0:0:0:
325,261,95339,2,0,P|314:192|325:123,1,140,2|2,0:0|0:0,0:0:0:0:
385,64,96095,2,0,B|359:39|359:39|291:39|291:39|265:64,1,140,0|0,0:0|0:0,0:0:0:0:
205,123,96852,1,2,0:0:0:0:
38,192,97356,2,0,B|93:233,1,70,2|0,0:0|0:0,0:0:0:0:
35,293,97860,1,2,0:0:0:0:
94,352,98112,1,4,0:0:0:0:
153,293,98364,6,0,B|222:293|222:293|294:293|334:365,1,210,6|0,0:0|0:0,0:0:0:0:
394,304,99373,2,0,P|423:242|483:208,1,140,2|2,0:0|0:0,0:0:0:0:
359,91,100381,2,0,B|290:91|290:91|218:91|177:18,1,210,2|0,0:0|0:0,0:0:0:0:
117,79,101389,2,0,P|88:141|28:175,1,140,10|2,0:0|0:0,0:0:0:0:
153,293,102398,6,0,B|213:293|213:293|221:289|221:289|229:285|229:285|291:285,1,140,6|2,0:0|0:0,0:0:0:0:
350,344,103154,1,0,0:0:0:0:
409,285,103406,1,2,0:0:0:0:
350,226,103658,2,0,B|328:200|290:192|290:192|328:184|350:158,1,140,0|0,0:0|0:0,0:0:0:0:
409,99,104415,2,0,B|408:36|344:0|284:12|256:56|256:56|228:12|168:0|104:36|103:99,1,420,2|2,0:0|0:0,0:0:0:0:
211,228,106431,6,0,P|256:272|301:228,2,140,14|10|10,0:0|0:0|0:0,0:0:0:0:
256,156,107692,1,8,0:0:0:0:
211,84,107944,1,10,0:0:0:0:
256,12,108196,2,0,B|326:12|326:12|375:61,1,140,8|8,0:0|0:0,0:0:0:0:
432,124,108952,2,0,P|446:192|432:260,1,140,10|10,0:0|0:0,0:0:0:0:
375,322,109709,1,8,0:0:0:0:
319,260,109961,2,0,L|256:289,1,70,10|4,0:0|0:0,0:0:0:0:
201,227,110465,6,0,L|73:285,2,140,14|10|10,0:0|0:0|0:0,0:0:0:0:
256,165,111726,1,8,0:0:0:0:
311,103,111978,2,0,P|345:95|379:103,1,70,10|0,0:0|0:0,0:0:0:0:
256,192,112482,12,8,115003,0:0:0:0:
