osu file format v12

[General]
AudioFilename: Applause.mp3
AudioLeadIn: 0
PreviewTime: 55076
Countdown: 0
SampleSet: Soft
StackLeniency: 0.7
Mode: 0
LetterboxInBreaks: 1
EpilepsyWarning: 1
WidescreenStoryboard: 1

[Editor]
DistanceSpacing: 0.8
BeatDivisor: 4
GridSize: 4

[Metadata]
Title:Applause
TitleUnicode:Applause
Artist:Lady Gaga
ArtistUnicode:Lady Gaga
Creator:musicage2010
Version:Easy
Source:
Tags:artpop
BeatmapID:291318
BeatmapSetID:111359

[Difficulty]
HPDrainRate:2
CircleSize:3
OverallDifficulty:2
ApproachRate:3
SliderMultiplier:0.999999999999999
SliderTickRate:2

[Events]
//Background and Video events
0,0,"bg.jpg",0,0
//Break Periods
2,41562,46779
2,110134,115351
2,150847,156494
//Storyboard Layer 0 (Background)
//Storyboard Layer 1 (Fail)
//Storyboard Layer 2 (Pass)
//Storyboard Layer 3 (Foreground)
//Storyboard Sound Samples
//Background Colour Transformations
3,100,255,255,255

[TimingPoints]
13934,428.571428571429,4,2,0,60,1,0
14255,-100,4,2,1,60,0,0
41362,-100,4,2,1,15,0,0
41469,-100,4,2,1,60,0,0
51648,-100,4,2,1,15,0,0
51862,-100,4,2,1,20,0,0
52076,-100,4,2,1,25,0,0
52291,-100,4,2,1,30,0,0
52505,-100,4,2,1,35,0,0
52719,-100,4,2,1,40,0,0
52934,-100,4,2,1,45,0,0
53148,-100,4,2,1,50,0,0
53362,-100,4,1,0,60,0,0
55076,-100,4,1,0,60,0,1
82505,-100,4,2,1,60,0,0
96112,-100,4,1,0,30,0,0
96326,-100,4,2,1,60,0,0
116791,-100,4,2,0,60,0,0
120219,-100,4,1,0,15,0,0
120434,-100,4,1,0,20,0,0
120648,-100,4,1,0,25,0,0
120862,-100,4,1,0,30,0,0
121076,-100,4,1,0,35,0,0
121291,-100,4,1,0,40,0,0
121505,-100,4,1,0,45,0,0
121719,-100,4,1,0,50,0,0
121934,-100,4,1,0,60,0,0
123648,-100,4,1,0,60,0,1
151076,-100,4,2,1,60,0,0
165648,-100,4,2,0,60,0,0
175076,-100,4,1,0,15,0,0
175291,-100,4,1,0,20,0,0
175505,-100,4,1,0,25,0,0
175719,-100,4,1,0,30,0,0
175934,-100,4,1,0,35,0,0
176148,-100,4,1,0,40,0,0
176362,-100,4,1,0,45,0,0
176576,-100,4,1,0,50,0,0
176791,-100,4,1,0,60,0,0
178505,-100,4,1,0,60,0,1
205934,-100,4,2,1,60,0,0

[Colours]
Combo1 : 255,192,0
Combo2 : 0,128,255
Combo3 : 0,96,191
Combo4 : 255,128,64

[HitObjects]
158,192,14362,2,0,B|256:212|256:212|356:192,1,200,8|0,0:0|0:0,0:0:0:0:
340,112,15648,1,0,0:0:0:0:
180,112,16505,1,0,0:0:0:0:
256,252,17362,1,0,0:0:0:0:
256,332,17791,1,8,0:0:0:0:
256,172,18648,1,8,0:0:0:0:
180,148,19076,2,0,P|256:92|332:148,2,200
116,192,21219,6,0,L|16:192,2,99.9999999999999,8|0|8,0:0|0:0|0:0,0:0:0:0:
180,240,22505,2,0,P|256:296|332:240,1,200
392,92,24219,2,0,L|392:192,1,99.9999999999999,0|8,0:0|0:0,0:0:0:0:
472,192,25076,2,0,L|472:92,1,99.9999999999999,0|8,0:0|0:0,0:0:0:0:
256,192,25934,12,0,27648,0:0:0:0:
36,192,28076,2,0,B|136:216|136:172|236:192,1,200,8|8,0:0|0:0,0:0:0:0:
208,268,29362,2,0,P|284:256|316:196,2,150,0|0|8,0:0|0:0|0:0,0:0:0:0:
236,192,31076,1,0,0:0:0:0:
276,124,31505,2,0,P|332:116|372:136,1,99.9999999999999,8|0,0:0|0:0,0:0:0:0:
372,296,32791,1,0,0:0:0:0:
16,192,34505,5,0,0:0:0:0:
40,116,34934,2,0,P|96:192|40:268,1,200,8|8,0:0|0:0,0:0:0:0:
16,192,36219,1,0,0:0:0:0:
176,192,37076,1,0,0:0:0:0:
336,192,37934,1,0,0:0:0:0:
496,192,38791,1,0,0:0:0:0:
336,192,39648,2,0,B|304:152|256:152|256:152|180:92|256:16|332:92|256:152|256:152|204:152|176:192,1,400,0|4,0:0|0:0,0:0:0:0:
168,288,48219,6,0,B|224:288|256:332|256:332|284:288|340:288,1,200,2|0,0:0|0:0,0:0:0:0:
364,212,49505,1,2,0:0:0:0:
256,96,50362,1,2,0:0:0:0:
148,212,51219,1,2,0:0:0:0:
173,136,51648,2,0,P|256:184|339:136,2,200
256,192,53576,12,4,55076,0:0:0:0:
132,192,55934,6,0,P|256:264|380:192,1,300,0|8,0:0|0:0,0:0:0:0:
324,136,57648,2,0,B|296:96|296:96|296:44,1,99.9999999999999,2|2,0:0|0:0,0:0:0:0:
216,44,58505,6,0,B|216:96|216:96|188:136,1,99.9999999999999,0|8,0:0|0:0,0:0:0:0:
112,112,59362,2,0,L|52:192,1,99.9999999999999,0|8,0:0|0:0,0:0:0:0:
4,256,60219,1,0,0:0:0:0:
52,192,60648,2,0,L|136:248,1,99.9999999999999,8|2,0:0|0:0,0:0:0:0:
216,236,61505,1,2,0:0:0:0:
256,168,61934,5,4,0:0:0:0:
296,236,62362,1,8,0:0:0:0:
376,248,62790,2,0,L|460:192,1,99.9999999999999,0|8,0:0|0:0,0:0:0:0:
508,256,63648,1,0,0:0:0:0:
460,192,64077,2,0,L|400:112,2,99.9999999999999,8|2|2,0:0|0:0|0:0,0:0:0:0:
256,192,65362,12,4,68791,0:0:0:0:
208,284,69648,6,0,L|308:284,2,99.9999999999999,0|8|0,0:0|0:0|0:0,0:0:0:0:
208,204,70934,2,0,B|208:176|208:176|208:144|256:100|304:144|304:176|304:176|304:204,1,200,8|8,0:0|0:0,0:0:0:0:
380,182,72219,2,0,P|255:54|131:183,1,400
256,284,74791,2,0,L|256:184,1,99.9999999999999,0|8,0:0|0:0,0:0:0:0:
256,192,75648,12,4,77362,0:0:0:0:
256,48,77791,5,8,0:0:0:0:
256,128,78219,1,2,0:0:0:0:
256,208,78648,1,2,0:0:0:0:
180,184,79076,2,0,P|256:288|332:184,1,300,0|8,0:0|0:0,0:0:0:0:
356,108,80791,2,0,B|332:64|332:64|296:28,1,99.9999999999999,0|8,0:0|0:0,0:0:0:0:
216,28,81648,2,0,B|180:63|180:63|156:107,1,99.9999999999999,0|8,0:0|0:0,0:0:0:0:
208,172,82505,6,0,L|308:172,1,99.9999999999999,0|8,0:0|0:0,0:0:0:0:
308,252,83362,2,0,L|208:252,1,99.9999999999999,0|8,0:0|0:0,0:0:0:0:
136,216,84219,2,0,P|136:292|200:332,1,150
272,332,85291,2,0,L|424:332,1,150
460,260,86362,1,8,0:0:0:0:
500,192,86791,1,0,0:0:0:0:
460,124,87219,1,8,0:0:0:0:
422,52,87648,1,0,0:0:0:0:
256,192,87755,12,0,89362,0:0:0:0:
256,192,89791,6,0,L|152:192,2,99.9999999999999,8|0|8,0:0|0:0|0:0,0:0:0:0:
280,116,91076,2,0,P|336:192|280:268,1,200
256,192,92362,1,8,0:0:0:0:
256,192,92791,2,0,P|200:120|256:40,1,200,0|0,0:0|0:0,0:0:0:0:
280,116,94076,2,0,L|380:116,1,99.9999999999999,8|0,0:0|0:0,0:0:0:0:
256,192,94612,12,0,96219,0:0:0:0:
164,248,96648,6,0,B|256:208|256:208|348:248,1,200,8|0,0:0|0:0,0:0:0:0:
368,168,97934,2,0,B|320:148|320:148|296:104,1,99.9999999999999,0|8,0:0|0:0,0:0:0:0:
214,105,98791,2,0,B|192:148|192:148|144:168,1,99.9999999999999,0|8,0:0|0:0,0:0:0:0:
68,192,99648,6,0,B|68:244|68:244|104:280|104:280|152:280|152:280|188:316|188:316|236:316|236:316|272:280,1,300,0|8,0:0|0:0,0:0:0:0:
240,208,101362,2,0,B|276:172|276:172|324:172|324:172|360:208|360:208|408:208|408:208|444:244|444:244|444:296,1,300,0|8,0:0|0:0,0:0:0:0:
364,300,103076,6,0,L|264:300,2,99.9999999999999,0|8|0,0:0|0:0|0:0,0:0:0:0:
364,220,104362,1,8,0:0:0:0:
364,140,104791,5,0,0:0:0:0:
256,88,105434,1,2,0:0:0:0:
256,88,105862,1,2,0:0:0:0:
148,140,106505,2,0,P|256:228|364:136,1,300,0|8,0:0|0:0,0:0:0:0:
288,116,108219,2,0,P|256:148|224:116,2,99.9999999999999,0|8|0,0:0|0:0|0:0,0:0:0:0:
256,44,109505,1,8,0:0:0:0:
256,44,109934,1,0,0:0:0:0:
332,88,116791,6,0,P|256:32|180:88,1,200,2|0,0:0|0:0,0:0:0:0:
256,112,118076,1,8,0:0:0:0:
256,192,118505,2,0,L|256:296,2,99.9999999999999,0|8|0,0:0|0:0|0:0,0:0:0:0:
176,192,119791,1,8,0:0:0:0:
256,192,120219,1,0,0:0:0:0:
336,332,121076,1,0,0:0:0:0:
176,332,121934,1,4,0:0:0:0:
380,192,123648,5,4,0:0:0:0:
380,192,124505,2,0,P|256:120|132:192,1,300,0|8,0:0|0:0,0:0:0:0:
188,248,126219,2,0,B|216:288|216:288|216:340,1,99.9999999999999,2|2,0:0|0:0,0:0:0:0:
296,340,127076,6,0,B|296:288|296:288|324:248,1,99.9999999999999,0|8,0:0|0:0,0:0:0:0:
400,272,127933,2,0,L|460:192,1,99.9999999999999,0|8,0:0|0:0,0:0:0:0:
508,128,128790,1,0,0:0:0:0:
460,192,129219,2,0,L|376:136,1,99.9999999999999,8|2,0:0|0:0,0:0:0:0:
296,148,130076,1,2,0:0:0:0:
256,216,130505,5,4,0:0:0:0:
216,148,130933,1,8,0:0:0:0:
136,136,131361,2,0,L|52:192,1,99.9999999999999,0|8,0:0|0:0,0:0:0:0:
4,128,132219,1,0,0:0:0:0:
52,192,132648,2,0,L|112:272,2,99.9999999999999,8|2|2,0:0|0:0|0:0,0:0:0:0:
256,192,133933,12,4,137362,0:0:0:0:
304,100,138219,6,0,L|204:100,2,99.9999999999999,0|8|0,0:0|0:0|0:0,0:0:0:0:
304,180,139505,2,0,B|304:208|304:208|304:240|256:284|208:240|208:208|208:208|208:180,1,200,8|8,0:0|0:0,0:0:0:0:
132,202,140790,2,0,P|257:330|381:201,1,400
256,100,143362,2,0,L|256:200,1,99.9999999999999,0|8,0:0|0:0,0:0:0:0:
256,192,144219,12,4,145933,0:0:0:0:
256,336,146362,5,8,0:0:0:0:
256,256,146790,1,2,0:0:0:0:
256,176,147219,1,2,0:0:0:0:
332,200,147647,2,0,P|256:96|180:200,1,300,0|8,0:0|0:0,0:0:0:0:
156,276,149362,2,0,B|180:320|180:320|216:356,1,99.9999999999999,0|8,0:0|0:0,0:0:0:0:
296,356,150219,2,0,B|332:321|332:321|356:277,1,99.9999999999999,0|8,0:0|0:0,0:0:0:0:
216,192,157934,6,2,P|144:212|72:192,2,150
296,192,159648,2,2,P|368:212|440:192,2,150
256,124,161362,1,2,0:0:0:0:
256,284,162219,1,2,0:0:0:0:
256,192,163076,12,4,164791,0:0:0:0:
156,48,165648,6,2,L|360:48,2,200
112,116,167791,1,8,0:0:0:0:
176,164,168219,2,2,B|216:192|216:192|216:244,1,99.9999999999999,2|8,0:0|0:0,0:0:0:0:
296,244,169076,2,0,B|296:192|296:192|336:164,1,99.9999999999999,0|8,0:0|0:0,0:0:0:0:
412,192,169934,1,2,0:0:0:0:
412,192,170362,1,8,0:0:0:0:
476,144,170791,6,0,P|492:192|476:240,1,99.9999999999999,0|8,0:0|0:0,0:0:0:0:
408,276,171648,2,2,B|352:272|316:220|332:168|332:168|296:136,1,200
256,68,172934,1,8,0:0:0:0:
216,136,173362,2,0,B|180:168|180:168|196:220|160:272|104:276,1,200
104,196,174648,1,8,0:0:0:0:
104,196,175076,6,0,P|256:306|412:196,1,400
256,192,176898,12,4,178505,0:0:0:0:
168,320,179362,6,0,B|216:320|256:280|256:280|296:320|348:320,1,200
368,244,180648,2,0,P|324:236|296:188,1,99.9999999999999,8|2,0:0|0:0,0:0:0:0:
215,191,181505,2,0,P|188:236|144:244,1,99.9999999999999,2|0,0:0|0:0,0:0:0:0:
256,128,182791,6,0,L|256:24,2,99.9999999999999,0|8|0,0:0|0:0|0:0,0:0:0:0:
180,156,184076,2,0,P|256:212|332:156,1,200,8|8,0:0|0:0,0:0:0:0:
408,180,185362,6,0,P|352:256|256:292,1,200,4|0,0:0|0:0,0:0:0:0:
256,212,186648,2,0,P|208:228|180:268,2,99.9999999999999,8|0|8,0:0|0:0|0:0,0:0:0:0:
256,132,187934,2,0,L|256:28,1,99.9999999999999,2|2,0:0|0:0,0:0:0:0:
256,192,188791,12,4,192219,0:0:0:0:
200,292,193076,6,0,P|284:272|288:168,1,200
224,216,194362,2,0,P|230:115|314:95,1,200,8|8,0:0|0:0,0:0:0:0:
292,172,195648,2,0,P|336:172|384:136,2,99.9999999999999,0|8|0,0:0|0:0|0:0,0:0:0:0:
320,248,196934,1,8,0:0:0:0:
256,296,197362,1,0,0:0:0:0:
192,248,197791,1,2,0:0:0:0:
220,172,198219,2,2,P|176:172|131:140,2,99.9999999999999,2|8|4,0:0|0:0|0:0,0:0:0:0:
256,328,199934,6,0,L|256:224,2,99.9999999999999,0|8|0,0:0|0:0|0:0,0:0:0:0:
336,328,201219,1,8,0:0:0:0:
256,328,201648,1,0,0:0:0:0:
176,328,202076,1,8,0:0:0:0:
208,256,202505,2,0,P|256:244|304:256,1,99.9999999999999,0|8,0:0|0:0,0:0:0:0:
350,190,203362,2,0,P|256:164|160:193,1,200
256,64,205076,5,0,0:0:0:0:
256,64,205505,1,8,0:0:0:0:
256,192,205934,12,2,207434,0:0:0:0:
