osu file format v12

[General]
AudioFilename: Lady Gaga - Applause.mp3
AudioLeadIn: 2000
PreviewTime: 123506
Countdown: 0
SampleSet: Soft
StackLeniency: 0.3
Mode: 0
LetterboxInBreaks: 0
WidescreenStoryboard: 0

[Editor]
DistanceSpacing: 1.1
BeatDivisor: 4
GridSize: 4

[Metadata]
Title:Applause
TitleUnicode:Applause
Artist:Lady Gaga
ArtistUnicode:Lady Gaga
Creator:Gero
Version:Hands in the Air
Source:
Tags:Haus of Gaga Mother Monster DJ White Shadow Artpop Stefani Joanne Angelina Germanotta
BeatmapID:310171
BeatmapSetID:120704

[Difficulty]
HPDrainRate:7
CircleSize:4
OverallDifficulty:7
ApproachRate:8
SliderMultiplier:1.9
SliderTickRate:2

[Events]
//Background and Video events
0,0,"BG.jpg",0,0
Video,0,"Video.avi"
//Break Periods
2,151242,157149
//Storyboard Layer 0 (Background)
//Storyboard Layer 1 (Fail)
//Storyboard Layer 2 (Pass)
//Storyboard Layer 3 (Foreground)
//Storyboard Sound Samples
//Background Colour Transformations
3,100,163,162,255

[TimingPoints]
185,428.571428571429,4,2,1,60,1,0
41327,-100,4,2,1,35,0,0
45613,-100,4,2,1,40,0,0
48185,-100,4,2,1,50,0,0
49899,-100,4,2,1,60,0,0
55042,-100,4,1,1,60,0,1
68649,-100,4,1,1,60,0,0
68756,-100,4,1,1,60,0,1
82042,-100,4,1,1,60,0,0
82470,-100,4,2,1,60,0,0
109899,-100,4,2,1,35,0,0
114613,-100,4,2,1,40,0,0
116756,-100,4,2,1,50,0,0
118470,-100,4,2,1,60,0,0
123613,-100,4,1,1,60,0,1
137220,-100,4,1,1,60,0,0
137327,-100,4,1,1,60,0,1
150613,-100,4,1,1,60,0,0
151042,-100,4,2,1,60,0,0
157899,-100,4,2,1,30,0,0
159613,-100,4,2,1,45,0,0
161327,-100,4,2,1,60,0,0
163042,-100,4,2,1,30,0,0
163685,-100,4,2,1,30,0,0
164756,-100,4,2,1,60,0,0
166792,-100,4,2,2,60,0,0
167006,-100,4,2,1,60,0,0
176970,-100,4,1,1,40,0,0
178470,-90.9090909090909,4,1,1,60,0,1
192077,-90.9090909090909,4,1,1,60,0,0
192185,-90.9090909090909,4,1,1,60,0,1
205470,-90.9090909090909,4,1,1,60,0,0
205899,-90.9090909090909,4,1,1,60,0,0

[Colours]
Combo1 : 0,55,111
Combo2 : 9,147,105
Combo3 : 15,73,208
Combo4 : 255,128,0

[HitObjects]
256,192,10470,12,2,13042,0:0:0:0:
488,192,13470,5,2,0:0:0:0:
24,192,13899,5,6,0:0:0:0:
5,89,14113,1,0,0:0:0:0:
103,44,14327,2,0,P|152:44|183:75,1,95,10|0,0:0|0:0,0:0:0:0:
256,149,14756,1,0,0:0:0:0:
313,235,14970,1,2,0:0:0:0:
313,235,15185,2,0,P|373:294|474:271,1,190,10|2,0:0|0:0,0:0:0:0:
408,192,15827,5,0,0:0:0:0:
406,87,16042,2,0,P|452:91|487:123,1,95,8|2,0:0|0:0,0:0:0:0:
408,192,16470,1,0,0:0:0:0:
313,235,16685,1,2,0:0:0:0:
313,235,16899,2,0,B|266:224|266:224|220:234,1,95,10|0,0:0|0:0,0:0:0:0:
40,116,17327,5,2,0:0:0:0:
138,69,17542,1,0,0:0:0:0:
138,69,17756,2,0,P|151:113|135:157,1,95,8|2,0:0|0:0,0:0:0:0:
61,231,18185,1,0,0:0:0:0:
8,321,18399,2,0,L|91:370,2,95,2|10|0,0:0|0:0|0:0,0:0:0:0:
61,231,19042,6,0,B|137:274|137:274|241:274,1,190,2|8,0:0|0:0,0:0:0:0:
344,274,19685,1,0,0:0:0:0:
417,200,19899,1,0,0:0:0:0:
384,100,20113,2,0,L|400:56,2,47.5,2|2|10,0:0|0:0|0:0,0:0:0:0:
417,200,20542,1,0,0:0:0:0:
344,274,20756,1,2,0:0:0:0:
239,274,20970,1,0,0:0:0:0:
266,182,21185,6,0,P|218:175|177:196,1,95,10|0,0:0|0:0,0:0:0:0:
239,274,21613,2,0,P|246:322|227:363,1,95,2|2,0:0|0:0,0:0:0:0:
142,299,22042,2,0,P|57:299|6:212,1,190,10|2,0:0|0:0,0:0:0:0:
109,200,22685,5,0,0:0:0:0:
109,200,22899,2,0,P|100:151|64:118,1,95,8|2,0:0|0:0,0:0:0:0:
142,299,23327,2,0,P|151:348|187:381,1,95,0|2,0:0|0:0,0:0:0:0:
250,298,23756,2,0,P|338:268|338:182,1,190,10|2,0:0|0:0,0:0:0:0:
256,117,24399,5,0,0:0:0:0:
173,52,24613,2,0,L|80:82,1,95,8|2,0:0|0:0,0:0:0:0:
256,117,25042,2,0,L|351:91,1,95,0|2,0:0|0:0,0:0:0:0:
426,160,25470,2,0,P|459:249|426:333,1,190,10|2,0:0|0:0,0:0:0:0:
321,347,26113,5,0,0:0:0:0:
225,304,26327,2,0,P|178:291|135:303,2,95,8|0|0,0:0|0:0|0:0,0:0:0:0:
321,347,26970,2,0,L|371:363,2,47.5,2|2|10,0:0|0:0|0:0,0:0:0:0:
225,304,27399,1,0,0:0:0:0:
51,245,27613,5,2,0:0:0:0:
40,141,27827,1,0,0:0:0:0:
103,57,28042,2,0,P|152:57|191:90,1,95,8|2,0:0|0:0,0:0:0:0:
176,187,28470,2,0,P|222:185|259:155,1,95,0|2,0:0|0:0,0:0:0:0:
323,73,28899,1,10,0:0:0:0:
399,144,29113,1,0,0:0:0:0:
399,144,29327,6,0,B|375:197|418:231|450:261|435:329,1,190,2|8,0:0|0:0,0:0:0:0:
336,294,29970,2,0,B|288:282|256:332|256:332|224:282|176:294,1,190,2|2,0:0|0:0,0:0:0:0:
74,322,30613,1,8,0:0:0:0:
7,241,30827,1,0,0:0:0:0:
44,88,31042,6,0,L|234:58,1,190,2|8,0:0|0:0,0:0:0:0:
335,44,31685,1,2,0:0:0:0:
391,131,31899,2,0,B|391:177|391:177|416:220,1,95,0|2,0:0|0:0,0:0:0:0:
504,274,32327,2,0,P|436:327|346:295,1,190,10|2,0:0|0:0,0:0:0:0:
256,239,32970,5,0,0:0:0:0:
168,151,33185,1,10,0:0:0:0:
167,325,33399,1,0,0:0:0:0:
80,238,33613,1,0,0:0:0:0:
256,239,33827,2,0,L|303:272,2,47.5,2|2|10,0:0|0:0|0:0,0:0:0:0:
168,151,34256,1,0,0:0:0:0:
216,58,34470,2,0,B|256:83|256:83|296:58,1,95,2|0,0:0|0:0,0:0:0:0:
344,151,34899,6,0,B|379:239|379:239|344:327,1,190,10|2,0:0|0:0,0:0:0:0:
256,239,35542,1,0,0:0:0:0:
168,151,35756,1,10,0:0:0:0:
80,238,35970,1,0,0:0:0:0:
80,238,36185,6,0,P|47:148|75:61,1,190,2|8,0:0|0:0,0:0:0:0:
168,151,36827,2,0,P|201:241|173:328,1,190,2|2,0:0|0:0,0:0:0:0:
292,366,37470,1,8,0:0:0:0:
410,330,37685,1,0,0:0:0:0:
396,226,37899,6,0,B|350:237|350:237|320:273,1,95,2|0,0:0|0:0,0:0:0:0:
469,152,38327,2,0,B|459:106|459:106|479:63,2,95,10|0|2,0:0|0:0|0:0,0:0:0:0:
489,254,38970,1,0,0:0:0:0:
410,330,39185,2,0,P|322:305|287:219,1,190,10|2,0:0|0:0,0:0:0:0:
396,226,39827,1,0,0:0:0:0:
469,152,40042,1,8,0:0:0:0:
396,76,40256,5,2,0:0:0:0:
396,76,40470,2,0,P|352:52|307:57,1,95,0|8,0:0|0:3,0:0:0:0:
286,74,40792,2,0,L|232:67,1,47.5,2|8,0:0|0:0,0:0:0:0:
142,26,41113,1,2,0:0:0:0:
45,64,41327,6,0,B|109:120|69:192|69:192|109:264|45:320,1,285,6|2,0:0|0:0,0:0:0:0:
160,359,42185,2,0,P|256:272|352:359,1,285,2|2,0:0|0:0,0:0:0:0:
465,319,43042,2,0,B|403:264|443:192|443:192|403:120|467:64,1,285,2|2,0:0|0:0,0:0:0:0:
369,25,43899,5,2,0:0:0:0:
309,111,44113,1,0,0:0:0:0:
212,70,44327,1,2,0:0:0:0:
137,144,44542,1,0,0:0:0:0:
137,143,44756,2,0,P|90:144|52:116,1,95,2|0,0:0|0:0,0:0:0:0:
215,213,45185,2,0,P|264:213|301:243,1,95,2|0,0:0|0:0,0:0:0:0:
225,314,45613,5,2,0:0:0:0:
320,355,45827,1,0,0:0:0:0:
419,321,46042,1,2,0:0:0:0:
446,220,46256,1,0,0:0:0:0:
425,116,46470,2,0,P|471:113|512:136,1,95,2|0,0:0|0:0,0:0:0:0:
327,156,46899,2,0,P|280:159|239:136,2,95,2|0|2,0:0|0:0|0:0,0:0:0:0:
304,53,47542,2,0,P|263:29|216:33,1,95,0|2,0:0|0:0,0:0:0:0:
69,180,48185,6,0,P|41:261|121:304,1,190,2|2,0:0|0:0,0:0:0:0:
205,246,48827,1,0,0:0:0:0:
290,184,49042,2,0,L|385:184,1,95,2|0,0:0|0:0,0:0:0:0:
487,198,49470,2,0,P|488:151|464:111,1,95,2|0,0:0|0:0,0:0:0:0:
419,277,49899,6,0,P|419:327|445:366,2,95,2|0|2,0:0|0:0|0:0,0:0:0:0:
487,198,50542,1,0,0:0:0:0:
437,106,50756,2,0,P|372:47|286:83,1,190,2|2,0:0|0:0,0:0:0:0:
234,173,51399,1,0,0:0:0:0:
182,263,51613,5,6,0:0:0:0:
256,192,51720,12,4,55042,0:0:0:0:
316,120,55256,5,2,0:2:0:0:
256,272,55470,1,8,0:0:0:0:
196,120,55685,1,0,0:0:0:0:
344,216,55899,1,2,0:2:0:0:
168,216,56113,1,2,0:2:0:0:
316,120,56327,2,0,P|401:128|445:215,1,190,8|2,0:0|0:2,0:0:0:0:
344,216,56970,1,0,0:0:0:0:
256,272,57185,6,0,L|178:326,1,95,8|2,0:0|0:2,0:0:0:0:
92,265,57613,2,0,L|14:319,1,95,0|2,0:0|0:2,0:0:0:0:
8,201,58042,2,0,L|163:86,1,190,8|2,0:0|0:2,0:0:0:0:
256,32,58685,5,0,0:0:0:0:
388,104,58899,1,8,0:0:0:0:
297,209,59113,2,0,P|281:252|296:297,1,95,2|0,0:2|0:0,0:0:0:0:
386,350,59542,1,2,0:2:0:0:
479,302,59756,2,0,P|493:257|477:214,1,95,8|0,0:0|0:0,0:0:0:0:
383,259,60185,6,0,L|179:248,1,190,2|8,0:2|0:0,0:0:0:0:
328,64,60827,1,0,0:0:0:0:
328,64,61042,2,0,L|124:53,2,190,2|8|4,0:2|0:0|0:0,0:0:0:0:
256,156,62113,5,0,0:0:0:0:
182,229,62327,2,0,P|138:252|94:242,1,95,8|2,0:0|0:2,0:0:0:0:
330,229,62756,2,0,P|374:252|418:242,1,95,0|2,0:0|0:2,0:0:0:0:
336,108,63185,2,0,P|256:64|176:108,1,190,8|2,0:0|0:2,0:0:0:0:
256,156,63827,1,0,0:0:0:0:
412,65,64042,5,8,0:0:0:0:
416,242,64256,1,0,0:0:0:0:
256,156,64470,1,0,0:0:0:0:
412,65,64685,1,2,0:2:0:0:
416,242,64899,2,0,P|368:250|339:285,1,95,8|0,0:0|0:0,0:0:0:0:
256,347,65327,5,2,0:2:0:0:
172,284,65542,1,0,0:0:0:0:
172,283,65756,2,0,P|142:248|96:242,1,95,8|2,0:0|0:2,0:0:0:0:
92,77,66185,1,0,0:0:0:0:
91,77,66399,2,0,P|121:112|167:118,1,95,2|8,0:2|0:0,0:0:0:0:
267,90,66827,5,2,0:2:0:0:
367,60,67042,2,0,P|456:80|476:168,1,190,2|8,0:2|0:0,0:0:0:0:
413,244,67685,1,2,0:2:0:0:
316,283,67899,2,0,P|310:191|389:148,1,190,2|8,0:2|0:0,0:0:0:0:
413,244,68542,1,2,0:2:0:0:
267,90,68756,5,4,0:0:0:0:
177,36,68970,1,2,0:2:0:0:
96,102,69185,2,0,P|77:148|89:193,1,95,8|8,0:0|0:0,0:0:0:0:
160,264,69613,2,0,P|171:309|152:352,2,95,2|2|8,0:2|0:2|0:0,0:0:0:0:
256,220,70256,1,0,0:0:0:0:
351,264,70470,2,0,P|340:309|359:352,1,95,2|0,0:2|0:0,0:0:0:0:
449,298,70899,5,8,0:0:0:0:
506,211,71113,1,8,0:0:0:0:
506,211,71327,2,0,L|437:143,1,95,0|2,0:0|0:2,0:0:0:0:
341,105,71756,2,0,B|298:83|253:116|253:116|206:148|163:119,1,190,8|4,0:0|0:0,0:0:0:0:
205,23,72399,5,2,0:2:0:0:
315,198,72613,2,0,B|315:246|315:246|295:290,1,95,8|8,0:0|0:0,0:0:0:0:
380,378,73042,2,0,B|380:330|380:330|400:288,1,95,2|2,0:2|0:2,0:0:0:0:
473,214,73470,1,8,0:0:0:0:
403,135,73685,5,2,0:2:0:0:
403,135,73899,2,0,B|322:102|322:102|273:83|226:122,1,190,2|8,0:2|0:0,0:0:0:0:
156,309,74542,1,8,0:0:0:0:
156,309,74756,2,0,B|237:342|237:342|286:361|333:322,1,190,2|8,0:2|0:0,0:0:0:0:
280,41,75613,6,0,L|183:41,1,95,4|2,0:0|0:2,0:0:0:0:
136,135,76042,2,0,L|231:135,1,95,8|8,0:0|0:0,0:0:0:0:
75,50,76470,2,0,P|31:136|68:214,1,190,2|8,0:2|0:0,0:0:0:0:
157,269,77113,1,2,0:2:0:0:
246,322,77327,2,0,L|350:345,1,95,0|2,0:0|0:2,0:0:0:0:
385,248,77756,6,0,L|477:268,2,95,8|8|0,0:0|0:0|0:0,0:0:0:0:
282,226,78399,1,2,0:2:0:0:
185,186,78613,2,0,P|139:105|185:31,1,190,8|2,0:0|0:2,0:0:0:0:
253,110,79256,5,0,0:0:0:0:
253,110,79470,2,0,L|342:65,1,95,8|8,0:0|0:0,0:0:0:0:
505,204,79899,1,2,0:2:0:0:
505,204,80113,2,0,L|416:249,1,95,0|8,0:0|0:0,0:0:0:0:
324,289,80542,5,2,0:2:0:0:
226,326,80756,2,0,P|132:302|111:220,1,190,2|8,0:2|0:0,0:0:0:0:
157,126,81399,1,8,0:0:0:0:
300,48,81613,2,0,B|256:31|256:31|212:48,1,95,2|0,0:2|0:0,0:0:0:0:
355,126,82042,1,8,0:0:0:0:
417,325,82470,5,6,0:0:0:0:
323,371,82685,1,0,0:0:0:0:
226,326,82899,2,0,P|187:299|138:299,1,95,10|0,0:0|0:0,0:0:0:0:
50,350,83327,1,0,0:0:0:0:
16,251,83542,1,2,0:0:0:0:
16,251,83756,2,0,B|47:194|21:155|-7:115|23:67,1,190,10|2,0:0|0:0,0:0:0:0:
115,115,84399,5,0,0:0:0:0:
176,199,84613,2,0,B|200:233|200:233|200:286,1,95,8|2,0:0|0:0,0:0:0:0:
256,374,85042,1,0,0:0:0:0:
312,286,85256,1,2,0:0:0:0:
312,286,85470,2,0,B|312:233|312:233|336:199,1,95,10|0,0:0|0:0,0:0:0:0:
256,39,85899,5,2,0:0:0:0:
212,124,86113,1,0,0:0:0:0:
212,124,86327,2,0,P|256:139|300:124,1,95,8|2,0:0|0:0,0:0:0:0:
388,67,86756,1,0,0:0:0:0:
453,147,86970,2,0,B|453:193|453:193|484:240,2,95,2|10|0,0:0|0:0|0:0,0:0:0:0:
388,67,87613,6,0,B|336:37|297:61|263:84|204:60,1,190,2|8,0:0|0:0,0:0:0:0:
99,43,88256,1,0,0:0:0:0:
33,123,88470,1,0,0:0:0:0:
66,221,88685,2,0,L|53:268,2,47.5,2|2|10,0:0|0:0|0:0,0:0:0:0:
33,123,89113,1,0,0:0:0:0:
99,43,89327,1,2,0:0:0:0:
208,29,89542,1,0,0:0:0:0:
282,103,89756,6,0,P|296:151|281:191,1,95,10|0,0:0|0:0,0:0:0:0:
204,353,90185,2,0,P|190:309|206:265,1,95,2|2,0:0|0:0,0:0:0:0:
298,308,90613,2,0,L|96:313,1,190,10|2,0:0|0:0,0:0:0:0:
56,221,91256,5,0,0:0:0:0:
107,130,91470,2,0,B|151:130|151:130|178:130|197:149,1,95,8|2,0:0|0:0,0:0:0:0:
292,191,91899,2,0,B|311:210|338:210|338:210|382:210,1,95,0|2,0:0|0:0,0:0:0:0:
441,295,92327,2,0,P|486:216|450:131,1,190,10|2,0:0|0:0,0:0:0:0:
353,90,92970,5,0,0:0:0:0:
253,58,93185,2,0,L|157:33,1,95,8|2,0:0|0:0,0:0:0:0:
284,155,93613,2,0,L|354:89,1,95,0|2,0:0|0:0,0:0:0:0:
196,138,94042,2,0,B|186:192|226:222|226:222|243:267|198:308,1,190,10|2,0:0|0:0,0:0:0:0:
108,360,94685,5,0,0:0:0:0:
92,256,94899,2,0,P|45:276|17:316,2,95,8|0|0,0:0|0:0|0:0,0:0:0:0:
200,307,95542,2,0,L|229:348,2,47.5,2|2|10,0:0|0:0|0:0,0:0:0:0:
179,204,95970,1,8,0:0:0:0:
179,204,96185,2,0,P|208:166|208:120,1,95,2|0,0:0|0:0,0:0:0:0:
303,120,96613,6,0,P|304:167|333:204,1,95,8|2,0:0|0:0,0:0:0:0:
333,307,97042,2,0,P|379:303|416:268,1,95,0|2,0:0|0:0,0:0:0:0:
483,192,97470,1,10,0:0:0:0:
409,118,97685,1,0,0:0:0:0:
340,39,97899,6,0,B|288:31|256:71|256:71|224:31|172:39,1,190,2|8,0:0|0:0,0:0:0:0:
172,256,98542,2,0,B|224:264|256:224|256:224|288:264|340:256,1,190,2|2,0:0|0:0,0:0:0:0:
256,336,99185,1,8,0:0:0:0:
256,336,99399,1,0,0:0:0:0:
212,156,99613,6,0,P|256:140|300:156,1,95,2|2,0:0|0:0,0:0:0:0:
341,256,100042,1,8,0:0:0:0:
256,336,100256,1,2,0:0:0:0:
172,256,100470,2,0,B|157:300|157:300|115:325,1,95,0|2,0:0|0:0,0:0:0:0:
212,156,100899,2,0,P|256:89|300:156,1,190,10|2,0:0|0:0,0:0:0:0:
341,256,101542,5,0,0:0:0:0:
480,348,101756,1,10,0:0:0:0:
512,176,101970,1,0,0:0:0:0:
372,72,102185,1,0,0:0:0:0:
341,256,102399,2,0,L|388:289,2,47.5,2|2|10,0:0|0:0|0:0,0:0:0:0:
256,317,102827,1,0,0:0:0:0:
171,256,103042,2,0,B|131:281|131:281|91:256,1,95,2|0,0:0|0:0,0:0:0:0:
37,89,103470,6,0,P|97:26|187:53,1,190,10|2,0:0|0:0,0:0:0:0:
256,130,104113,1,0,0:0:0:0:
327,52,104327,1,10,0:0:0:0:
407,117,104542,1,0,0:0:0:0:
407,117,104756,6,0,P|440:207|412:294,1,190,2|8,0:0|0:0,0:0:0:0:
176,208,105399,2,0,P|255:164|335:207,1,190,2|2,0:0|0:0,0:0:0:0:
99,293,106042,1,8,0:0:0:0:
27,215,106256,1,0,0:0:0:0:
90,132,106470,6,0,B|158:60,1,95,2|0,0:0|0:0,0:0:0:0:
313,39,106899,2,0,B|248:109,2,95,10|0|2,0:0|0:0|0:0,0:0:0:0:
417,37,107542,1,0,0:0:0:0:
451,136,107756,2,0,B|423:179|450:224|474:270|448:322,1,190,10|2,0:0|0:0,0:0:0:0:
356,368,108399,1,0,0:0:0:0:
256,248,108613,1,8,0:0:0:0:
156,368,108827,5,2,0:0:0:0:
60,248,109042,2,0,P|36:204|41:159,1,95,0|8,0:0|0:3,0:0:0:0:
52,134,109363,2,0,L|22:98,1,47.5,2|8,0:0|0:0,0:0:0:0:
90,18,109685,1,2,0:0:0:0:
132,110,109899,6,0,B|204:82|256:151|256:151|308:82|380:110,1,285,6|2,0:0|0:0,0:0:0:0:
440,196,110756,2,0,B|391:230|340:201|340:201|280:247|313:319|375:337,1,285,2|2,0:0|0:0,0:0:0:0:
137,337,111613,2,0,B|199:319|232:247|172:201|172:201|121:230|72:196,1,285,2|2,0:0|0:0,0:0:0:0:
132,110,112470,5,2,0:0:0:0:
316,32,112685,1,0,0:0:0:0:
196,32,112899,1,10,0:0:0:0:
380,110,113113,1,0,0:0:0:0:
343,207,113327,2,0,P|387:217|435:197,1,95,2|0,0:0|0:0,0:0:0:0:
169,207,113756,2,0,P|125:217|77:197,1,95,10|8,0:0|0:0,0:0:0:0:
132,300,114185,5,2,0:0:0:0:
316,378,114399,1,0,0:0:0:0:
196,378,114613,1,10,0:0:0:0:
380,300,114827,1,0,0:0:0:0:
343,207,115042,2,0,P|387:197|435:217,1,95,2|0,0:0|0:0,0:0:0:0:
169,207,115470,2,0,P|125:197|77:217,2,95,10|8|2,0:0|0:0|0:0,0:0:0:0:
216,113,116113,2,0,B|256:138|256:138|296:113,1,95,0|10,0:0|0:0,0:0:0:0:
336,318,116756,6,0,P|256:361|176:317,1,190,2|10,0:0|0:0,0:0:0:0:
256,251,117399,1,8,0:0:0:0:
343,192,117613,2,0,B|389:192|389:192|428:221,1,95,2|0,0:0|0:0,0:0:0:0:
169,192,118042,2,0,B|123:192|123:192|84:221,1,95,10|0,0:0|0:0,0:0:0:0:
212,112,118470,6,0,P|256:96|300:112,2,95,2|0|8,0:0|0:0|0:0,0:0:0:0:
256,251,119113,1,8,0:0:0:0:
176,317,119327,2,0,P|256:361|336:318,1,190,2|10,0:0|0:0,0:0:0:0:
410,243,119970,1,8,0:0:0:0:
376,143,120185,6,0,P|396:99|443:76,1,95,14|8,0:0|0:0,0:0:0:0:
256,108,120613,2,0,L|256:14,1,95,8|8,0:0|0:0,0:0:0:0:
136,143,121042,2,0,P|116:99|69:76,1,95,8|8,0:0|0:0,0:0:0:0:
136,241,121470,2,0,P|116:285|69:308,1,95,8|8,0:0|0:0,0:0:0:0:
256,276,121899,5,14,0:0:0:0:
256,160,123613,5,4,0:0:0:0:
204,304,123827,1,2,0:2:0:0:
104,212,124042,1,8,0:0:0:0:
308,304,124256,1,0,0:0:0:0:
408,212,124470,1,2,0:2:0:0:
256,160,124685,1,2,0:2:0:0:
184,83,124899,2,0,P|256:31|328:83,1,190,8|2,0:0|0:2,0:0:0:0:
256,160,125542,1,0,0:0:0:0:
206,251,125756,6,0,P|176:286|130:295,1,95,8|2,0:0|0:2,0:0:0:0:
128,192,126185,2,0,P|85:170|67:125,1,95,0|2,0:0|0:2,0:0:0:0:
184,83,126613,2,0,P|256:31|328:83,1,190,8|2,0:0|0:2,0:0:0:0:
448,192,127256,5,2,0:2:0:0:
392,316,127470,1,8,0:0:0:0:
256,356,127685,1,2,0:2:0:0:
120,316,127899,1,0,0:0:0:0:
64,192,128113,1,2,0:2:0:0:
120,68,128327,1,8,0:0:0:0:
256,28,128542,5,2,0:2:0:0:
256,28,128756,2,0,L|256:218,1,190,2|8,0:2|0:0,0:0:0:0:
256,356,129399,1,2,0:2:0:0:
170,295,129613,2,0,P|170:258|129:222,1,95,0|2,0:0|0:2,0:0:0:0:
342,295,130042,2,0,P|342:258|383:222,1,95,8|2,0:0|0:2,0:0:0:0:
482,83,130470,5,4,0:0:0:0:
383,118,130685,1,0,0:0:0:0:
383,118,130899,2,0,L|289:98,1,95,8|2,0:0|0:2,0:0:0:0:
458,175,131327,2,0,L|482:83,1,95,0|2,0:0|0:2,0:0:0:0:
383,118,131756,2,0,L|327:314,1,190,8|2,0:0|0:2,0:0:0:0:
256,376,132399,1,0,0:0:0:0:
161,332,132613,6,0,P|145:289|160:241,1,95,8|2,0:0|0:2,0:0:0:0:
229,80,133042,2,0,P|245:124|232:169,1,95,2|2,0:2|0:2,0:0:0:0:
138,122,133470,2,0,L|330:132,1,190,8|2,0:0|0:2,0:0:0:0:
407,200,134113,5,0,0:0:0:0:
336,276,134327,2,0,B|336:325|336:325|361:363,1,95,8|2,0:0|0:2,0:0:0:0:
256,367,134756,1,0,0:0:0:0:
151,363,134970,2,0,B|176:325|176:325|176:276,1,95,2|8,0:2|0:0,0:0:0:0:
256,209,135399,5,2,0:2:0:0:
167,152,135613,2,0,B|121:130|123:68|123:68|176:65|196:24,1,190,2|8,0:2|0:0,0:0:0:0:
256,110,136256,1,2,0:2:0:0:
316,24,136470,2,0,B|336:65|389:68|389:68|391:130|345:152,1,190,2|8,0:2|0:0,0:0:0:0:
256,110,137113,1,2,0:2:0:0:
79,201,137327,5,4,0:0:0:0:
139,285,137542,1,2,0:2:0:0:
79,201,137756,2,0,P|60:155|72:110,1,95,8|8,0:0|0:0,0:0:0:0:
139,285,138185,2,0,B|188:285|188:285|222:319,1,95,2|2,0:2|0:2,0:0:0:0:
316,360,138613,1,8,0:0:0:0:
412,320,138827,1,0,0:0:0:0:
412,320,139042,2,0,P|425:275|412:229,1,95,2|0,0:2|0:0,0:0:0:0:
345,149,139470,5,8,0:0:0:0:
264,82,139685,1,8,0:0:0:0:
264,82,139899,2,0,L|169:82,1,95,2|2,0:2|0:2,0:0:0:0:
345,149,140327,2,0,B|376:143|403:160|403:160|422:123|422:123|456:160|501:151,1,190,8|4,0:0|0:0,0:0:0:0:
495,46,140970,5,2,0:2:0:0:
495,46,141185,2,0,L|402:21,1,95,8|8,0:0|0:0,0:0:0:0:
211,28,141613,2,0,L|303:53,1,95,2|2,0:2|0:2,0:0:0:0:
345,149,142042,1,8,0:0:0:0:
472,296,142256,5,2,0:2:0:0:
472,296,142470,2,0,B|418:283|399:339|399:339|345:314|317:361,1,190,2|8,0:2|0:0,0:0:0:0:
40,296,143113,1,8,0:2:0:0:
40,296,143327,2,0,B|94:283|113:339|113:339|167:314|195:361,1,190,2|8,0:2|0:0,0:0:0:0:
480,104,144185,6,0,B|430:104|430:104|396:74,1,95,4|2,0:0|0:2,0:0:0:0:
265,137,144613,2,0,B|315:137|315:137|349:167,1,95,8|8,0:0|0:0,0:0:0:0:
210,48,145042,2,0,P|166:134|203:212,1,190,2|8,0:2|0:0,0:0:0:0:
256,302,145685,1,2,0:2:0:0:
340,363,145899,2,0,P|366:327|420:327,1,95,0|2,0:0|0:2,0:0:0:0:
172,363,146327,6,0,P|146:327|92:327,1,95,8|8,0:0|0:0,0:0:0:0:
33,241,146756,1,0,0:0:0:0:
56,139,146970,1,2,0:2:0:0:
56,139,147185,2,0,L|235:75,1,190,8|2,0:0|0:2,0:0:0:0:
420,96,147827,5,0,0:0:0:0:
420,96,148042,2,0,L|331:127,1,95,8|8,0:0|0:0,0:0:0:0:
204,275,148470,1,2,0:2:0:0:
204,275,148685,2,0,L|293:244,1,95,0|8,0:0|0:0,0:0:0:0:
395,268,149113,5,2,0:2:0:0:
453,354,149327,2,0,P|496:268|462:188,1,190,2|8,0:2|0:0,0:0:0:0:
420,96,149970,1,8,0:0:0:0:
353,190,150185,2,0,P|361:236|398:270,2,95,2|0|8,0:2|0:0|0:0,0:0:0:0:
477,21,151042,5,6,0:0:0:0:
256,192,157899,12,0,163042,0:0:0:0:
192,136,163685,5,2,0:0:0:0:
320,248,163899,1,0,0:0:0:0:
192,248,164113,1,2,0:0:0:0:
320,136,164327,1,0,0:0:0:0:
256,44,164542,1,2,0:0:0:0:
132,334,164756,6,0,B|204:306|256:375|256:375|308:306|380:334,1,285,6|2,0:0|0:0,0:0:0:0:
426,239,165613,2,0,P|307:177|354:55,1,285,2|2,0:0|0:0,0:0:0:0:
161,56,166470,2,0,P|202:180|86:239,1,285,2|2,0:0|0:0,0:0:0:0:
97,134,167327,5,2,0:0:0:0:
256,290,167542,1,0,0:0:0:0:
415,134,167756,1,10,0:0:0:0:
256,31,167970,1,0,0:0:0:0:
185,108,168185,2,0,P|228:121|256:160,1,95,2|0,0:0|0:0,0:0:0:0:
327,108,168613,2,0,P|284:121|256:160,1,95,10|8,0:0|0:0,0:0:0:0:
159,207,169042,5,2,0:0:0:0:
353,311,169256,1,0,0:0:0:0:
256,348,169470,1,10,0:0:0:0:
159,311,169685,1,0,0:0:0:0:
353,207,169899,2,0,P|397:215|435:248,1,95,2|0,0:0|0:0,0:0:0:0:
159,207,170327,2,0,P|115:215|77:248,2,95,10|8|2,0:0|0:0|0:0,0:0:0:0:
216,118,170970,2,0,B|256:93|256:93|296:118,1,95,0|10,0:0|0:0,0:0:0:0:
478,324,171613,6,0,B|432:302|432:302|408:328|365:328|365:328|357:293|331:275,1,190,10|10,0:0|0:0,0:0:0:0:
256,348,172256,1,0,0:0:0:0:
180,274,172470,2,0,P|152:311|144:358,1,95,10|0,0:0|0:0,0:0:0:0:
256,204,172899,2,0,L|213:111,1,95,10|0,0:0|0:0,0:0:0:0:
313,78,173327,6,0,L|413:54,2,95,10|0|8,0:0|0:0|0:0,0:0:0:0:
216,118,173970,1,0,0:0:0:0:
135,183,174185,2,0,P|108:273|145:359,1,190,10|10,0:0|0:0,0:0:0:0:
256,348,174827,1,8,0:0:0:0:
370,351,175042,5,14,0:0:0:0:
479,381,175256,1,8,0:0:0:0:
333,248,175470,1,8,0:0:0:0:
442,278,175685,1,8,0:0:0:0:
289,142,175899,1,8,0:0:0:0:
398,172,176113,1,8,0:0:0:0:
247,35,176327,1,8,0:0:0:0:
356,65,176542,1,8,0:0:0:0:
398,172,176756,1,14,0:0:0:0:
256,192,176970,12,4,178470,0:0:0:0:
118,53,178685,1,2,0:2:0:0:
29,141,178899,1,8,0:0:0:0:
117,229,179113,1,8,0:0:0:0:
29,141,179327,1,2,0:2:0:0:
118,53,179542,1,2,0:2:0:0:
207,142,179756,2,0,P|237:241|194:333,1,209.000006378174,8|2,0:0|0:2,0:0:0:0:
117,229,180399,1,0,0:0:0:0:
299,65,180613,6,0,L|403:65,1,104.500003189087,8|8,0:0|0:0,0:0:0:0:
492,153,181042,2,0,L|388:153,1,104.500003189087,0|2,0:0|0:2,0:0:0:0:
298,241,181470,2,0,B|407:241|407:241|460:241|491:288,1,209.000006378174,8|2,0:0|0:2,0:0:0:0:
379,346,182113,5,2,0:2:0:0:
256,373,182327,1,8,0:0:0:0:
133,346,182542,1,8,0:0:0:0:
86,229,182756,1,0,0:0:0:0:
133,113,182970,1,2,0:2:0:0:
256,76,183185,1,8,0:0:0:0:
379,113,183399,1,2,0:2:0:0:
426,229,183613,6,0,B|354:229|354:229|296:265|296:265|228:265,1,209.000006378174,2|8,0:2|0:0,0:0:0:0:
133,346,184256,1,8,0:0:0:0:
86,229,184470,2,0,L|3:160,1,104.500003189087,0|2,0:0|0:2,0:0:0:0:
51,48,184899,2,0,L|133:112,1,104.500003189087,8|2,0:0|0:2,0:0:0:0:
221,201,185327,5,4,0:0:0:0:
340,162,185542,1,0,0:0:0:0:
340,162,185756,2,0,L|447:186,1,104.500003189087,8|8,0:0|0:0,0:0:0:0:
246,99,186185,2,0,L|221:201,1,104.500003189087,0|2,0:0|0:2,0:0:0:0:
193,323,186613,2,0,P|110:354|26:283,1,209.000006378174,8|2,0:0|0:2,0:0:0:0:
135,212,187256,1,0,0:0:0:0:
247,156,187470,6,0,P|292:139|341:163,1,104.500003189087,8|8,0:0|0:0,0:0:0:0:
503,272,187899,2,0,P|455:289|410:266,1,104.500003189087,2|2,0:2|0:2,0:0:0:0:
287,231,188327,2,0,L|306:21,1,209.000006378174,8|2,0:0|0:2,0:0:0:0:
412,152,188970,5,0,0:0:0:0:
412,152,189185,2,0,B|399:260,1,104.500003189087,8|8,0:0|0:0,0:0:0:0:
167,374,189613,1,0,0:0:0:0:
167,374,189827,2,0,B|180:266,1,104.500003189087,2|8,0:2|0:0,0:0:0:0:
266,179,190256,5,2,0:2:0:0:
355,90,190470,2,0,P|456:81|496:168,1,209.000006378174,2|8,0:2|0:0,0:0:0:0:
424,270,191113,1,8,0:0:0:0:
347,369,191327,2,0,B|136:325,1,209.000006378174,2|8,0:2|0:0,0:0:0:0:
26,277,191970,1,2,0:2:0:0:
69,102,192185,5,4,0:0:0:0:
181,47,192399,1,2,0:2:0:0:
181,47,192613,2,0,P|233:47|271:81,1,104.500003189087,8|8,0:0|0:0,0:0:0:0:
183,171,193042,2,0,P|221:204|272:204,1,104.500003189087,2|2,0:2|0:2,0:0:0:0:
387,153,193470,1,8,0:0:0:0:
479,237,193685,1,0,0:0:0:0:
479,237,193899,2,0,P|495:288|476:337,1,104.500003189087,2|0,0:2|0:0,0:0:0:0:
362,382,194327,5,8,0:0:0:0:
240,352,194542,1,8,0:0:0:0:
240,352,194756,2,0,L|131:352,1,104.500003189087,0|2,0:0|0:2,0:0:0:0:
50,259,195185,2,0,P|17:164|49:62,1,209.000006378174,8|4,0:0|0:0,0:0:0:0:
170,34,195827,5,2,0:2:0:0:
291,64,196042,2,0,L|398:91,1,104.500003189087,8|8,0:0|0:0,0:0:0:0:
301,199,196470,2,0,L|404:226,1,104.500003189087,2|2,0:2|0:2,0:0:0:0:
491,319,196899,1,8,0:0:0:0:
371,358,197113,5,2,0:2:0:0:
371,358,197327,2,0,B|317:383|271:352|223:327|168:358,1,209.000006378174,2|8,0:2|0:0,0:0:0:0:
168,232,197970,1,8,0:0:0:0:
168,232,198185,2,0,B|223:263|271:238|317:207|371:232,1,209.000006378174,2|8,0:2|0:0,0:0:0:0:
101,21,199042,6,0,P|52:36|23:82,1,104.500003189087,4|2,0:0|0:2,0:0:0:0:
134,139,199470,2,0,P|183:123|211:81,1,104.500003189087,8|8,0:0|0:0,0:0:0:0:
21,192,199899,2,0,P|21:291|109:339,1,209.000006378174,2|8,0:2|0:0,0:0:0:0:
230,307,200542,1,2,0:2:0:0:
348,267,200756,2,0,L|452:232,1,104.500003189087,0|2,0:0|0:2,0:0:0:0:
230,307,201185,6,0,L|251:200,1,104.500003189087,8|8,0:0|0:0,0:0:0:0:
271,80,201613,1,0,0:0:0:0:
152,39,201827,1,2,0:2:0:0:
152,38,202042,2,0,P|58:60|33:164,1,209.000006378174,8|2,0:0|0:2,0:0:0:0:
129,333,202685,5,0,0:0:0:0:
129,333,202899,2,0,L|232:307,1,104.500003189087,8|8,0:0|0:0,0:0:0:0:
421,193,203327,1,2,0:2:0:0:
421,193,203542,2,0,L|319:218,1,104.500003189087,0|8,0:0|0:0,0:0:0:0:
505,100,203970,5,2,0:2:0:0:
396,37,204185,2,0,B|325:37|325:37|269:63|269:63|193:63,1,209.000006378174,2|8,0:2|0:0,0:0:0:0:
68,45,204827,1,8,0:0:0:0:
22,161,205042,2,0,B|22:213|22:213|55:258,1,104.500003189087,2|0,0:2|0:0,0:0:0:0:
112,364,205470,1,8,0:0:0:0:
456,324,205899,5,2,0:2:0:0:
456,324,206113,1,2,0:2:0:0:
256,44,206542,5,0,0:0:0:0:
256,44,206756,1,2,0:2:0:0:
56,324,207185,5,2,0:2:0:0:
56,324,207399,1,2,0:2:0:0:
