osu file format v12

[General]
AudioFilename: Lady Gaga - Applause.mp3
AudioLeadIn: 2000
PreviewTime: 123506
Countdown: 0
SampleSet: Normal
StackLeniency: 0.3
Mode: 0
LetterboxInBreaks: 0
WidescreenStoryboard: 0

[Editor]
DistanceSpacing: 1.1
BeatDivisor: 4
GridSize: 4

[Metadata]
Title:Applause
TitleUnicode:Applause
Artist:Lady Gaga
ArtistUnicode:Lady Gaga
Creator:Gero
Version:Hands Down
Source:
Tags:Haus of Gaga Mother Monster DJ White Shadow Artpop Stefani Joanne Angelina Germanotta
BeatmapID:309320
BeatmapSetID:120704

[Difficulty]
HPDrainRate:4
CircleSize:3
OverallDifficulty:4
ApproachRate:5
SliderMultiplier:0.9
SliderTickRate:2

[Events]
//Background and Video events
0,0,"BG.jpg",0,0
Video,0,"Video.avi"
//Break Periods
2,151242,156185
//Storyboard Layer 0 (Background)
//Storyboard Layer 1 (Fail)
//Storyboard Layer 2 (Pass)
//Storyboard Layer 3 (Foreground)
//Storyboard Sound Samples
//Background Colour Transformations
3,100,163,162,255

[TimingPoints]
185,428.571428571429,4,2,1,60,1,0
41327,-100,4,2,1,35,0,0
45613,-100,4,2,1,40,0,0
48185,-100,4,2,1,50,0,0
49899,-100,4,2,1,60,0,0
55042,-100,4,1,1,60,0,1
60506,-100,4,1,2,60,0,1
60720,-100,4,1,1,60,0,1
67363,-100,4,1,2,60,0,1
67577,-100,4,1,1,60,0,1
68649,-100,4,1,1,60,0,0
68756,-100,4,1,1,60,0,1
82042,-100,4,1,1,60,0,0
82470,-100,4,2,1,60,0,0
109899,-100,4,2,1,35,0,0
114613,-100,4,2,1,40,0,0
116756,-100,4,2,1,50,0,0
118470,-100,4,2,1,60,0,0
120720,-100,4,2,2,60,0,0
121363,-100,4,2,1,60,0,0
123613,-100,4,1,1,60,0,1
129077,-100,4,1,2,60,0,1
129292,-100,4,1,1,60,0,1
135935,-100,4,1,2,60,0,1
136149,-100,4,1,1,60,0,1
137220,-100,4,1,1,60,0,0
137327,-100,4,1,1,60,0,1
150613,-100,4,1,1,60,0,0
151042,-100,4,2,1,60,0,0
157899,-100,4,2,1,30,0,0
159613,-100,4,2,1,45,0,0
161327,-100,4,2,1,60,0,0
163042,-100,4,2,1,30,0,0
163685,-100,4,2,1,30,0,0
164756,-100,4,2,1,60,0,0
176970,-100,4,1,1,40,0,0
178470,-100,4,1,1,60,0,1
190792,-100,4,1,2,60,0,1
191220,-100,4,1,1,60,0,1
192077,-100,4,1,1,60,0,0
192185,-100,4,1,1,60,0,1
205470,-100,4,1,1,60,0,0
205899,-100,4,1,1,60,0,0

[Colours]
Combo1 : 0,55,111
Combo2 : 9,147,105
Combo3 : 15,73,208
Combo4 : 255,128,0

[HitObjects]
256,192,10470,12,6,13899,0:0:0:0:
350,354,14327,6,0,P|414:298|391:214,1,180,10|10,0:0|0:0,0:0:0:0:
320,145,15613,2,0,P|356:116|401:115,2,90,2|8|2,0:0|0:0|0:0,0:0:0:0:
256,221,16899,1,8,0:0:0:0:
192,145,17327,6,0,P|156:116|111:115,2,90,2|8|2,0:0|0:0|0:0,0:0:0:0:
119,214,18613,2,0,P|97:297|162:354,2,180,10|8|8,0:0|0:0|0:0,0:0:0:0:
190,144,20756,1,2,0:0:0:0:
256,70,21185,6,0,P|292:48|340:48,1,90,8|2,0:0|0:0,0:0:0:0:
429,87,22042,1,10,0:0:0:0:
464,179,22470,2,0,L|498:270,2,90,2|8|2,0:0|0:0|0:0,0:0:0:0:
429,87,23756,1,10,0:0:0:0:
341,40,24185,6,0,L|282:40,2,45,2|0|8,0:0|0:0|0:0,0:0:0:0:
429,87,25042,2,0,L|492:87,2,45,2|2|8,0:0|0:0|0:0,0:0:0:0:
345,140,25899,2,0,B|307:173|307:173|307:213,1,90,2|8,0:0|0:0,0:0:0:0:
205,213,26756,2,0,B|205:173|205:173|167:140,2,90,2|10|2,0:0|0:0|0:0,0:0:0:0:
208,308,28042,6,0,P|256:370|304:308,1,180,8|10,0:0|0:0,0:0:0:0:
256,222,29327,1,2,0:0:0:0:
199,140,29756,2,0,P|167:108|119:97,2,90,8|2|10,0:0|0:0|0:0,0:0:0:0:
256,222,31042,5,2,0:0:0:0:
313,140,31470,2,0,P|345:108|393:97,1,90,8|2,0:0|0:0,0:0:0:0:
472,147,32327,2,0,P|501:231|474:314,1,180,10|8,0:0|0:0,0:0:0:0:
380,349,33613,2,0,L|332:359,2,45,2|2|10,0:0|0:0|0:0,0:0:0:0:
473,314,34470,5,2,0:0:0:0:
507,221,34899,2,0,B|480:181|480:181|480:138,1,90,8|2,0:0|0:0,0:0:0:0:
409,69,35756,1,10,0:0:0:0:
338,139,36185,5,2,0:0:0:0:
268,208,36613,2,0,B|226:231|182:207|143:184|93:209,1,180,8|8,0:0|0:0,0:0:0:0:
9,263,37899,6,0,L|32:306,2,45,2|0|10,0:0|0:0|0:0,0:0:0:0:
9,163,38756,2,0,L|32:120,1,45,2|2,0:0|0:0,0:0:0:0:
54,79,39185,2,0,P|129:39|189:100,1,180,8|10,0:0|0:0,0:0:0:0:
256,168,40470,2,0,L|256:217,2,45,2|8|8,0:0|0:3|0:0,0:0:0:0:
323,97,41327,6,0,P|384:38|458:79,2,180,6|2|2,0:0|0:0|0:0,0:0:0:0:
256,170,43470,1,0,0:0:0:0:
190,242,43899,2,0,P|166:275|119:291,1,90,2|0,0:0|0:0,0:0:0:0:
107,192,44756,2,0,P|65:177|42:137,1,90,2|0,0:0|0:0,0:0:0:0:
130,93,45613,6,0,L|102:57,2,45,2|0|0,0:0|0:0|0:0,0:0:0:0:
207,154,46470,1,2,0:0:0:0:
306,154,46899,1,0,0:0:0:0:
382,93,47327,2,0,L|409:57,2,45,2|0|0,0:0|0:0|0:0,0:0:0:0:
306,154,48185,5,2,0:0:0:0:
207,154,48613,1,0,0:0:0:0:
119,106,49042,2,0,P|104:149|119:197,1,90,2|0,0:0|0:0,0:0:0:0:
184,260,49899,2,0,P|194:303|179:344,2,90,2|0|2,0:0|0:0|0:0,0:0:0:0:
114,190,51185,1,0,0:0:0:0:
38,128,51613,5,6,0:0:0:0:
256,192,51827,12,4,55042,0:0:0:0:
220,306,55470,6,0,B|256:333|256:333|292:306,1,90,8|2,0:0|0:2,0:0:0:0:
328,213,56327,2,0,P|256:167|184:212,1,180,8|8,0:0|0:0,0:0:0:0:
114,282,57613,2,0,P|91:250|87:198,1,90,2|8,0:2|0:0,0:0:0:0:
133,113,58470,1,2,0:2:0:0:
203,42,58899,6,0,L|294:79,1,90,8|2,0:0|0:2,0:0:0:0:
376,117,59756,1,8,0:0:0:0:
457,173,60185,2,0,B|423:215|381:215|381:215|289:215,1,180,2|2,0:2|0:2,0:0:0:0:
277,116,61470,1,8,0:0:0:0:
376,117,61899,5,4,0:0:0:0:
460,65,62327,2,0,B|426:23|384:23|384:23|293:23,1,180,8|8,0:0|0:0,0:0:0:0:
194,23,63613,1,2,0:2:0:0:
109,74,64042,2,0,P|65:148|103:225,1,180,8|8,0:0|0:0,0:0:0:0:
173,295,65327,1,2,0:2:0:0:
256,348,65756,6,0,L|304:348,1,45,8|2,0:0|0:2,0:0:0:0:
350,348,66185,2,0,P|392:348|424:316,1,90,2|8,0:2|0:0,0:0:0:0:
346,254,67042,2,0,B|376:218|423:218|423:218|376:138,1,180,2|2,0:2|0:2,0:0:0:0:
324,54,68327,1,8,0:0:0:0:
256,126,68756,5,4,0:0:0:0:
188,54,69185,2,0,L|141:68,1,45,8|8,0:0|0:0,0:0:0:0:
101,90,69613,2,0,P|72:123|69:171,1,90,2|8,0:2|0:0,0:0:0:0:
126,247,70470,1,2,0:2:0:0:
196,317,70899,6,0,L|252:333,1,45,8|8,0:0|0:0,0:0:0:0:
287,341,71327,1,2,0:2:0:0:
379,305,71756,1,8,0:0:0:0:
416,213,72185,1,2,0:2:0:0:
350,138,72613,6,0,L|336:88,2,45,8|8|2,0:0|0:0|0:2,0:0:0:0:
416,213,73470,1,8,0:0:0:0:
379,305,73899,1,2,0:2:0:0:
287,341,74327,1,8,0:0:0:0:
287,341,74542,2,0,L|231:341,1,45,8|2,0:0|0:2,0:0:0:0:
146,315,75185,1,8,0:0:0:0:
91,232,75613,6,0,P|79:188|91:143,1,90,4|8,0:0|0:0,0:0:0:0:
124,110,76256,1,8,0:0:0:0:
158,75,76470,2,0,L|248:75,2,90,2|8|2,0:2|0:0|0:2,0:0:0:0:
87,145,77756,6,0,L|53:178,1,45,8|8,0:0|0:0,0:0:0:0:
29,218,78185,2,0,P|18:265|28:306,1,90,2|8,0:2|0:0,0:0:0:0:
114,351,79042,1,2,0:2:0:0:
212,340,79470,6,0,L|262:331,1,45,8|8,0:0|0:0,0:0:0:0:
305,325,79899,1,2,0:2:0:0:
401,303,80327,2,0,P|456:241|420:161,1,180,8|8,0:0|0:0,0:0:0:0:
382,129,81399,2,0,L|338:98,1,45,8|2,0:0|0:2,0:0:0:0:
256,58,82042,1,8,0:0:0:0:
158,71,82470,5,6,0:0:0:0:
70,117,82899,2,0,P|31:195|67:274,1,180,10|10,0:0|0:0,0:0:0:0:
168,278,84185,2,0,P|163:233|133:201,2,90,2|8|2,0:0|0:0|0:0,0:0:0:0:
256,322,85471,1,10,0:0:0:0:
344,278,85899,6,0,P|348:233|378:201,2,90,2|8|2,0:0|0:0|0:0,0:0:0:0:
444,274,87185,2,0,P|480:194|442:117,1,180,10|8,0:0|0:0,0:0:0:0:
372,47,88470,1,2,0:0:0:0:
324,134,88899,2,0,L|391:200,1,90,8|2,0:0|0:0,0:0:0:0:
446,277,89757,6,0,P|407:297|363:291,1,90,8|2,0:0|0:0,0:0:0:0:
266,260,90614,1,10,0:0:0:0:
175,219,91042,2,0,P|131:212|91:232,2,90,2|8|2,0:0|0:0|0:0,0:0:0:0:
266,260,92327,1,10,0:0:0:0:
350,312,92757,6,0,L|378:350,2,45,2|0|8,0:0|0:0|0:0,0:0:0:0:
350,213,93613,2,0,L|378:175,2,45,2|2|8,0:0|0:0|0:0,0:0:0:0:
266,260,94471,2,0,B|176:260,1,90,2|8,0:0|0:0,0:0:0:0:
94,204,95328,2,0,P|80:163|94:118,1,90,2|8,0:0|0:0,0:0:0:0:
111,73,95970,2,0,L|156:54,1,45,8|2,0:0|0:0,0:0:0:0:
208,137,96614,6,0,P|256:199|304:137,1,180,8|10,0:0|0:0,0:0:0:0:
361,57,97899,1,2,0:0:0:0:
430,126,98327,2,0,L|431:216,1,90,8|2,0:0|0:0,0:0:0:0:
355,280,99185,1,10,0:0:0:0:
256,290,99614,5,2,0:0:0:0:
157,280,100042,2,0,P|167:237|201:208,1,90,8|2,0:0|0:0,0:0:0:0:
256,290,100899,2,0,P|297:213|263:132,1,180,10|8,0:0|0:0,0:0:0:0:
193,62,102185,2,0,L|145:72,2,45,2|2|10,0:0|0:0|0:0,0:0:0:0:
289,38,103042,5,2,0:0:0:0:
375,86,103471,2,0,B|375:127|375:127|402:167,1,90,8|2,0:0|0:0,0:0:0:0:
484,222,104328,1,10,0:0:0:0:
429,304,104757,5,2,0:0:0:0:
336,338,105185,2,0,B|288:354|256:314|256:314|224:354|176:338,1,180,8|8,0:0|0:0,0:0:0:0:
193,240,106471,6,0,L|141:213,2,45,2|0|10,0:0|0:0|0:0,0:0:0:0:
288,215,107328,2,0,L|330:251,1,45,0|2,0:0|0:0,0:0:0:0:
359,277,107756,2,0,P|443:297|509:233,1,180,8|10,0:0|0:0,0:0:0:0:
443,163,109042,2,0,L|416:199,2,45,2|8|8,0:0|0:3|0:0,0:0:0:0:
495,79,109899,6,0,B|446:47|396:76|396:76|325:43,2,180,6|2|2,0:0|0:0|0:0,0:0:0:0:
443,163,112042,1,0,0:0:0:0:
383,242,112471,2,0,P|341:272|303:266,1,90,2|8,0:0|0:0,0:0:0:0:
206,266,113327,2,0,P|162:268|128:240,1,90,2|8,0:0|0:0,0:0:0:0:
87,210,113970,1,8,0:0:0:0:
46,184,114185,6,0,L|18:220,2,45,2|0|8,0:0|0:0|0:0,0:0:0:0:
134,139,115042,1,2,0:0:0:0:
226,104,115470,2,0,L|254:68,1,45,8|8,0:0|0:0,0:0:0:0:
286,31,115899,2,0,P|327:18|367:37,1,90,2|8,0:0|0:0,0:0:0:0:
427,116,116757,5,2,0:0:0:0:
489,192,117185,1,8,0:0:0:0:
454,226,117399,1,8,0:0:0:0:
418,261,117614,2,0,P|403:304|418:352,2,90,2|8|2,0:0|0:0|0:0,0:0:0:0:
489,192,118899,1,8,0:0:0:0:
489,192,119113,2,0,L|466:138,1,45,8|2,0:0|0:0,0:0:0:0:
398,83,119757,1,8,0:0:0:0:
306,44,120185,5,14,0:0:0:0:
207,44,120613,2,0,P|166:27|121:41,2,90,8|8|8,0:0|0:0|0:0,0:0:0:0:
233,85,121685,1,8,0:0:0:0:
256,130,121899,1,14,0:0:0:0:
256,215,123613,5,4,0:0:0:0:
220,307,124042,2,0,B|256:334|256:334|292:307,1,90,8|2,0:0|0:2,0:0:0:0:
362,236,124899,2,0,B|380:189|355:149|331:107|358:60,1,180,8|8,0:0|0:0,0:0:0:0:
443,9,126185,2,0,P|458:51|450:95,1,90,2|8,0:2|0:0,0:0:0:0:
357,60,127042,1,2,0:2:0:0:
261,34,127471,6,0,L|170:55,1,90,8|2,0:0|0:2,0:0:0:0:
77,80,128328,1,8,0:0:0:0:
37,171,128757,2,0,B|83:195|122:170|122:170|164:196|157:251,1,180,2|2,0:2|0:2,0:0:0:0:
206,333,130042,1,8,0:0:0:0:
305,333,130471,5,4,0:0:0:0:
354,247,130899,2,0,B|348:196|390:170|390:170|429:195|475:171,1,180,8|8,0:0|0:0,0:0:0:0:
435,80,132185,1,2,0:2:0:0:
336,60,132614,2,0,P|256:95|176:60,1,180,8|8,0:0|0:0,0:0:0:0:
77,80,133899,1,2,0:2:0:0:
30,167,134327,5,8,0:0:0:0:
16,214,134542,1,2,0:2:0:0:
12,263,134757,2,0,P|27:302|70:326,1,90,2|8,0:2|0:0,0:0:0:0:
166,325,135614,2,0,L|350:301,1,180,2|2,0:2|0:2,0:0:0:0:
418,235,136899,1,8,0:0:0:0:
488,164,137328,5,4,0:0:0:0:
417,93,137757,2,0,L|369:93,1,45,8|8,0:0|0:0,0:0:0:0:
322,93,138185,2,0,B|289:93|289:93|267:85|267:85|233:85,1,90,2|8,0:2|0:0,0:0:0:0:
134,85,139042,1,2,0:2:0:0:
111,181,139471,6,0,L|98:233,1,45,8|8,0:0|0:0,0:0:0:0:
87,272,139899,2,0,L|126:356,2,90,2|8|2,0:2|0:0|0:2,0:0:0:0:
111,181,141185,6,0,L|89:133,2,45,8|8|2,0:0|0:0|0:2,0:0:0:0:
206,207,142042,1,8,0:0:0:0:
304,209,142470,2,0,P|349:221|376:263,1,90,2|8,0:2|0:0,0:0:0:0:
396,299,143114,2,0,L|436:330,1,45,8|2,0:0|0:2,0:0:0:0:
496,251,143757,1,8,0:0:0:0:
471,157,144185,6,0,L|398:98,1,90,4|8,0:0|0:0,0:0:0:0:
361,69,144828,1,8,0:0:0:0:
318,43,145042,2,0,P|272:27|233:39,2,90,2|8|2,0:2|0:0|0:2,0:0:0:0:
274,131,146328,6,0,L|240:164,1,45,8|8,0:0|0:0,0:0:0:0:
208,196,146757,2,0,B|172:226|172:226|126:226,1,90,2|8,0:2|0:0,0:0:0:0:
44,278,147614,1,2,0:2:0:0:
113,347,148042,6,0,L|164:347,2,45,8|8|2,0:0|0:0|0:2,0:0:0:0:
44,278,148899,2,0,P|6:201|51:127,1,180,8|8,0:0|0:0,0:0:0:0:
93,100,149971,2,0,L|138:100,1,45,8|2,0:0|0:2,0:0:0:0:
235,119,150614,1,8,0:0:0:0:
328,149,151042,5,6,0:0:0:0:
256,192,157899,12,0,163042,0:0:0:0:
68,47,163899,6,0,L|47:90,1,45,0|2,0:0|0:0,0:0:0:0:
73,129,164327,2,0,L|52:172,1,45,0|2,0:0|0:0,0:0:0:0:
39,217,164756,6,0,P|39:304|113:359,2,180,6|2|2,0:0|0:0|0:0,0:0:0:0:
126,263,166899,2,0,P|141:222|126:173,1,90,8|2,0:0|0:0,0:0:0:0:
104,82,167756,5,8,0:0:0:0:
202,75,168185,2,0,B|246:75|246:75|278:107,1,90,2|8,0:0|0:0,0:0:0:0:
328,190,169042,1,2,0:0:0:0:
359,283,169470,2,0,B|409:266|422:217|422:217|506:204,2,180,8|8|8,0:0|0:0|0:0,0:0:0:0:
328,190,171613,6,0,P|346:148|386:126,2,90,10|10|10,0:0|0:0|0:0,0:0:0:0:
358,283,172899,2,0,P|340:325|300:347,2,90,10|10|10,0:0|0:0|0:0,0:0:0:0:
262,257,174185,2,0,P|223:279|206:320,2,90,10|10|14,0:0|0:0|0:0,0:0:0:0:
256,192,175149,12,4,178470,0:0:0:0:
327,70,178899,2,0,B|362:42,2,45,8|8|2,0:0|0:0|0:2,0:0:0:0:
256,140,179756,2,0,B|229:186|253:228|278:268|256:315,1,180,8|8,0:0|0:0,0:0:0:0:
213,340,180827,1,8,0:0:0:0:
169,362,181042,2,0,L|80:330,1,90,2|8,0:2|0:0,0:0:0:0:
65,233,181899,1,2,0:2:0:0:
43,136,182327,6,0,L|-7:109,2,45,8|8|2,0:0|0:0|0:2,0:0:0:0:
65,233,183185,1,8,0:0:0:0:
87,330,183613,2,0,L|172:361,1,90,2|8,0:2|0:0,0:0:0:0:
217,339,184256,2,0,L|263:358,1,45,8|2,0:0|0:2,0:0:0:0:
357,362,184899,1,8,0:0:0:0:
437,303,185328,5,4,0:0:0:0:
470,209,185756,2,0,L|437:171,1,45,8|8,0:0|0:0,0:0:0:0:
407,138,186185,2,0,P|378:104|336:93,1,90,2|8,0:2|0:0,0:0:0:0:
256,153,187042,1,2,0:2:0:0:
175,210,187471,2,0,L|133:175,2,45,8|8|2,0:0|0:0|0:2,0:0:0:0:
216,299,188327,2,0,B|256:319|256:319|296:299,1,90,8|2,0:0|0:2,0:0:0:0:
381,247,189184,5,8,0:0:0:0:
425,225,189399,1,8,0:0:0:0:
470,203,189614,2,0,P|485:160|478:117,1,90,2|8,0:2|0:0,0:0:0:0:
395,64,190471,2,0,L|216:87,1,180,2|2,0:2|0:2,0:0:0:0:
146,157,191756,1,8,0:0:0:0:
216,227,192185,5,4,0:0:0:0:
286,297,192614,2,0,L|331:297,1,45,8|8,0:0|0:0,0:0:0:0:
380,297,193042,2,0,P|422:297|455:266,1,90,2|8,0:2|0:0,0:0:0:0:
488,172,193899,1,2,0:2:0:0:
416,103,194328,6,0,L|362:94,1,45,8|8,0:0|0:0,0:0:0:0:
336,60,194756,2,0,L|238:47,2,90,2|8|2,0:2|0:0|0:2,0:0:0:0:
416,103,196042,6,0,L|475:117,2,45,8|8|2,0:0|0:0|0:2,0:0:0:0:
333,158,196899,1,8,0:0:0:0:
318,255,197327,2,0,P|273:243|246:201,1,90,2|8,0:2|0:0,0:0:0:0:
228,163,197971,2,0,L|204:119,1,45,8|2,0:0|0:2,0:0:0:0:
156,37,198614,1,8,0:0:0:0:
60,64,199042,6,0,P|27:92|15:135,1,90,4|8,0:0|0:0,0:0:0:0:
38,180,199685,1,8,0:0:0:0:
56,226,199899,2,0,L|34:331,2,90,2|8|2,0:2|0:0|0:2,0:0:0:0:
16,136,201185,6,0,L|48:104,1,45,8|8,0:0|0:0,0:0:0:0:
87,74,201614,2,0,P|121:48|166:48,1,90,2|8,0:2|0:0,0:0:0:0:
256,90,202471,1,2,0:2:0:0:
339,142,202899,6,0,L|390:142,2,45,8|8|2,0:0|0:0|0:2,0:0:0:0:
255,195,203756,2,0,P|209:268|247:346,1,180,8|8,0:0|0:0,0:0:0:0:
297,346,204828,2,0,L|342:346,1,45,8|2,0:0|0:2,0:0:0:0:
412,275,205471,1,8,0:0:0:0:
461,189,205899,6,0,L|486:150,1,45,2|2,0:2|0:2,0:0:0:0:
415,81,206542,2,0,L|358:81,1,45,0|2,0:0|0:2,0:0:0:0:
299,151,207185,2,0,L|323:188,1,45,2|2,0:2|0:2,0:0:0:0:
