osu file format v12

[General]
AudioFilename: Applause.mp3
AudioLeadIn: 0
PreviewTime: 123166
Countdown: 1
SampleSet: Normal
StackLeniency: 0.7
Mode: 0
LetterboxInBreaks: 0
EpilepsyWarning: 1
WidescreenStoryboard: 1

[Editor]
Bookmarks: 13880,27594,41308,55023,68737,82451,96166,109880,123594,137308,151023,164737,178451,192166,205880
DistanceSpacing: 1.2
BeatDivisor: 4
GridSize: 4

[Metadata]
Title:Applause
TitleUnicode:Applause
Artist:Lady Gaga
ArtistUnicode:Lady Gaga
Creator:Gabe
Version:Applause
Source:
Tags:Mother Monster Stefani Joanne Angelina Germanotta
BeatmapID:300576
BeatmapSetID:116513

[Difficulty]
HPDrainRate:7
CircleSize:4
OverallDifficulty:8
ApproachRate:8
SliderMultiplier:1.6
SliderTickRate:1

[Events]
//Background and Video events
0,0,"Applause.jpg",0,0
Video,150,"Video.avi"
//Break Periods
2,29373,40637
2,55087,68066
2,82302,95923
2,109945,121209
2,137159,162995
2,178516,191495
//Storyboard Layer 0 (Background)
//Storyboard Layer 1 (Fail)
//Storyboard Layer 2 (Pass)
//Storyboard Layer 3 (Foreground)
Sprite,Foreground,Centre,"SB\Speed.png",320,240 M,0,163745,,472,411 F,0,163745,164816,0,1 S,0,163745,164816,0.744,1 F,0,164816,178102,1,0.9869281 F,0,178102,178530,0.9869281,0
Sprite,Foreground,Centre,"SB\Speed50.png",320,240 M,0,164816,,571,452 F,0,164816,165030,0,1 F,0,165030,168030,1 F,0,168030,168245,1,0
Sprite,Foreground,Centre,"SB\Speed60.png",320,240 M,0,168245,,571,452 F,0,168245,168459,0,1 F,0,168459,171459,1,0.9766355 F,0,171459,171673,0.9766355,0
Sprite,Foreground,Centre,"SB\Speed70.png",320,240 M,0,171673,,571,452 F,0,171673,171887,0,1 F,0,171887,173173,1 F,0,173173,173387,1,0
Sprite,Foreground,Centre,"SB\Speed80.png",320,240 M,0,173387,,571,452 F,0,173387,173602,0,1 F,0,173602,174887,1 F,0,174887,175102,1,0
Sprite,Foreground,Centre,"SB\Speed90.png",320,240 M,0,175102,,571,452 F,0,175102,175316,0,1 F,0,175316,178102,1 F,0,178102,178530,1,0
//Storyboard Sound Samples
//Background Colour Transformations
3,100,255,255,255

[TimingPoints]
245,428.571428571429,4,1,0,55,1,0
41387,-100,4,1,1,40,0,0
44816,-100,4,1,1,55,0,0
44923,-100,4,1,1,5,0,0
45245,-100,4,1,1,55,0,0
45352,-100,4,1,1,5,0,0
45673,-100,4,1,1,40,0,0
46530,-100,4,1,1,55,0,0
46637,-100,4,1,1,5,0,0
46959,-100,4,1,1,55,0,0
47066,-100,4,1,1,5,0,0
47387,-100,4,1,1,40,0,0
48245,-100,4,1,1,50,0,0
51673,-100,4,1,1,55,0,0
52530,-100,4,1,1,60,0,0
53387,-100,4,1,1,40,0,0
55102,-100,4,1,1,65,0,1
68602,-100,4,1,1,65,0,0
68816,-100,4,1,1,65,0,1
82530,-100,4,1,1,55,0,0
109959,-133.333333333333,4,1,1,55,0,0
113387,-83.3333333333333,4,1,1,55,0,0
113495,-83.3333333333333,4,1,1,5,0,0
113816,-83.3333333333333,4,1,1,55,0,0
113923,-83.3333333333333,4,1,1,5,0,0
114245,-83.3333333333333,4,1,1,55,0,0
115102,-76.9230769230769,4,1,1,55,0,0
115209,-76.9230769230769,4,1,1,5,0,0
115530,-76.9230769230769,4,1,1,55,0,0
115637,-76.9230769230769,4,1,1,5,0,0
115959,-133.333333333333,4,1,1,55,0,0
116816,-117.647058823529,4,1,1,55,0,0
121959,-133.333333333333,4,1,1,10,0,0
123673,-100,4,1,1,65,0,1
136959,-100,4,1,1,65,0,0
137387,-100,4,1,1,65,0,1
151102,-100,4,2,1,50,0,0
163745,-100,4,2,1,35,0,0
164816,-200,4,2,2,20,0,0
164923,-200,4,2,1,40,0,0
168245,-166.666666666667,4,2,1,50,0,0
171673,-142.857142857143,4,1,2,20,0,0
171780,-142.857142857143,4,1,1,40,0,0
173387,-125,4,1,1,50,0,0
175102,-111.111111111111,4,1,1,60,0,0
178530,-100,4,1,1,65,0,1
191816,-100,4,1,1,65,0,0
192245,-100,4,1,1,65,0,1
205959,-100,4,1,1,50,0,0

[Colours]
Combo1 : 255,205,53
Combo2 : 242,242,242
Combo3 : 79,158,255
Combo4 : 242,34,65

[HitObjects]
40,44,13959,1,0,0:0:0:0:
40,44,14173,1,0,0:0:0:0:
40,44,14387,2,0,L|148:64,1,80,8|0,0:0|0:0,0:0:0:0:
256,192,15030,1,0,0:0:0:0:
324,244,15245,2,0,P|258:281|190:243,1,160,8|0,0:0|0:0,0:0:0:0:
188,144,15887,2,0,P|254:107|322:145,2,160,0|0|0,0:0|0:0|0:0,0:0:0:0:
256,192,16959,1,8,0:0:0:0:
432,264,17387,5,0,0:0:0:0:
256,344,17816,1,8,0:0:0:0:
256,344,18030,1,0,0:0:0:0:
80,264,18459,1,0,0:0:0:0:
144,80,18887,2,0,P|256:176|368:80,1,320,0|0,0:0|0:0,0:0:0:0:
364,272,20173,1,0,0:0:0:0:
256,312,20387,1,8,0:0:0:0:
148,272,20602,1,0,0:0:0:0:
12,32,21245,6,0,L|0:116,1,80,8|0,0:0|0:0,0:0:0:0:
104,60,21673,2,0,L|192:52,1,80
76,148,22102,2,0,L|52:308,1,160,8|0,0:0|0:0,0:0:0:0:
112,384,22745,1,0,0:0:0:0:
256,260,23173,1,0,0:0:0:0:
400,384,23602,2,0,P|484:356|500:288,1,160
440,144,24245,5,0,0:0:0:0:
440,144,24459,1,0,0:0:0:0:
440,144,24673,2,0,L|432:48,1,80,8|0,0:0|0:0,0:0:0:0:
336,192,25102,1,0,0:0:0:0:
336,192,25316,1,0,0:0:0:0:
336,192,25530,2,0,L|352:360,1,160,8|0,0:0|0:0,0:0:0:0:
160,376,26387,1,8,0:0:0:0:
160,376,26602,1,0,0:0:0:0:
100,192,27030,1,0,0:0:0:0:
152,112,27245,1,8,0:0:0:0:
108,28,27459,1,0,0:0:0:0:
248,104,27673,5,0,0:0:0:0:
204,20,27887,1,0,0:0:0:0:
352,92,28102,2,0,L|448:112,1,80,8|0,0:0|0:0,0:0:0:0:
272,216,28745,2,0,L|176:196,1,80,0|8,0:0|0:0,0:0:0:0:
152,112,29173,1,0,0:0:0:0:
216,40,41387,6,0,B|212:120|212:120|200:168|168:176|120:188|92:136,1,240,0|0,0:2|0:0,0:0:0:0:
28,208,42245,2,0,B|76:264|144:268|144:268|144:380,1,240,2|0,0:2|0:0,0:0:0:0:
236,344,43102,2,0,B|236:228|236:228|256:212|268:188,1,160,0|0,0:2|0:0,0:0:0:0:
312,112,43745,1,0,0:0:0:0:
344,20,43959,2,0,P|300:12|256:32,1,80,2|0,0:2|0:0,0:0:0:0:
265,195,44387,2,0,P|307:209|353:195,1,80
312,112,44816,6,0,L|208:104,1,80,0|0,0:2|0:0,0:0:0:0:
368,296,45245,2,0,L|447:302,1,80,0|0,0:2|0:0,0:0:0:0:
220,280,45673,1,2,0:2:0:0:
140,332,45887,1,0,0:0:0:0:
24,208,46102,1,0,0:0:0:0:
48,300,46316,1,0,0:0:0:0:
120,240,46530,6,0,P|140:208|184:180,1,80,0|0,0:2|0:0,0:0:0:0:
392,144,46959,2,0,P|372:176|328:204,1,80,0|0,0:2|0:0,0:0:0:0:
256,112,47387,2,0,L|256:32,2,80,2|0|0,0:2|0:0|0:0,0:0:0:0:
392,240,48245,6,0,P|474:214|500:148,1,160,2|0,0:2|0:0,0:0:0:0:
408,148,48887,1,2,0:2:0:0:
376,328,49102,2,0,L|284:344,1,80
176,200,49530,2,0,L|192:292,1,80,8|0,0:0|0:0,0:0:0:0:
96,208,49959,6,0,L|256:192,1,160,2|0,0:2|0:0,0:0:0:0:
344,240,50602,1,2,0:2:0:0:
408,148,50816,1,0,0:0:0:0:
408,148,50923,1,0,0:0:0:0:
408,148,51030,1,0,0:0:0:0:
344,240,51245,5,8,0:0:0:0:
328,352,51459,1,0,0:0:0:0:
216,240,51673,2,0,P|128:308|40:240,1,240,2|0,0:0|0:0,0:0:0:0:
40,144,52530,2,0,P|128:76|216:144,1,240,2|0,0:0|0:0,0:0:0:0:
256,192,53387,12,0,54887,0:0:0:0:
116,220,68816,6,0,L|156:292,1,80,4|0,0:0|0:0,0:0:0:0:
232,212,69245,2,0,L|304:252,1,80,8|8,0:0|0:0,0:0:0:0:
152,144,69673,2,0,P|84:140|28:216,1,160,0|8,0:0|0:0,0:0:0:0:
92,348,70316,2,0,L|260:364,1,160
336,320,70959,1,8,0:0:0:0:
432,336,71173,1,8,0:0:0:0:
488,200,71387,2,0,L|496:32,2,160,0|8|0,0:0|0:0|0:0,0:0:0:0:
404,248,72459,5,0,0:0:0:0:
312,220,72673,2,8,L|244:168,1,80
404,248,73102,2,0,L|468:296,1,80
312,220,73530,1,8,0:0:0:0:
276,72,73745,2,0,P|196:84|164:232,1,240,0|8,0:0|0:0,0:0:0:0:
236,312,74602,2,0,P|316:300|348:152,1,240,8|8,0:0|0:0,0:0:0:0:
176,28,75673,6,0,L|96:28,1,80,0|0,0:0|0:0,0:0:0:0:
140,116,76102,2,0,L|220:116,1,80,8|8,0:0|0:0,0:0:0:0:
96,28,76530,2,0,P|48:76|64:176,1,160,0|8,0:0|0:0,0:0:0:0:
20,252,77173,2,0,P|78:303|154:294,1,160
236,344,77816,2,8,P|260:300|260:252,1,80
204,196,78245,2,0,P|268:212|340:160,2,160,0|8|0,0:0|0:0|0:0,0:0:0:0:
256,116,79316,5,0,0:0:0:0:
256,116,79530,2,8,L|232:32,1,80
436,152,79959,2,0,L|460:236,1,80
340,356,80387,2,0,P|304:372|260:376,1,80,8|0,0:0|0:0,0:0:0:0:
256,192,80816,12,0,82102,0:0:0:0:
64,232,96673,6,0,P|56:184|72:132,1,80,8|0,0:0|0:0,0:0:0:0:
160,280,97102,1,0,0:0:0:0:
80,336,97316,1,0,0:0:0:0:
236,228,97530,2,0,P|284:220|336:236,1,80,8|0,0:0|0:0,0:0:0:0:
384,292,97959,2,0,P|360:228|384:148,1,120
392,140,98387,1,8,0:0:0:0:
340,60,98602,1,0,0:0:0:0:
152,92,99030,2,0,P|92:192|152:288,1,240
232,340,99887,5,0,0:0:0:0:
316,296,100102,2,0,L|412:288,1,80,8|0,0:0|0:0,0:0:0:0:
232,340,100530,1,0,0:0:0:0:
212,244,100745,1,0,0:0:0:0:
448,176,100959,2,0,L|284:188,1,160,8|0,0:0|0:0,0:0:0:0:
212,244,101602,5,0,0:0:0:0:
108,316,101816,1,8,0:0:0:0:
88,200,102030,1,0,0:0:0:0:
88,200,102137,1,8,0:0:0:0:
88,200,102245,1,0,0:0:0:0:
212,244,102459,1,0,0:0:0:0:
308,160,102673,1,8,0:0:0:0:
188,120,102887,1,0,0:0:0:0:
344,284,103102,6,0,P|384:288|436:280,1,80
256,336,103530,1,8,0:0:0:0:
344,384,103745,1,0,0:0:0:0:
484,216,103959,2,0,L|504:56,2,160,0|8|0,0:0|0:0|0:0,0:0:0:0:
423,286,105030,6,0,L|344:284,1,80,0|8,0:0|0:0,0:0:0:0:
248,284,105459,1,0,0:0:0:0:
340,84,105887,2,0,P|356:136|292:216,1,160
200,200,106530,6,0,P|164:184|128:152,1,80
60,24,106959,2,0,P|96:40|132:72,1,80,8|0,0:0|0:0,0:0:0:0:
48,124,107387,1,0,0:0:0:0:
216,96,107602,1,0,0:0:0:0:
176,292,107816,2,0,P|265:270|216:96,1,320,8|8,0:0|0:0,0:0:0:0:
200,200,108887,5,0,0:0:0:0:
200,200,108995,1,8,0:0:0:0:
200,200,109102,1,0,0:0:0:0:
312,288,109316,1,0,0:0:0:0:
192,340,109530,1,8,0:0:0:0:
76,280,109745,1,0,0:0:0:0:
424,24,121959,6,0,B|356:64|372:144|436:160|436:160|500:176|516:256|448:296,1,360.000013732911
448,296,123673,6,0,P|380:264|304:296,1,160,4|8,0:0|0:0,0:0:0:0:
208,340,124316,2,0,P|136:370|65:338,1,160,10|0,0:0|0:0,0:0:0:0:
136,192,124959,2,0,L|136:272,1,80,10|0,0:0|0:0,0:0:0:0:
204,72,125602,1,0,0:0:0:0:
136,192,125816,1,8,0:0:0:0:
48,84,126030,1,0,0:0:0:0:
268,0,126245,2,0,B|300:40|292:92|292:92|352:104,2,160,2|10|0,0:0|0:0|0:0,0:0:0:0:
204,72,127316,6,0,B|208:120|208:120|232:148,1,80,0|8,0:0|0:0,0:0:0:0:
308,312,127745,2,0,B|304:264|304:264|280:236,1,80,10|0,0:0|0:0,0:0:0:0:
188,224,128173,1,0,0:0:0:0:
320,160,128387,1,8,0:0:0:0:
204,72,128602,6,2,P|128:40|44:156,1,240,2|8,0:0|0:0,0:0:0:0:
92,228,129459,1,8,0:0:0:0:
188,224,129673,2,0,B|188:288|128:320|128:320|128:368,2,160,2|10|0,0:0|0:0|0:0,0:0:0:0:
160,132,130745,5,0,0:0:0:0:
208,48,130959,1,8,0:0:0:0:
300,28,131173,1,10,0:0:0:0:
380,84,131387,2,0,P|424:104|476:88,1,80
300,28,131816,2,0,P|280:88|328:168,1,160,10|0,0:0|0:0,0:0:0:0:
420,192,132459,5,0,0:0:0:0:
464,276,132673,2,0,P|424:288|384:280,1,80,8|8,0:0|0:0,0:0:0:0:
224,216,133102,2,0,P|264:204|304:212,1,80,2|0,0:0|0:0,0:0:0:0:
264,300,133530,2,0,B|196:320|156:276|156:276|112:276,2,160,10|0|8,0:0|0:0|0:0,0:0:0:0:
224,216,134602,5,8,0:0:0:0:
124,356,134816,2,0,L|40:356,1,80,0|2,0:0|0:0,0:0:0:0:
20,264,135245,1,8,0:0:0:0:
40,172,135459,2,2,L|40:12,1,160,2|0,0:0|0:0,0:0:0:0:
116,72,136102,2,0,P|156:112|204:112,1,80,8|8,0:0|0:0,0:0:0:0:
268,80,136530,1,2,0:0:0:0:
424,208,136959,1,10,0:0:0:0:
208,258,163745,5,0,0:0:0:0:
255,110,163959,1,0,0:0:0:0:
304,258,164173,1,0,0:0:0:0:
178,166,164387,1,0,0:0:0:0:
333,166,164602,1,0,0:0:0:0:
256,340,164816,6,0,P|188:348|120:272,1,160,4|0,0:0|0:0,0:0:0:0:
256,192,166316,1,0,0:0:0:0:
184,116,166530,2,0,P|255:84|326:116,1,160
256,284,167816,1,0,0:0:0:0:
348,228,168245,6,0,L|448:272,1,95.9999970703126,2|2,0:0|0:0,0:0:0:0:
200,352,169102,1,0,0:0:0:0:
312,352,169316,1,0,0:0:0:0:
208,248,169530,1,0,0:0:0:0:
304,248,169745,1,0,0:0:0:0:
164,228,169959,2,0,L|64:272,1,95.9999970703126,2|2,0:0|0:0,0:0:0:0:
256,304,170816,1,0,0:0:0:0:
256,304,171030,1,0,0:0:0:0:
256,304,171245,1,0,0:0:0:0:
316,156,171673,6,0,P|336:104|316:52,1,111.999996582031,4|8,0:0|0:0,0:0:0:0:
256,104,172316,1,0,0:0:0:0:
196,156,172530,2,0,P|176:104|196:52,1,111.999996582031,0|8,0:0|0:0,0:0:0:0:
256,104,173173,1,0,0:0:0:0:
256,208,173387,6,0,P|312:236|388:192,1,128,0|8,0:0|0:0,0:0:0:0:
428,164,174030,2,0,P|400:220|444:296,1,128
468,340,174673,1,8,0:0:0:0:
468,340,174887,1,0,0:0:0:0:
348,324,175102,6,0,P|256:372|164:324,1,215.999993408203,2|0,0:0|0:0,0:0:0:0:
164,236,175959,2,0,P|256:188|348:236,1,215.999993408203,2|0,0:0|0:0,0:0:0:0:
256,192,176816,12,0,178316,0:0:0:0:
324,240,192245,5,2,0:0:0:0:
324,240,192459,1,2,0:0:0:0:
324,240,192673,2,0,L|256:192,1,80,8|2,0:0|0:0,0:0:0:0:
400,200,193102,2,0,P|400:284|332:328,1,160,2|8,0:0|0:0,0:0:0:0:
188,236,193745,2,0,P|188:152|256:108,1,160,2|0,0:0|0:0,0:0:0:0:
226,319,194387,2,0,P|218:359|182:387,1,80,10|2,0:0|0:0,0:0:0:0:
188,236,194816,2,0,P|254:230|318:318,2,160,0|10|2,0:0|0:0|0:0,0:0:0:0:
100,268,195887,5,2,0:0:0:0:
56,356,196102,1,8,0:0:0:0:
100,268,196316,2,0,L|80:176,1,80,2|0,0:0|0:0,0:0:0:0:
144,80,196745,1,2,0:0:0:0:
232,116,196959,1,10,0:0:0:0:
144,79,197173,2,2,P|200:26|278:31,1,160,0|0,0:0|0:0,0:0:0:0:
336,108,197816,2,0,P|364:80|373:42,1,80,10|2,0:0|0:0,0:0:0:0:
232,116,198245,2,0,P|248:164|348:212,2,160,0|10|2,0:0|0:0|0:0,0:0:0:0:
336,108,199316,5,2,0:0:0:0:
180,224,199530,1,8,0:0:0:0:
336,108,199745,1,2,0:0:0:0:
364,304,199959,2,0,P|418:260|428:174,1,160,2|8,0:0|0:0,0:0:0:0:
240,140,200602,2,0,L|76:116,1,160,2|0,0:0|0:0,0:0:0:0:
32,200,201245,2,0,L|132:216,1,80,10|2,0:0|0:0,0:0:0:0:
244,52,201673,2,0,L|144:36,1,80
32,200,202102,2,0,L|190:223,1,160,10|2,0:0|0:0,0:0:0:0:
280,256,202745,5,2,0:0:0:0:
320,344,202959,1,8,0:0:0:0:
352,192,203173,2,0,L|384:28,1,160,2|0,0:0|0:0,0:0:0:0:
464,96,203816,1,10,0:0:0:0:
276,124,204030,1,0,0:0:0:0:
256,192,204245,12,0,205530,0:0:0:0:
256,52,205959,6,0,L|328:104,1,80
184,192,206602,6,0,L|272:192,1,80,0|0,0:0|0:0,0:0:0:0:
256,332,207245,6,0,L|328:280,1,80
