osu file format v14

[General]
AudioFilename: G U Y Free Mp3 Download.mp3
AudioLeadIn: 0
PreviewTime: 52466
Countdown: 1
SampleSet: Normal
StackLeniency: 0.7
Mode: 0
LetterboxInBreaks: 1
WidescreenStoryboard: 0

[Editor]
DistanceSpacing: 0.5
BeatDivisor: 4
GridSize: 4
TimelineZoom: 2.5

[Metadata]
Title:G.U.Y
TitleUnicode:G.U.Y
Artist:Lady GaGa
ArtistUnicode:Lady GaGa
Creator:Parachute
Version:Insane
Source:
Tags:
BeatmapID:486534
BeatmapSetID:206298

[Difficulty]
HPDrainRate:6.5
CircleSize:4
OverallDifficulty:8.5
ApproachRate:9.4
SliderMultiplier:2.2
SliderTickRate:1

[Events]
//Background and Video events
0,0,"Screen-Shot-2014-03-22-at-5.55.18-PM.png",0,0
//Break Periods
2,78848,85472
//Storyboard Layer 0 (Background)
//Storyboard Layer 1 (Fail)
//Storyboard Layer 2 (Pass)
//Storyboard Layer 3 (Foreground)
//Storyboard Sound Samples

[TimingPoints]
103,545.454545454546,4,1,0,70,1,0
43739,-100,4,1,0,50,0,0
52466,-100,4,1,0,70,0,0
61193,-100,4,1,0,70,0,1
78648,-100,4,1,0,70,0,0
104830,-100,4,1,0,50,0,0
113557,-100,4,1,0,70,0,0
122284,-100,4,1,0,70,0,1
139739,-100,4,1,0,70,0,0
157193,-166.666666666667,4,2,0,70,0,1
183375,-100,4,1,0,70,0,0
185421,-100,4,1,0,70,0,0
185557,-100,4,1,0,70,0,1
202943,-100,4,1,0,70,0,0
203012,-66.6666666666667,4,1,0,70,0,1
216103,-66.6666666666667,4,1,0,70,0,0
220466,-50,4,1,0,70,0,0

[Colours]
Combo1 : 128,255,255
Combo2 : 255,128,128
Combo3 : 255,255,255
Combo4 : 255,156,108

[HitObjects]
112,64,24921,5,0,0:0:0:0:
400,64,25193,1,0,0:0:0:0:
400,320,25466,1,0,0:0:0:0:
112,320,25739,2,0,L|64:320,7,27.5,0|0|0|0|0|0|0|0,0:0|0:0|0:0|0:0|0:0|0:0|0:0|0:0,0:0:0:0:
112,320,26284,6,0,P|184:304|264:188,1,220
284,80,26966,2,0,P|332:40|380:40,2,110,0|0|0,0:0|0:0|0:0,0:0:0:0:
176,48,27648,2,0,P|115:45|36:24,1,110
20,128,28057,1,0,0:0:0:0:
40,236,28193,1,0,0:0:0:0:
112,320,28330,1,0,0:0:0:0:
220,328,28466,6,0,P|352:308|440:332,1,220
447,120,29148,2,0,P|444:174|468:224,2,110,0|0|0,0:0|0:0|0:0,0:0:0:0:
392,24,29830,1,8,0:0:0:0:
120,24,30103,1,8,0:0:0:0:
120,360,30375,1,0,0:0:0:0:
392,360,30648,6,0,P|472:332|480:276,1,110
120,360,31193,2,0,P|40:332|32:276,1,110
256,32,31739,2,0,B|240:112|272:112|256:204,1,165
72,152,32284,2,0,P|72:232|168:248,1,165
369,259,32830,6,0,P|441:229|439:151,1,165
384,60,33375,2,0,P|424:16|504:28,2,110,0|0|0,0:0|0:0|0:0,0:0:0:0:
128,60,34193,2,0,P|93:18|40:11,1,110,0|0,0:0|0:0,0:0:0:0:
12,28,34534,1,0,0:0:0:0:
0,60,34603,1,0,0:0:0:0:
4,92,34671,1,0,0:0:0:0:
24,116,34739,1,0,0:0:0:0:
56,124,34807,1,0,0:0:0:0:
88,120,34875,1,0,0:0:0:0:
108,96,34943,1,0,0:0:0:0:
128,60,35012,6,0,P|216:56|296:88,1,165,0|0,0:0|0:0,0:0:0:0:
380,28,35557,2,0,P|428:100|428:152,1,110
512,196,35966,2,0,P|456:268|408:284,1,110
380,368,36375,2,0,P|320:348|280:284,1,110
180,328,36784,1,0,0:0:0:0:
96,256,36921,1,0,0:0:0:0:
120,148,37057,1,0,0:0:0:0:
228,120,37193,6,0,P|264:64|264:12,1,110,0|0,0:0|0:0,0:0:0:0:
348,96,37603,1,0,0:0:0:0:
324,144,37671,1,0,0:0:0:0:
280,176,37739,1,0,0:0:0:0:
172,192,37875,2,0,P|124:207|96:256,2,110,0|0|0,0:0|0:0|0:0,0:0:0:0:
204,296,38557,2,0,P|256:312|308:296,2,110,8|8|0,0:0|0:0|0:0,0:0:0:0:
204,296,39239,1,0,0:0:0:0:
96,272,39375,6,0,L|28:200,1,55,0|0,0:0|0:0,0:0:0:0:
136,153,39648,2,0,L|68:81,1,55,0|0,0:0|0:0,0:0:0:0:
256,44,39921,1,0,0:0:0:0:
256,44,40057,1,0,0:0:0:0:
413,113,40193,6,0,L|376:153,1,55,0|0,0:0|0:0,0:0:0:0:
453,232,40466,2,0,L|416:272,1,55,0|0,0:0|0:0,0:0:0:0:
256,340,40739,1,0,0:0:0:0:
256,340,40875,1,0,0:0:0:0:
148,292,41012,6,0,P|108:192|148:92,2,220
204,128,42239,2,0,P|256:112|308:128,2,110,0|0|0,0:0|0:0|0:0,0:0:0:0:
365,92,42921,2,0,P|390:140|390:195,1,110
390,194,43262,1,0,0:0:0:0:
390,194,43330,1,0,0:0:0:0:
390,194,43398,1,0,0:0:0:0:
390,194,43466,1,0,0:0:0:0:
390,194,43534,1,0,0:0:0:0:
390,194,43603,1,0,0:0:0:0:
390,194,43671,1,0,0:0:0:0:
390,195,43739,6,0,P|378:251|394:307,1,110,4|0,0:0|0:0,0:0:0:0:
260,336,44148,1,0,0:0:0:0:
122,301,44284,2,0,P|135:248|122:195,2,110
146,92,44966,2,0,P|121:140|122:195,1,110
307,35,45375,2,0,P|255:20|204:36,1,110,0|0,0:0|0:0,0:0:0:0:
204,348,45921,6,0,P|256:363|307:348,1,110,4|0,0:0|0:0,0:0:0:0:
256,192,46330,1,0,0:0:0:0:
99,140,46466,2,0,P|84:191|99:243,2,110
256,192,47148,1,0,0:0:0:0:
412,140,47284,2,0,P|427:191|412:243,2,110,8|8|0,0:0|0:0|0:0,0:0:0:0:
208,56,48103,6,0,P|140:64|88:52,1,110,4|0,0:0|0:0,0:0:0:0:
256,124,48512,1,0,0:0:0:0:
304,56,48648,2,0,P|372:64|424:52,2,110,0|0|0,0:0|0:0|0:0,0:0:0:0:
356,152,49330,1,0,0:0:0:0:
360,260,49466,1,0,0:0:0:0:
256,300,49603,1,0,0:0:0:0:
152,260,49739,1,0,0:0:0:0:
156,152,49875,1,0,0:0:0:0:
256,100,50012,2,0,P|292:72|304:48,3,55,0|0|4|0,0:0|0:0|0:0|0:0,0:0:0:0:
188,44,50557,6,0,P|128:48|76:84,1,110
324,44,51103,2,0,L|380:44,2,55,0|0|0,0:0|0:0|0:0,0:0:0:0:
380,140,51512,2,0,P|396:192|380:244,1,110
131,243,51921,2,0,P|116:191|132:140,1,110
132,139,52330,1,0,0:0:0:0:
32,96,52466,6,0,P|108:24|144:24,1,110,8|0,0:0|0:0,0:0:0:0:
256,192,52875,1,0,0:0:0:0:
404,359,53012,2,0,P|452:334|480:288,1,110,8|0,0:0|0:0,0:0:0:0:
216,60,53557,2,0,P|256:28|296:60,2,110,8|0|8,0:0|0:0|0:0,0:0:0:0:
256,116,54239,1,0,0:0:0:0:
256,116,54375,1,0,0:0:0:0:
256,116,54512,1,0,0:0:0:0:
480,96,54648,6,0,P|404:24|368:24,1,110,8|0,0:0|0:0,0:0:0:0:
256,192,55057,1,0,0:0:0:0:
107,359,55194,2,0,P|59:334|32:288,1,110,8|0,0:0|0:0,0:0:0:0:
296,324,55739,2,0,P|256:356|216:324,2,110,8|0|8,0:0|0:0|0:0,0:0:0:0:
256,268,56421,1,0,0:0:0:0:
256,268,56557,1,0,0:0:0:0:
256,268,56694,1,0,0:0:0:0:
188,236,56830,6,0,L|156:220,7,27.5,8|0|0|0|0|0|0|0,0:0|0:0|0:0|0:0|0:0|0:0|0:0|0:0,0:0:0:0:
212,124,57375,2,0,L|228:92,7,27.5,8|0|0|0|0|0|0|0,0:0|0:0|0:0|0:0|0:0|0:0|0:0|0:0,0:0:0:0:
324,148,57921,2,0,L|356:164,7,27.5,8|0|0|0|0|0|0|0,0:0|0:0|0:0|0:0|0:0|0:0|0:0|0:0,0:0:0:0:
300,260,58466,2,0,L|284:292,7,27.5,8|0|0|0|0|0|0|0,0:0|0:0|0:0|0:0|0:0|0:0|0:0|0:0,0:0:0:0:
380,308,59012,5,8,0:0:0:0:
380,308,59148,1,0,0:0:0:0:
372,68,59284,1,8,0:0:0:0:
372,68,59421,1,0,0:0:0:0:
132,76,59557,1,8,0:0:0:0:
132,76,59693,1,0,0:0:0:0:
140,316,59830,1,8,0:0:0:0:
140,316,59966,1,0,0:0:0:0:
256,32,60103,6,0,B|216:136|296:136|256:248,1,220,8|0,0:0|0:0,0:0:0:0:
256,245,60921,1,0,0:0:0:0:
80,28,61193,6,2,P|4:84|16:212,1,220,6|0,0:0|0:0,0:0:0:0:
432,28,62012,2,0,P|508:84|496:212,1,220
256,32,62830,1,0,0:0:0:0:
148,324,63103,2,0,B|256:300|256:352|368:328,2,220,0|0|0,0:0|0:0|0:0,0:0:0:0:
148,324,64330,1,0,0:0:0:0:
148,324,64466,6,0,L|108:284,1,55
364,60,64739,2,0,L|404:100,1,55,8|0,0:0|0:0,0:0:0:0:
124,84,65012,2,0,L|164:44,1,55,8|0,0:0|0:0,0:0:0:0:
388,300,65284,2,0,L|348:340,1,55
168,196,65557,6,2,P|56:212|60:312,1,220,2|0,0:0|0:0,0:0:0:0:
460,300,66375,2,0,P|445:200|344:196,1,220
256,328,67193,1,0,0:0:0:0:
168,84,67466,2,0,P|256:27|344:83,2,220,0|0|0,0:0|0:0|0:0,0:0:0:0:
184,220,68693,1,0,0:0:0:0:
256,336,68830,6,0,L|312:368,1,55
112,192,69103,2,0,L|80:248,1,55
256,48,69375,2,0,L|200:16,1,55
400,192,69648,2,0,L|432:136,1,55
28,220,69921,6,2,P|68:332|196:356,1,220,6|0,0:0|0:0,0:0:0:0:
355,364,70739,2,0,P|453:322|484:220,1,220
256,336,71557,1,0,0:0:0:0:
168,88,71830,2,0,P|256:31|344:87,1,220,0|0,0:0|0:0,0:0:0:0:
432,56,72648,2,0,L|384:164,1,110,0|0,0:0|0:0,0:0:0:0:
387,156,73057,1,0,0:0:0:0:
387,156,73193,6,0,L|440:208,1,55
125,228,73466,2,0,L|72:176,1,55,8|0,0:0|0:0,0:0:0:0:
292,323,73739,2,0,L|240:376,1,55,8|0,0:0|0:0,0:0:0:0:
220,61,74012,2,0,L|272:8,1,55
256,192,74284,1,4,0:0:0:0:
256,192,74421,12,4,78648,0:0:0:0:
256,328,86012,5,0,0:0:0:0:
100,64,86284,1,0,0:0:0:0:
412,64,86557,1,0,0:0:0:0:
256,28,86830,1,0,0:0:0:0:
256,56,86898,1,0,0:0:0:0:
256,84,86966,1,0,0:0:0:0:
256,112,87034,1,0,0:0:0:0:
256,140,87103,1,0,0:0:0:0:
256,168,87171,1,0,0:0:0:0:
256,196,87239,1,0,0:0:0:0:
256,224,87307,1,0,0:0:0:0:
256,251,87375,6,0,P|180:316|100:248,1,220
76,144,88057,2,0,P|52:88|4:60,2,110,0|0|0,0:0|0:0|0:0,0:0:0:0:
499,62,88739,2,0,P|455:93|436:144,1,110,0|0,0:0|0:0,0:0:0:0:
428,256,89148,1,0,0:0:0:0:
340,320,89284,1,0,0:0:0:0:
232,300,89421,1,0,0:0:0:0:
168,208,89557,6,0,P|156:144|168:72,2,110,0|0|0,0:0|0:0|0:0,0:0:0:0:
120,308,90239,2,0,P|60:324|0:320,2,110,0|0|0,0:0|0:0|0:0,0:0:0:0:
256,60,90921,1,8,0:0:0:0:
120,308,91193,1,8,0:0:0:0:
392,308,91466,1,0,0:0:0:0:
128,72,91739,6,0,P|52:88|24:120,1,110
384,72,92284,2,0,P|460:88|488:120,1,110
256,332,92830,2,0,B|228:224|284:224|256:116,1,220,0|0,0:0|0:0,0:0:0:0:
168,120,93512,1,0,0:0:0:0:
344,120,93648,1,0,0:0:0:0:
132,232,93784,1,0,0:0:0:0:
380,232,93921,6,0,P|472:260|432:360,1,220
71,356,94603,2,0,P|34:311|42:255,2,110,0|0|0,0:0|0:0|0:0,0:0:0:0:
180,364,95284,2,0,L|256:324,1,55
324,284,95557,1,0,0:0:0:0:
324,284,95625,1,0,0:0:0:0:
324,284,95693,1,0,0:0:0:0:
324,284,95762,1,0,0:0:0:0:
324,284,95830,1,0,0:0:0:0:
324,284,95898,1,0,0:0:0:0:
324,284,95966,1,0,0:0:0:0:
324,284,96034,1,0,0:0:0:0:
324,284,96103,6,0,L|248:328,2,55,0|0|0,0:0|0:0|0:0,0:0:0:0:
348,124,96512,2,0,L|392:200,2,55,0|0|0,0:0|0:0|0:0,0:0:0:0:
188,100,96921,2,0,L|264:56,2,55,0|0|0,0:0|0:0|0:0,0:0:0:0:
164,260,97330,2,0,L|120:184,2,55,0|0|0,0:0|0:0|0:0,0:0:0:0:
256,200,97739,2,0,L|256:124,3,55,0|0|0|0,0:0|0:0|0:0|0:0,0:0:0:0:
256,36,98284,6,0,L|324:36,2,55,0|0|0,0:0|0:0|0:0,0:0:0:0:
412,192,98693,1,0,0:0:0:0:
412,192,98762,1,0,0:0:0:0:
412,192,98830,2,0,L|412:280,1,55
256,348,99103,2,0,L|188:348,2,55,0|0|0,0:0|0:0|0:0,0:0:0:0:
100,192,99512,2,0,L|100:124,2,55,0|8|0,0:0|0:0|0:0,0:0:0:0:
252,192,99921,1,8,0:0:0:0:
144,60,100466,6,0,L|80:60,2,55,0|0|0,0:0|0:0|0:0,0:0:0:0:
124,304,100875,2,0,L|124:368,2,55,0|0|0,0:0|0:0|0:0,0:0:0:0:
368,324,101284,2,0,L|432:324,2,55,0|0|0,0:0|0:0|0:0,0:0:0:0:
388,80,101693,2,0,L|388:16,2,55,0|0|0,0:0|0:0|0:0,0:0:0:0:
256,288,102103,2,0,L|256:368,2,55,0|0|0,0:0|0:0|0:0,0:0:0:0:
256,288,102512,1,0,0:0:0:0:
124,288,102648,6,0,L|68:344,2,55
388,288,103057,2,0,L|444:344,2,55
388,96,103466,2,0,L|444:40,2,55
124,96,103875,2,0,L|68:40,2,55
256,320,104284,1,0,0:0:0:0:
256,28,104421,1,0,0:0:0:0:
256,40,104489,1,0,0:0:0:0:
256,52,104557,1,0,0:0:0:0:
256,64,104625,1,0,0:0:0:0:
256,76,104693,1,0,0:0:0:0:
392,132,104830,6,0,P|448:176|456:232,1,110
256,76,105239,1,0,0:0:0:0:
120,132,105375,2,0,P|64:176|56:232,2,110
148,224,106057,2,0,L|148:288,1,55
364,279,106330,2,0,L|364:224,2,55
256,64,106739,1,0,0:0:0:0:
256,64,107012,6,0,L|376:64,1,110
144,64,107421,1,0,0:0:0:0:
256,192,107557,2,0,L|136:192,2,110,0|0|0,0:0|0:0|0:0,0:0:0:0:
356,148,108239,1,0,0:0:0:0:
424,232,108375,1,8,0:0:0:0:
356,320,108512,1,0,0:0:0:0:
252,284,108648,1,8,0:0:0:0:
260,100,108921,1,0,0:0:0:0:
252,284,109193,6,0,L|148:320,1,110
32,264,109603,1,0,0:0:0:0:
252,284,109739,2,0,L|356:320,2,110,0|0|0,0:0|0:0|0:0,0:0:0:0:
144,144,110421,2,0,L|144:56,2,55
368,89,110830,2,0,L|368:144,1,55
256,4,111103,1,0,0:0:0:0:
256,276,111375,6,0,P|288:324|352:336,1,110
256,100,111784,1,0,0:0:0:0:
100,140,111921,2,0,P|52:172|40:236,1,110
256,100,112330,1,0,0:0:0:0:
412,140,112466,2,0,P|460:172|472:236,2,110,0|0|0,0:0|0:0|0:0,0:0:0:0:
76,40,113148,1,0,0:0:0:0:
436,40,113284,1,0,0:0:0:0:
184,320,113557,6,0,L|72:344,1,110,8|0,0:0|0:0,0:0:0:0:
256,192,113966,1,0,0:0:0:0:
328,64,114103,2,0,L|440:40,1,110,8|0,0:0|0:0,0:0:0:0:
380,344,114648,2,0,L|480:344,1,55,8|0,0:0|0:0,0:0:0:0:
132,40,114921,2,0,L|32:40,1,55
380,40,115193,2,0,L|435:40,1,55,8|0,0:0|0:0,0:0:0:0:
132,344,115466,2,0,L|77:344,1,55
328,64,115739,6,0,L|440:40,1,110,8|0,0:0|0:0,0:0:0:0:
256,192,116148,1,0,0:0:0:0:
184,320,116285,2,0,L|72:344,1,110,8|0,0:0|0:0,0:0:0:0:
260,60,116830,1,8,0:0:0:0:
200,240,116966,1,0,0:0:0:0:
348,128,117103,1,0,0:0:0:0:
164,128,117239,1,0,0:0:0:0:
312,240,117375,1,8,0:0:0:0:
256,160,117512,1,0,0:0:0:0:
168,368,117648,1,0,0:0:0:0:
344,368,117784,1,0,0:0:0:0:
344,368,117853,1,0,0:0:0:0:
344,368,117921,1,8,0:0:0:0:
344,368,117989,1,0,0:0:0:0:
344,368,118057,1,0,0:0:0:0:
156,236,118193,6,0,L|156:292,1,55
356,291,118466,2,0,L|356:235,1,55,8|0,0:0|0:0,0:0:0:0:
100,124,118739,2,0,L|100:180,1,55
412,179,119012,2,0,L|412:123,1,55,8|0,0:0|0:0,0:0:0:0:
40,28,119284,2,0,L|40:84,1,55
472,83,119557,2,0,L|472:27,1,55,8|0,0:0|0:0,0:0:0:0:
108,323,119830,1,0,0:0:0:0:
404,323,119966,1,0,0:0:0:0:
256,36,120103,5,8,0:0:0:0:
228,40,120171,1,0,0:0:0:0:
208,56,120239,1,0,0:0:0:0:
192,80,120307,1,0,0:0:0:0:
192,108,120375,1,8,0:0:0:0:
204,132,120443,1,0,0:0:0:0:
224,148,120512,1,0,0:0:0:0:
248,156,120580,1,0,0:0:0:0:
272,160,120648,1,8,0:0:0:0:
296,168,120716,1,0,0:0:0:0:
316,184,120785,1,0,0:0:0:0:
328,208,120853,1,0,0:0:0:0:
328,236,120921,1,8,0:0:0:0:
312,260,120989,1,0,0:0:0:0:
292,276,121057,1,0,0:0:0:0:
264,280,121125,1,0,0:0:0:0:
240,280,121193,6,0,P|164:284|232:352,1,220,8|0,0:0|0:0,0:0:0:0:
228,354,122012,1,0,0:0:0:0:
64,88,122284,6,2,B|32:192|96:192|64:304,1,220,2|0,0:0|0:0,0:0:0:0:
448,304,123103,2,0,B|416:192|480:192|448:88,1,220
256,344,123921,1,0,0:0:0:0:
144,52,124193,2,0,B|256:20|256:84|360:52,2,220,0|0|0,0:0|0:0|0:0,0:0:0:0:
144,52,125421,1,0,0:0:0:0:
96,136,125557,2,0,L|68:192,1,55
200,352,125830,2,0,L|256:380,1,55,8|0,0:0|0:0,0:0:0:0:
416,248,126103,2,0,L|444:192,1,55,8|0,0:0|0:0,0:0:0:0:
312,32,126375,2,0,L|256:4,1,55
344,204,126648,6,2,P|340:296|484:304,1,220,2|0,0:0|0:0,0:0:0:0:
65,333,127466,2,0,P|164:306|168:204,1,220
452,92,128284,2,0,P|380:52|316:44,2,110,0|0|0,0:0|0:0|0:0,0:0:0:0:
60,92,129103,2,0,P|132:52|196:44,2,110,0|0|0,0:0|0:0|0:0,0:0:0:0:
60,92,129784,1,0,0:0:0:0:
256,24,129921,2,0,L|316:16,1,55
256,360,130193,2,0,L|196:368,1,55
424,192,130466,2,0,L|432:252,1,55
88,192,130739,2,0,L|80:132,1,55
264,280,131012,6,2,L|24:328,1,220,2|0,0:0|0:0,0:0:0:0:
248,104,131830,2,0,L|488:56,1,220
168,56,132648,2,0,P|104:44|32:44,2,110,0|0|0,0:0|0:0|0:0,0:0:0:0:
344,328,133466,2,0,P|408:340|480:340,2,110,0|0|0,0:0|0:0|0:0,0:0:0:0:
148,332,134148,1,0,0:0:0:0:
148,332,134284,2,0,L|84:332,1,55
148,52,134557,2,0,L|84:52,1,55,8|0,0:0|0:0,0:0:0:0:
364,332,134830,2,0,L|428:332,1,55,8|0,0:0|0:0,0:0:0:0:
364,52,135103,2,0,L|428:52,1,55
256,192,135375,5,0,0:0:0:0:
256,192,135512,12,0,139466,0:0:0:0:
256,192,139739,5,4,0:0:0:0:
52,32,140012,2,0,L|52:92,1,55
460,119,140284,2,0,L|460:64,1,55,8|0,0:0|0:0,0:0:0:0:
144,40,140557,2,0,L|144:95,1,55
368,111,140830,2,0,L|368:56,1,55,0|0,0:0|0:0,0:0:0:0:
256,48,141103,2,0,L|256:103,1,55
256,192,141375,1,8,0:0:0:0:
256,192,141512,1,0,0:0:0:0:
256,192,141648,1,0,0:0:0:0:
256,192,141921,5,0,0:0:0:0:
200,276,142193,2,0,L|132:276,1,55
312,276,142466,2,0,L|368:276,3,55,8|0|0|0,0:0|0:0|0:0|0:0,0:0:0:0:
152,192,143012,2,0,L|84:192,1,55
360,192,143285,2,0,L|416:192,1,55,8|0,0:0|0:0,0:0:0:0:
200,108,143557,2,0,L|132:108,1,55,8|0,0:0|0:0,0:0:0:0:
312,108,143830,2,0,L|368:108,1,55,0|0,0:0|0:0,0:0:0:0:
448,108,144103,6,0,L|448:24,1,55
448,276,144375,2,0,L|448:360,1,55
64,108,144648,2,0,L|64:24,1,55,8|0,0:0|0:0,0:0:0:0:
64,276,144920,2,0,L|64:360,1,55
36,192,145193,2,0,B|120:172|120:208|200:192,2,165,0|8|0,0:0|0:0|0:0,0:0:0:0:
320,108,146284,6,0,P|380:192|320:276,1,220,0|8,0:0|0:0,0:0:0:0:
256,192,146966,1,0,0:0:0:0:
256,192,147103,1,0,0:0:0:0:
256,192,147239,1,0,0:0:0:0:
192,108,147375,2,0,P|132:192|192:276,2,220,0|10|0,0:0|0:0|0:0,0:0:0:0:
328,120,148739,6,0,L|372:80,1,55
328,264,149012,2,0,L|368:308,1,55,8|0,0:0|0:0,0:0:0:0:
184,264,149284,2,0,L|140:304,1,55
184,120,149557,2,0,L|144:76,1,55
256,300,149830,2,0,L|256:360,1,55
388,68,150103,2,0,L|439:38,1,55,8|0,0:0|0:0,0:0:0:0:
124,68,150375,2,0,L|72:38,1,55
256,40,150648,1,0,0:0:0:0:
56,296,150921,6,0,L|56:364,1,55
456,88,151193,2,0,L|456:20,1,55,8|0,0:0|0:0,0:0:0:0:
156,264,151466,2,0,L|156:319,1,55
356,120,151739,2,0,L|356:65,1,55
256,164,152012,2,0,L|256:232,1,55,8|0,0:0|0:0,0:0:0:0:
56,88,152284,2,0,L|56:20,1,55,8|0,0:0|0:0,0:0:0:0:
456,296,152556,2,0,L|456:364,1,55
156,120,152829,2,0,L|156:65,1,55
356,264,153103,6,0,L|356:319,1,55
356,120,153375,2,0,L|356:65,1,55,8|0,0:0|0:0,0:0:0:0:
156,264,153648,2,0,L|156:319,1,55,0|0,0:0|0:0,0:0:0:0:
440,192,153921,2,0,L|508:192,3,55,0|0|0|0,0:0|0:0|0:0|0:0,0:0:0:0:
72,192,154466,2,0,L|4:192,1,55,8|0,0:0|0:0,0:0:0:0:
256,300,154739,2,0,L|256:372,1,55
356,120,155012,6,0,P|248:40|140:60,1,220,0|8,0:0|0:0,0:0:0:0:
64,84,155693,1,0,0:0:0:0:
4,160,155830,1,0,0:0:0:0:
40,264,155966,1,0,0:0:0:0:
132,328,156103,2,0,P|300:344|368:328,2,220,0|2|6,0:0|0:0|0:0,0:0:0:0:
120,260,157466,6,0,L|108:212,2,32.99999899292
172,220,158012,1,0,0:0:0:0:
228,256,158284,2,0,L|276:252,1,32.99999899292,2|0,0:0|0:0,0:0:0:0:
292,252,158557,2,0,L|356:244,1,32.99999899292
356,244,158830,2,0,P|388:240|432:220,1,65.9999979858399
464,180,159375,6,0,L|464:104,1,65.9999979858399,2|0,0:0|0:0,0:0:0:0:
440,92,159784,1,0,0:0:0:0:
420,112,159921,2,0,L|420:178,1,65.9999979858399
352,176,160466,2,0,B|256:172|268:172,1,65.9999979858399,2|0,0:0|0:0,0:0:0:0:
288,108,161012,2,0,L|192:104,1,65.9999979858399,2|0,0:0|0:0,0:0:0:0:
188,48,161557,6,0,L|164:84,1,32.99999899292,6|0,0:0|0:0,0:0:0:0:
148,52,161830,2,0,L|124:88,1,32.99999899292
108,56,162103,2,0,L|84:92,1,32.99999899292,2|0,0:0|0:0,0:0:0:0:
68,60,162375,2,0,L|44:96,1,32.99999899292
36,116,162648,2,0,P|44:172|64:200,1,65.9999979858399,2|0,0:0|0:0,0:0:0:0:
16,236,163193,2,0,P|32:276|64:296,1,65.9999979858399,0|0,0:0|0:0,0:0:0:0:
104,324,163739,6,0,L|152:340,3,32.99999899292,2|0|0|0,0:0|0:0|0:0|0:0,0:0:0:0:
168,340,164284,2,0,L|216:340,3,32.99999899292,2|0|0|0,0:0|0:0|0:0|0:0,0:0:0:0:
232,336,164830,2,0,L|268:324,1,32.99999899292,2|0,0:0|0:0,0:0:0:0:
284,348,165103,2,0,L|320:336,1,32.99999899292
348,328,165375,2,0,L|332:288,1,32.99999899292,2|0,0:0|0:0,0:0:0:0:
368,296,165648,2,0,L|352:256,1,32.99999899292
388,256,165921,6,0,P|416:232|436:176,1,65.9999979858399,14|0,0:0|0:0,0:0:0:0:
464,216,166330,2,0,P|468:180|456:136,1,65.9999979858399,2|2,0:0|0:0,0:0:0:0:
492,132,166739,2,0,P|472:96|436:76,1,65.9999979858399,0|0,0:0|0:0,0:0:0:0:
460,48,167148,2,0,P|420:40|376:48,1,65.9999979858399,2|2,0:0|0:0,0:0:0:0:
380,12,167557,2,0,P|348:24|316:56,1,65.9999979858399,8|2,0:0|0:0,0:0:0:0:
308,72,167966,1,0,0:0:0:0:
284,44,168103,6,0,L|200:24,1,65.9999979858399,10|0,0:0|0:0,0:0:0:0:
212,64,168512,2,0,L|128:44,1,65.9999979858399,2|2,0:0|0:0,0:0:0:0:
140,84,168921,2,0,L|56:64,1,65.9999979858399,0|2,0:0|0:0,0:0:0:0:
40,64,169330,2,0,L|24:108,1,32.99999899292,0|0,0:0|0:0,0:0:0:0:
64,104,169603,2,0,L|48:148,1,32.99999899292,0|10,0:0|0:0,0:0:0:0:
88,144,169875,2,0,L|72:188,1,32.99999899292,0|0,0:0|0:0,0:0:0:0:
112,180,170148,1,0,0:0:0:0:
96,216,170284,6,0,P|72:272|72:304,1,65.9999979858399,14|0,0:0|0:0,0:0:0:0:
64,316,170693,2,0,P|120:312|148:320,1,65.9999979858399,2|2,0:0|0:0,0:0:0:0:
168,324,171103,2,0,P|200:332|264:328,1,65.9999979858399,0|0,0:0|0:0,0:0:0:0:
272,336,171512,2,0,P|280:288|272:248,1,65.9999979858399,2|2,0:0|0:0,0:0:0:0:
268,232,171921,2,0,P|264:192|272:144,1,65.9999979858399,10|2,0:0|0:0,0:0:0:0:
276,128,172330,1,0,0:0:0:0:
316,136,172466,6,0,L|324:48,1,65.9999979858399,10|0,0:0|0:0,0:0:0:0:
360,56,172875,2,0,L|354:121,1,65.9999979858399,2|0,0:0|0:0,0:0:0:0:
392,108,173284,2,0,L|400:20,1,65.9999979858399,2|8,0:0|0:0,0:0:0:0:
436,32,173693,1,2,0:0:0:0:
432,72,173830,1,0,0:0:0:0:
428,112,173966,1,0,0:0:0:0:
424,152,174103,1,10,0:0:0:0:
420,192,174239,1,0,0:0:0:0:
416,232,174375,1,2,0:0:0:0:
412,272,174512,1,0,0:0:0:0:
408,304,174648,6,0,L|376:332,1,32.99999899292,14|0,0:0|0:0,0:0:0:0:
368,292,174921,2,0,L|336:320,1,32.99999899292
320,272,175193,2,0,L|288:300,1,32.99999899292,10|0,0:0|0:0,0:0:0:0:
268,256,175466,2,0,L|236:284,1,32.99999899292
228,232,175739,2,0,L|260:204,1,32.99999899292,10|0,0:0|0:0,0:0:0:0:
216,184,176012,2,0,L|248:156,1,32.99999899292
208,128,176284,2,0,L|240:100,1,32.99999899292,10|0,0:0|0:0,0:0:0:0:
204,72,176557,2,0,L|236:44,1,32.99999899292
180,32,176830,6,0,L|132:28,1,32.99999899292,14|0,0:0|0:0,0:0:0:0:
132,80,177103,2,0,L|84:76,1,32.99999899292
88,128,177375,2,0,L|40:124,1,32.99999899292,10|0,0:0|0:0,0:0:0:0:
44,176,177648,2,0,L|-4:172,1,32.99999899292
16,228,177921,2,0,L|32:272,1,32.99999899292,10|0,0:0|0:0,0:0:0:0:
84,252,178193,2,0,L|100:296,1,32.99999899292
152,280,178466,2,0,L|168:324,1,32.99999899292,10|0,0:0|0:0,0:0:0:0:
220,304,178739,2,0,L|236:348,1,32.99999899292
292,336,179012,6,0,L|292:320,1,16.49999949646,14|0,0:0|0:0,0:0:0:0:
320,332,179148,2,0,L|320:316,1,16.49999949646,2|0,0:0|0:0,0:0:0:0:
348,324,179284,2,0,L|348:308,1,16.49999949646,2|0,0:0|0:0,0:0:0:0:
376,316,179421,2,0,L|376:300,1,16.49999949646,2|0,0:0|0:0,0:0:0:0:
404,308,179557,2,0,L|404:292,1,16.49999949646,10|0,0:0|0:0,0:0:0:0:
432,300,179693,2,0,L|432:284,1,16.49999949646,2|0,0:0|0:0,0:0:0:0:
460,296,179830,2,0,L|460:280,1,16.49999949646,2|0,0:0|0:0,0:0:0:0:
488,288,179966,2,0,L|488:272,1,16.49999949646,2|0,0:0|0:0,0:0:0:0:
488,240,180103,2,0,L|488:224,1,16.49999949646,14|0,0:0|0:0,0:0:0:0:
456,236,180239,2,0,L|456:220,1,16.49999949646,2|0,0:0|0:0,0:0:0:0:
428,228,180375,2,0,L|428:212,1,16.49999949646,2|0,0:0|0:0,0:0:0:0:
400,220,180512,2,0,L|400:204,1,16.49999949646,2|0,0:0|0:0,0:0:0:0:
372,212,180648,2,0,L|372:196,1,16.49999949646,10|0,0:0|0:0,0:0:0:0:
344,204,180784,2,0,L|344:188,1,16.49999949646,2|0,0:0|0:0,0:0:0:0:
316,200,180921,2,0,L|316:184,1,16.49999949646,2|0,0:0|0:0,0:0:0:0:
288,192,181057,2,0,L|288:176,1,16.49999949646,2|0,0:0|0:0,0:0:0:0:
248,160,181193,5,14,0:0:0:0:
230,131,181262,1,0,0:0:0:0:
204,112,181330,1,2,0:0:0:0:
172,103,181398,1,0,0:0:0:0:
139,106,181466,1,10,0:0:0:0:
110,120,181534,1,0,0:0:0:0:
87,145,181602,1,2,0:0:0:0:
76,175,181671,1,0,0:0:0:0:
76,208,181739,1,10,0:0:0:0:
87,239,181807,1,0,0:0:0:0:
110,264,181875,1,2,0:0:0:0:
139,278,181943,1,0,0:0:0:0:
172,281,182012,1,10,0:0:0:0:
204,272,182080,1,0,0:0:0:0:
230,252,182148,1,2,0:0:0:0:
248,224,182216,1,0,0:0:0:0:
254,192,182284,5,6,0:0:0:0:
254,192,182557,1,0,0:0:0:0:
254,192,182830,1,2,0:0:0:0:
254,192,183375,5,0,0:0:0:0:
440,140,183648,2,0,L|440:250,1,110
72,250,184193,2,0,L|72:140,2,110,0|0|0,0:0|0:0|0:0,0:0:0:0:
312,68,185012,2,0,L|180:68,1,110
420,36,185557,6,2,P|468:100|476:244,1,220,2|0,0:0|0:0,0:0:0:0:
33,236,186375,2,0,P|33:127|92:36,1,220
256,348,187193,1,0,0:0:0:0:
340,88,187466,2,0,P|256:28|172:88,2,220,0|0|0,0:0|0:0|0:0,0:0:0:0:
404,144,188693,1,0,0:0:0:0:
408,232,188830,6,0,L|448:276,1,55
104,152,189103,2,0,L|64:108,1,55,8|0,0:0|0:0,0:0:0:0:
340,88,189375,2,0,L|384:48,1,55,8|0,0:0|0:0,0:0:0:0:
172,296,189648,2,0,L|128:336,1,55
304,344,189921,6,2,P|340:300|512:260,1,220,2|0,0:0|0:0,0:0:0:0:
491,128,190739,2,0,P|383:113|304:40,1,220
28,192,191557,1,0,0:0:0:0:
256,192,191830,2,0,B|368:168|368:216|476:192,2,220
128,192,193057,1,0,0:0:0:0:
60,92,193193,6,0,L|36:32,1,55
208,276,193466,2,0,L|208:340,1,55
304,108,193739,2,0,L|304:48,1,55
452,292,194012,2,0,L|476:352,1,55
440,192,194284,6,2,P|440:120|328:20,1,220,2|0,0:0|0:0,0:0:0:0:
172,22,195103,2,0,P|86:85|72:192,1,220
416,304,195921,1,0,0:0:0:0:
96,304,196193,1,0,0:0:0:0:
420,181,196739,6,0,P|412:124|380:80,1,110
129,82,197284,2,0,P|98:127|91:181,2,110,0|0|8,0:0|0:0|0:0,0:0:0:0:
308,332,198103,2,0,P|256:348|204:332,1,110,8|0,0:0|0:0,0:0:0:0:
256,192,198648,12,0,199739,0:0:0:0:
256,24,200012,5,0,0:0:0:0:
256,36,200557,1,0,0:0:0:0:
256,48,201103,5,0,0:0:0:0:
256,56,201375,1,0,0:0:0:0:
256,64,201648,1,0,0:0:0:0:
256,72,201921,1,0,0:0:0:0:
256,80,202193,5,0,0:0:0:0:
256,88,202330,1,0,0:0:0:0:
256,96,202466,1,0,0:0:0:0:
256,104,202603,1,0,0:0:0:0:
256,112,202739,1,0,0:0:0:0:
256,120,202875,1,0,0:0:0:0:
168,40,203012,6,2,P|56:108|8:292,1,330.000012588501,2|0,0:0|0:0,0:0:0:0:
504,291,203830,2,0,P|475:133|344:40,1,330.000012588501
256,356,204648,1,0,0:0:0:0:
176,192,204921,2,0,P|256:76|336:192,1,330.000012588501
256,164,205603,1,0,0:0:0:0:
324,372,205739,6,0,L|416:372,1,82.5000031471254
76,260,206012,2,0,L|76:352,1,82.5000031471254
188,12,206284,2,0,L|96:12,1,82.5000031471254
436,124,206557,2,0,L|436:32,1,82.5000031471254,8|0,0:0|0:0,0:0:0:0:
256,192,206830,2,0,L|256:304,2,82.5000031471254,8|0|0,0:0|0:0|0:0,0:0:0:0:
168,100,207239,1,0,0:0:0:0:
88,200,207375,6,2,P|88:284|-20:344,2,165.000006294251,2|0|0,0:0|0:0|0:0,0:0:0:0:
479,337,208193,2,0,P|422:280|424:200,2,165.000006294251,0|0|0,0:0|0:0|0:0,0:0:0:0:
176,56,209012,2,0,P|256:72|336:56,2,165.000006294251,0|0|0,0:0|0:0|0:0,0:0:0:0:
256,192,209830,1,0,0:0:0:0:
256,192,209966,1,0,0:0:0:0:
132,352,210103,6,0,L|64:284,1,82.5000031471254
416,316,210375,2,0,L|358:375,1,82.5000031471254
380,32,210648,2,0,L|438:90,1,82.5000031471254
96,68,210920,2,0,L|155:10,1,82.5000031471254
256,260,211193,1,0,0:0:0:0:
188,192,211330,1,0,0:0:0:0:
256,124,211466,1,0,0:0:0:0:
324,192,211603,1,0,0:0:0:0:
128,280,211739,6,2,P|12:192|128:104,1,330.000012588501,2|0,0:0|0:0,0:0:0:0:
384,280,212557,2,0,P|500:192|384:104,2,330.000012588501,0|0|0,0:0|0:0|0:0,0:0:0:0:
256,192,213921,1,0,0:0:0:0:
316,52,214193,6,0,L|484:24,1,165.000006294251
196,332,214739,2,0,L|28:360,2,165.000006294251,0|0|8,0:0|0:0|0:0,0:0:0:0:
72,56,215557,2,0,L|100:224,1,165.000006294251,8|0,0:0|0:0,0:0:0:0:
440,328,216103,6,0,L|412:160,2,165.000006294251,2|0|0,0:0|0:0|0:0,0:0:0:0:
256,76,216921,5,0,0:0:0:0:
152,160,217057,1,0,0:0:0:0:
360,160,217193,1,0,0:0:0:0:
184,276,217330,1,0,0:0:0:0:
328,276,217466,1,0,0:0:0:0:
48,36,217739,1,0,0:0:0:0:
464,36,218012,1,0,0:0:0:0:
104,344,218284,6,0,P|32:252|32:104,1,247.500009441376
487,125,218830,2,0,P|481:247|408:344,2,247.500009441376,0|0|0,0:0|0:0|0:0,0:0:0:0:
48,36,219921,2,0,L|184:4,1,82.5000031471254,2|0,0:0|0:0,0:0:0:0:
256,40,220193,1,0,0:0:0:0:
256,40,220330,1,0,0:0:0:0:
364,20,220466,6,0,P|464:132|440:328,2,330,2|0|0,0:0|0:0|0:0,0:0:0:0:
148,20,221693,2,0,P|48:132|72:328,1,330,0|2,0:0|0:0,0:0:0:0:
208,356,222239,2,0,L|328:356,2,110
160,244,222648,6,0,P|257:134|352:244,1,330,2|0,0:0|0:0,0:0:0:0:
460,336,223193,2,0,L|460:220,1,110
420,124,223466,2,0,P|324:36|120:84,1,330
28,240,224012,2,0,L|28:128,1,110,8|0,0:0|0:0,0:0:0:0:
256,244,224284,2,0,L|256:372,1,110,10|0,0:0|0:0,0:0:0:0:
484,244,224557,2,0,L|484:134,1,110
352,224,224830,6,0,P|255:334|160:224,1,330,2|0,0:0|0:0,0:0:0:0:
456,352,225375,2,0,P|488:228|416:72,1,220
396,44,225784,2,0,L|248:44,1,110
80,140,226057,2,0,L|200:140,1,110
432,244,226330,2,0,L|312:244,1,110
116,340,226603,2,0,L|264:340,1,110
404,344,226875,1,0,0:0:0:0:
480,160,227012,6,0,P|340:108|324:248,1,330
252,328,227557,2,0,P|136:324|36:184,1,220
60,124,227966,2,0,P|144:56|252:56,1,220
256,192,228375,1,0,0:0:0:0:
456,192,228648,5,0,0:0:0:0:
456,192,228716,1,0,0:0:0:0:
456,192,228784,1,0,0:0:0:0:
456,192,228853,1,0,0:0:0:0:
456,192,228921,1,0,0:0:0:0:
456,192,228989,1,0,0:0:0:0:
456,192,229057,1,0,0:0:0:0:
456,192,229125,1,0,0:0:0:0:
