osu file format v5

[General]
AudioFilename: 04 Lady GaGa - Beautiful Dirty Rich.mp3
AudioLeadIn: 0
PreviewTime: 47999
Countdown: 0
SampleSet: Soft
StackLeniency: 0.6
Mode: 0
LetterboxInBreaks: 1
EditorDistanceSpacing: 0.800000011920929

[Metadata]
Title:Beautiful Dirty Rich
Artist:Lady GaGa
Creator:foulcoon
Version:Takuma
Source:
Tags:

[Difficulty]
HPDrainRate:6
CircleSize:5
OverallDifficulty:7
SliderMultiplier:2
SliderTickRate:1

[Events]
//Background and Video events
0,0,"lady gaga 2.jpg"
//Break Periods
2,44324,44974
2,64324,70224
2,84324,84974
//Storyboard Layer 0 (Background)
//Storyboard Layer 1 (Failing)
//Storyboard Layer 2 (Passing)
//Storyboard Layer 3 (Foreground)
//Storyboard Sound Samples
//Background Colour Transformations
3,100,163,162,255

[TimingPoints]
8124,500,4,2,0,60,1,0
24126,-100,4,1,0,70,0,0
35126,-100,4,2,0,60,0,0
36126,-100,4,1,0,70,0,0

[Colours]
Combo1 : 4,4,202
Combo2 : 255,255,151
Combo3 : 0,0,0

[HitObjects]
48,80,23374,1,0
48,80,23624,1,4
128,80,23874,1,0
208,80,24124,2,4,B|208:288,1,200,4|0
144,320,24874,1,0
208,360,25124,2,0,B|312:360,1,100
308,360,25624,2,0,B|384:284,1,100
432,232,26124,2,0,B|432:104|312:296|296:152,1,200
296,80,26874,2,0,B|192:80,1,100
112,80,27374,1,0
112,80,27499,1,0
112,80,27749,1,0
40,192,28124,6,0,B|120:248|120:144|232:208,1,200,4|0
296,240,28874,1,0
296,240,28999,1,0
352,288,29249,1,0
352,288,29374,1,0
408,240,29624,2,0,B|408:128,1,100
408,56,30124,5,4
344,104,30374,1,0
280,56,30624,1,0
200,56,30874,1,0
192,56,30999,1,0
184,56,31124,2,2,B|80:56,2,100,2|2|4
184,136,31874,1,8
104,136,32124,6,0,B|48:240|104:344,1,200,4|0
176,328,32874,1,0
176,248,33124,1,0
256,248,33374,1,0
256,168,33624,1,0
256,168,33749,1,0
360,88,34124,5,2
360,88,34624,1,6
280,88,34874,1,0
224,32,35124,1,4
168,88,35374,1,0
88,88,35624,2,0,B|88:192,1,100,2|0
88,264,36124,5,4
88,344,36374,1,0
152,304,36624,1,8
152,224,36874,2,0,B|208:224,1,50
280,224,37249,1,0
280,224,37374,1,0
360,224,37624,1,8
360,144,37874,1,0
360,64,38124,6,0,B|288:40|232:64|192:88|176:136|256:176|344:168|416:184|432:280|336:304|216:280,1,500,0|2
176,248,39624,1,4
88,104,40124,6,2,B|16:32,1,100
88,104,40624,2,0,B|16:176,1,100,4|4
88,104,41124,2,2,B|160:176,1,100
88,104,41624,2,4,B|160:32,1,100
232,8,42124,1,2
312,24,42374,1,0
368,72,42624,1,2
376,152,42874,1,0
344,224,43124,1,4
296,288,43374,2,2,B|216:208|168:360|112:256,1,200,2|0
64,208,44124,1,4
64,144,45874,6,0,B|64:40,1,100,0|4
448,48,46624,1,0
448,336,47124,1,4
64,336,47624,2,0,B|64:224|192:376|192:224,1,200,2|6
192,152,48374,5,0
192,72,48624,1,8
264,112,48874,1,0
264,32,49124,1,0
328,72,49374,1,0
408,72,49624,2,0,B|408:176,1,100,8|0
408,184,49999,1,0
408,192,50124,1,0
408,272,50374,2,0,B|304:272,1,100,0|8
304,192,50874,2,0,B|256:152|200:200,1,100,0|2
144,232,51374,1,0
144,232,51499,1,2
72,192,51749,1,2
72,184,51874,1,0
72,80,52124,6,0,B|176:80,1,100,2|0
144,152,52624,2,0,B|248:152,1,100,2|0
320,152,53124,2,0,B|376:248|320:344,1,200,2|6
240,344,53874,1,0
240,264,54124,2,0,B|136:264,1,100,2|0
56,264,54624,2,0,B|56:152,1,100,2|0
56,164,54999,1,0
56,164,55124,1,4
135,162,55374,1,0
134,82,55624,1,2
134,82,56124,5,6
216,80,56374,1,0
216,160,56624,1,8
296,160,56874,2,0,B|296:264,2,100
376,160,57624,2,0,B|376:368,1,200,8|4
304,320,58374,1,0
240,360,58624,1,8
160,360,58874,6,0,B|48:360,1,100,0|2
160,280,59374,2,0,B|56:280,1,100,0|2
59,200,59874,1,0
136,200,60124,2,2,B|216:128|256:296|352:152,1,200,2|6
384,152,60874,6,0,B|384:48,3,100,0|4|0|4
384,52,61874,1,0
304,48,62124,2,0,B|216:136|120:40,1,200,2|6
64,96,62874,1,0
64,176,63124,2,0,B|168:176,1,100,2|0
240,176,63624,1,2
164,176,63874,1,0
204,244,64124,1,4
256,192,71124,12,4,72124
256,192,72624,5,0
416,192,73124,1,2
416,112,73374,1,0
416,112,73499,1,2
336,112,73749,2,0,B|336:56,1,50,2|0
256,112,74124,2,0,B|160:56|64:136,1,200,2|6
24,184,74874,1,0
24,256,75124,6,0,B|104:336,1,100,0|0
120,248,75624,2,0,B|200:328,1,100,8|0
224,248,76124,1,4
224,248,76249,1,0
224,248,76374,1,0
224,168,76624,1,8
224,88,76874,1,0
224,88,76999,2,0,B|288:48|328:136|392:72,1,150,0|4
432,136,77624,1,8
368,184,77874,1,0
368,264,78124,6,0,B|368:320,2,50,4|0|0
368,184,78624,1,8
288,184,78874,1,0
288,192,78999,1,0
288,200,79124,2,2,B|288:304,2,100,2|2|4
208,200,79874,1,0
128,200,80124,6,2,B|80:248|32:200,1,100
128,200,80624,2,4,B|176:248|136:288,1,100
128,200,81124,2,2,B|80:152|128:104,1,100
128,200,81624,2,4,B|176:152|232:216,1,100
248,272,82124,1,2
304,320,82374,1,0
384,328,82624,1,2
456,288,82874,1,0
488,216,83124,1,4
464,136,83374,2,2,B|480:16|312:248|336:32,1,200,2|0
240,40,84124,1,4
256,192,85874,5,4
176,192,86124,2,0,B|120:192,3,50,2|2|2|4
48,192,86749,1,4
48,200,86874,1,0
48,280,87124,2,2,C|24:304|48:328|24:352,1,100,0|4
136,344,87624,6,0,B|144:184|224:480|272:248,1,200,2|6
256,216,88374,2,0,B|360:216,1,100,0|8
432,216,88874,1,0
432,136,89124,1,0
352,136,89374,1,0
392,64,89624,1,8
312,64,89874,1,0
304,64,89999,1,0
296,64,90124,1,4
216,64,90374,2,0,B|112:64,1,100,0|8
32,64,90874,6,0,B|32:176,1,100,0|2
32,240,91374,1,0
32,240,91499,1,2
80,304,91749,1,0
80,304,91874,1,2
128,240,92124,6,0,B|176:192|232:248,1,100,0|0
176,304,92624,2,0,B|224:344|280:296,1,100
344,304,93124,1,2
304,232,93374,1,0
384,232,93624,2,0,B|384:120,1,100,6|0
384,48,94124,1,2
304,48,94374,1,0
224,48,94624,2,0,B|224:160,1,100,6|0
144,147,95124,1,0
64,148,95374,1,0
64,148,95499,1,0
64,148,95624,1,2
64,304,96124,5,6
64,224,96374,1,0
144,224,96624,1,8
144,304,96874,1,0
224,304,97124,2,0,B|328:304,2,100,0|0|8
224,224,97874,2,0,B|224:120,1,100,0|4
224,40,98374,1,0
224,124,98624,1,8
304,128,98874,6,0,B|410:128,1,100,0|2
304,208,99374,2,0,B|408:208,1,100,0|2
400,288,99874,1,0
320,312,100124,2,2,B|216:368|216:224|112:336,1,200,2|6
64,352,100874,1,0
64,272,101124,2,0,B|64:168,3,100,4|0|4|0
64,88,102124,2,0,B|160:40|264:88,1,200,2|6
328,40,102874,1,0
257,84,103124,1,2
328,128,103374,1,0
256,176,103624,1,2
256,176,103999,5,0
256,176,104124,1,4
136,176,104374,1,0
136,296,104624,1,0
256,192,104874,12,4,105624
112,192,106124,5,2
184,96,106374,1,0
256,192,106624,1,2
256,192,106874,12,4,107624
416,304,108124,6,0,B|360:232|280:384|216:264,1,200,2|6
256,192,108874,12,4,109624
256,92,110124,6,0,B|256:204,2,100,2|0|6
256,192,110874,12,4,111624
88,93,111999,5,0
88,93,112124,1,2
88,168,112374,1,0
168,168,112624,1,2
248,168,112874,2,0,B|248:272,2,100,0|4|0
248,168,113624,1,4
248,88,113874,5,0
256,88,113999,1,0
264,88,114124,1,2
320,32,114374,1,0
376,88,114624,1,2
456,88,114874,2,0,B|456:192,1,100,0|4
376,168,115374,2,0,B|376:280,1,100,0|4
376,168,115874,1,0
296,168,116124,6,0,B|224:96|184:240|96:152,1,200,2|6
32,166,116874,1,0
32,248,117124,2,4,B|32:352,1,100
111,350,117624,1,4
256,192,118124,12,2,119624
256,192,120124,5,6
