osu file format v7

[General]
AudioFilename: 102 - Lady GaGa - Alejandro.mp3
AudioLeadIn: 0
PreviewTime: -1
Countdown: 1
SampleSet: Soft
StackLeniency: 0.7
Mode: 0
LetterboxInBreaks: 1

[Editor]
DistanceSpacing: 0.800000011920929
BeatDivisor: 4
GridSize: 8

[Metadata]
Title:Alejandro
Artist:Lady GaGa
Creator:Utena
Version:kevincela
Source:The Fame
Tags:

[Difficulty]
HPDrainRate:6
CircleSize:4
OverallDifficulty:8
SliderMultiplier:2.5
SliderTickRate:1

[Events]
//Background and Video events
0,0,"bg.jpg"
//Break Periods
2,67810,71102
2,94021,96254
2,99476,100799
2,103718,105951
2,111446,119284
2,188113,206860
//Storyboard Layer 0 (Background)
//Storyboard Layer 1 (Fail)
//Storyboard Layer 2 (Pass)
//Storyboard Layer 3 (Foreground)
//Storyboard Sound Samples
//Background Colour Transformations
3,100,0,0,0

[TimingPoints]
24277,606.060606060606,4,2,0,100,1,0
29580,-100,4,1,0,80,0,0
29883,-100,4,2,0,100,0,0
30792,-100,4,1,0,79,0,0
31095,-100,4,2,0,100,0,0
32004,-100,4,1,0,80,0,0
32307,-100,4,2,0,100,0,0
33367,-100,4,1,0,80,0,0
71549,-100,4,1,0,80,0,1
110943,-100,4,1,0,80,0,0
120034,-100,4,2,0,80,0,0
121246,-100,4,1,0,80,0,0
149125,-100,4,1,0,80,0,1
188519,-100,4,1,0,39,0,0
226549,-100,4,1,0,80,0,1
226852,-100,4,1,0,80,0,0

[Colours]
Combo1 : 255,255,255
Combo2 : 131,131,131
Combo3 : 212,212,212

[HitObjects]
112,136,24276,2,0,B|112:56|200:56,1,125
288,56,24883,2,0,B|368:64|368:168,1,125
368,240,25489,2,0,B|184:240,1,125
160,288,26095,2,0,B|312:288,1,125
360,352,26701,2,0,B|464:352|464:240,1,125
456,192,27307,2,0,B|456:96|344:96,1,125
288,96,27913,1,0
192,96,28216,1,0
96,96,28519,1,0
8,96,28822,1,0
8,192,29125,6,0,B|8:264|96:264,1,125
192,264,29731,1,2
192,264,30034,2,0,B|336:264,1,125
416,264,30640,1,0
408,168,30943,1,2
408,168,31246,2,0,B|240:168,1,125
184,168,31852,1,0
120,80,32155,1,2
120,80,32458,2,0,B|280:80,1,125
344,80,33064,1,0
440,80,33367,1,2
472,280,33973,6,0,B|328:280,1,125
248,280,34580,1,8
152,280,34883,1,8
56,280,35186,2,0,B|56:144,1,125
56,56,35792,1,8
152,56,36095,1,8
248,56,36398,2,0,B|384:56,1,125
472,56,37004,1,8
472,152,37307,1,8
376,152,37610,2,2,B|376:240|264:240,1,125
248,152,38216,2,2,B|168:152|168:240,1,125
264,240,38822,6,0,B|264:320|160:320,1,125
88,320,39428,1,8
0,320,39731,1,8
0,224,40034,2,0,B|0:136|120:136,1,125
176,136,40640,1,8
176,40,40943,1,8
272,40,41246,2,0,B|352:40|352:120,1,125
352,216,41852,1,8
352,312,42155,1,8
256,312,42458,6,2,B|168:312|168:216,1,125
168,144,43064,2,2,B|168:48|272:48,1,125
336,48,43670,2,4,B|464:48|464:200,1,187.5
456,312,44580,1,8
360,312,44883,1,8
264,312,45186,1,8
168,312,45489,1,8
72,312,45792,5,2
72,312,45943,1,2
72,312,46095,2,2,B|40:256|88:160,1,125,2|2
168,152,46701,2,2,B|128:88|192:24,1,125
248,104,47307,2,2,B|280:160|232:248,1,125
216,320,47913,2,2,B|280:280|368:336,1,125
432,320,48519,5,0
432,224,48822,1,8
432,128,49125,1,8
432,32,49428,1,8
432,32,49580,2,8,B|352:32|352:112,1,125
352,160,50034,1,2
256,160,50337,1,0
160,160,50640,1,2
160,160,50792,1,2
256,192,50943,12,0,51852
408,72,52155,6,0,B|448:152|376:240,1,125
392,288,52761,2,0,B|336:328|216:296,1,125
168,312,53367,2,0,B|128:184|192:104,1,187.5
328,128,54276,1,8
432,128,54580,1,8
432,224,54883,1,8
328,224,55186,1,8
232,224,55489,1,2
232,224,55640,1,2
256,192,55943,12,0,57610
112,192,57913,5,8
112,192,58064,1,8
112,192,58216,1,8
208,192,58519,1,2
304,192,58822,1,2
400,192,59125,1,8
400,192,59276,2,8,B|400:112|328:104,1,125
280,104,59731,1,8
184,104,60034,1,2
184,104,60186,2,2,B|56:104|56:240,1,187.5
256,192,60943,12,0,61852
64,80,63064,6,0,B|120:144|208:112,1,125
272,136,63670,2,0,B|352:152|376:240,1,125
368,312,64276,1,8
264,312,64580,1,8
168,312,64883,1,8
72,312,65186,1,8
72,216,65489,6,0,B|72:136|176:136,1,125
232,192,66095,2,0,B|296:136|248:72,1,125
352,80,66701,1,8
448,80,67004,1,8
448,176,67307,1,8
352,176,67610,1,8
424,72,71852,6,0,B|424:144|320:144,1,125
240,144,72458,1,2
240,144,72610,1,2
88,144,73064,6,0,B|88:232|192:232,1,125
264,224,73670,1,2
264,224,73822,1,2
416,224,74276,2,8,B|456:152|408:72,1,125
320,104,74883,5,8
320,104,75034,1,8
320,104,75186,2,8,B|320:216|168:216,1,187.5
48,248,76095,2,2,B|56:320|144:320,1,125
232,320,76701,6,0,B|320:320|320:232|320:232,1,125
232,232,77307,1,8
232,232,77458,1,8
88,184,77913,6,0,B|88:112|192:112,1,125
272,112,78519,1,8
272,112,78670,1,8
424,112,79125,2,2,B|456:176|416:288,1,125
312,328,79883,5,2
312,328,80034,2,2,B|224:264|176:344|112:256,1,187.5
128,128,80943,1,8
224,128,81246,1,8
320,128,81549,6,0,B|320:200|416:200,1,125
400,288,82155,1,2
400,288,82307,1,2
248,288,82761,6,0,B|248:208|144:208,1,125
112,280,83367,1,2
112,280,83519,1,2
112,128,83973,6,2,B|160:72|264:136,1,125
328,120,84580,1,8
328,216,84883,1,2
328,216,85034,2,2,B|312:336|184:336,1,187.5
104,328,85792,1,4
104,128,86398,6,0,B|104:48|224:48,1,125
176,128,87004,1,8
176,128,87155,1,8
328,128,87610,6,0,B|320:208|240:208,1,125
152,208,88216,1,8
152,208,88367,1,8
152,360,88822,2,2,B|224:384|304:352,1,125
424,336,89580,5,8
424,336,89731,2,4,B|480:272|360:216|480:152,1,187.5
424,24,90640,2,2,B|360:80|280:8,1,125
208,32,91246,2,2,B|136:88|64:16,1,125
80,136,91852,5,8
80,136,92004,1,8
80,136,92155,2,8,B|80:256|224:256,1,187.5
336,208,93064,1,8
336,208,93216,1,8
336,208,93367,2,8,B|336:336|192:336,1,187.5
88,72,97004,6,0,B|88:136,1,62.5
88,184,97307,2,0,B|88:256,1,62.5
88,296,97610,2,2,B|152:256|184:320|224:256,1,125
304,288,98216,2,0,B|304:208,1,62.5
304,176,98519,2,0,B|304:96,1,62.5
304,64,98822,2,2,B|368:16|400:96|496:16,1,187.5
88,80,101549,5,8
88,80,101701,1,8
88,80,101852,2,8,B|88:208|232:208,1,187.5
352,208,102761,1,8
352,208,102913,1,8
352,208,103064,2,8,B|352:336|192:336,1,187.5
88,72,106701,6,0,B|168:72,1,62.5
200,72,107004,2,0,B|296:72,1,62.5
312,72,107307,2,2,B|384:48|408:96|480:40,1,125
432,168,107913,2,0,B|360:168,1,62.5
320,168,108216,2,0,B|232:168,1,62.5
208,168,108519,2,2,B|152:216|104:160|24:208,1,187.5
96,336,109428,1,0
144,336,109580,1,0
192,336,109731,1,0
288,336,110034,1,0
336,336,110186,1,0
384,336,110337,1,0
384,240,110640,2,8,B|288:184|200:256|120:216,1,250
128,96,120034,6,0,B|216:96|216:232,1,125
112,184,120640,2,0,B|112:272|232:272,1,125
288,264,121246,2,8,B|384:152|280:48,2,187.5
384,272,122458,1,2
480,272,122761,2,0,B|480:176|368:176,1,125
312,176,123367,1,2
312,176,123519,1,2
216,176,123973,1,8
256,192,124125,12,0,125489
144,144,125792,6,2,B|72:144,2,62.5
240,144,126398,1,8
336,144,126701,2,0,B|336:256|448:256,1,125
440,248,127155,1,8
448,96,127610,1,8
352,96,127913,2,0,B|352:176|264:176,1,125
224,176,128367,1,8
256,192,128519,12,0,129428
72,72,129731,6,2,B|160:72|160:160,1,125
88,208,130337,2,2,B|88:288|184:288|184:288,1,125
272,288,130943,2,8,B|400:296|400:160,1,187.5
480,56,131852,2,0,B|528:104|488:208,2,125
384,56,132761,1,2
296,56,133064,1,8
296,56,133216,2,8,B|88:56|96:288,1,312.5
200,240,134276,1,8
304,240,134580,1,8
400,240,134883,1,8
400,144,135186,1,8
304,144,135489,6,2,B|240:88|160:176,1,125
120,216,136095,1,8
120,216,136246,1,8
120,216,136398,2,8,B|120:320|256:320,1,187.5
400,320,137307,1,2
400,224,137610,2,2,B|400:144|296:144,1,125
272,144,138064,1,2
120,144,138519,1,8
120,240,138822,1,8
120,336,139125,1,8
216,336,139428,2,2,B|312:336,4,62.5
216,240,140337,1,4
312,240,140640,5,8
408,240,140943,1,8
408,144,141246,1,8
312,144,141549,1,8
216,144,141852,2,0,B|216:240|128:240,1,125
104,152,142458,2,0,B|40:152|40:256,1,125
40,344,143064,1,8
136,344,143367,1,8
232,344,143670,1,8
328,344,143973,1,8
328,248,144276,2,0,B|416:248|416:136,1,125
416,72,144883,2,0,B|360:32|256:128,1,125
224,152,145489,5,2
224,248,145792,1,2
128,248,146095,1,2
128,152,146398,1,2
128,56,146701,2,8,B|232:56|232:168,1,125
328,120,147307,1,2
328,216,147610,1,2
328,312,147913,2,8,B|256:312|256:224,1,125
160,224,148519,2,8,B|160:312|32:320,1,125
56,216,149125,1,4
56,120,149428,6,0,B|56:32|160:32,1,125
176,120,150034,1,2
176,120,150186,1,2
176,272,150640,6,0,B|256:272|256:160,1,125
352,192,151246,1,2
352,192,151398,1,2
448,200,151852,2,8,B|448:128|448:128,2,62.5
448,296,152458,5,8
400,296,152610,1,8
352,296,152761,2,8,B|288:320|224:264|128:328,1,187.5
56,304,153670,2,2,B|56:376,2,62.5
56,208,154276,6,0,B|56:128|192:128,1,125
208,200,154883,1,2
208,200,155034,1,2
368,200,155489,6,0,B|368:296|264:296,1,125
200,288,156095,1,2
200,288,156246,1,2
48,288,156701,2,8,B|48:352,2,62.5
48,136,157458,5,2
48,136,157610,2,2,B|128:88|192:176|296:104,1,250
392,120,158519,2,8,B|392:56,2,62.5,8|4|8
392,216,159125,6,0,B|400:304|296:304,1,125,8|0
224,296,159731,1,8
224,296,159883,1,8
72,296,160337,6,8,B|72:200|192:200,1,125
240,200,160943,1,8
240,200,161095,1,8
392,200,161549,5,2
392,104,161852,1,2
296,104,162155,1,2
200,104,162458,2,2,B|72:104|72:280,1,187.5
80,368,163367,1,4
280,360,163973,6,8,B|384:360|384:248,1,125
376,200,164580,1,2
376,200,164731,1,2
224,200,165186,6,8,B|224:96|96:96,1,125
56,104,165792,1,2
56,104,165943,1,2
56,256,166398,2,8,B|136:256,2,62.5
208,256,167155,5,2
208,256,167307,2,2,B|280:216|352:280|448:240,1,187.5
424,104,168216,2,8,B|368:48|272:128,1,125
208,104,168822,2,8,B|144:48|56:128,1,125
88,200,169428,5,2
88,200,169580,1,2
88,200,169731,2,2,B|88:312|272:304,1,187.5
368,304,170640,1,2
368,304,170792,1,2
368,304,170943,2,0,B|496:304|496:160,1,187.5,2|0
344,176,171852,6,8,B|280:128|192:192,1,125
128,176,172458,1,8
128,224,172610,1,8
128,272,172761,1,8
224,272,173064,2,2,B|272:192|328:288,1,125
416,272,173670,1,2
416,224,173822,1,2
416,176,173973,1,2
416,80,174276,1,2
312,80,174580,5,0
264,80,174731,1,0
216,80,174883,1,0
168,80,175034,1,0
120,80,175186,2,2,B|128:176|240:176,1,125
296,168,175792,5,0
296,216,175943,1,0
296,264,176095,1,0
296,312,176246,1,0
248,312,176398,2,2,B|184:272|96:336|40:280,1,187.5
72,144,177307,6,0,B|72:64|176:64,1,125
248,64,177913,1,2
248,112,178064,1,2
248,160,178216,1,2
248,256,178519,2,0,B|256:328|368:360,1,125
424,336,179125,5,8
424,336,179276,1,8
424,336,179428,2,8,B|384:256|456:176|376:96,1,250
280,104,180337,1,8
280,104,180489,1,8
280,104,180640,2,8,B|248:192|304:304|224:352,1,250
136,336,181549,6,2,B|96:272|160:200,1,125
248,216,182155,1,2
296,216,182307,1,2
344,216,182458,1,2
440,216,182761,2,8,B|496:168|424:80,1,125
344,104,183367,1,8
296,104,183519,1,8
248,104,183670,1,8
152,104,183973,1,4
152,200,184276,5,0
200,200,184428,1,0
248,200,184580,1,0
296,200,184731,1,0
344,200,184883,2,8,B|344:296|424:296,1,125
448,200,185489,5,0
464,152,185640,1,0
440,104,185792,1,0
408,64,185943,1,0
360,64,186095,2,8,B|296:112|184:48|96:104,1,250
120,192,187004,6,0,B|88:256|136:328,1,125
224,304,187610,1,2
272,304,187761,1,2
320,304,187913,1,2
56,200,207610,6,2,B|56:120|184:120,1,125
240,128,208216,1,2
240,128,208367,1,2
392,128,208822,6,2,B|392:224|280:224,1,125
224,216,209428,1,2
224,216,209580,1,2
72,216,210034,2,8,B|72:280,2,62.5
72,120,210640,5,8
120,120,210792,1,8
168,120,210943,2,8,B|264:80|360:136|472:80,1,250
424,200,211852,2,2,B|488:200,2,62.5
328,200,212458,6,8,B|328:296|216:296,1,125
160,288,213064,1,8
160,288,213216,1,8
8,288,213670,6,8,B|8:184|120:184,1,125
168,192,214276,1,8
168,192,214428,1,8
320,192,214883,2,2,B|320:128,2,62.5
320,344,215640,5,2
320,344,215792,2,2,B|240:312|120:360|32:320,1,250
72,232,216701,2,8,B|8:232,2,62.5
72,136,217307,6,2,B|72:48|200:48,1,125
248,56,217913,1,2
248,56,218064,1,2
400,56,218519,2,2,B|400:152|296:152,1,125
232,152,219125,1,2
232,152,219276,1,2
80,152,219731,6,8,B|48:208|112:224|48:272,2,125
72,56,220640,1,8
72,56,220792,2,8,B|216:56|208:208,1,187.5
208,256,221549,1,4
408,256,222155,6,8,B|408:160|304:160,1,125
240,168,222761,1,8
240,168,222913,1,8
88,168,223367,6,8,B|88:80|184:80,1,125
256,80,223973,1,8
256,80,224125,1,8
408,80,224580,2,2,B|408:16,2,62.5
408,232,225337,5,2
408,232,225489,2,2,B|312:280|288:216|176:280,1,187.5
72,264,226398,1,8
72,168,226701,1,4
360,80,227610,5,2
360,80,227761,1,2
360,80,227913,2,2,B|360:192|216:192,1,187.5
88,192,228822,1,2
88,192,228973,1,2
88,192,229125,2,2,B|88:296|224:296,1,187.5
368,296,230034,6,8,B|416:240|360:184,1,125
264,184,230640,1,8
216,184,230792,1,8
168,184,230943,1,8
72,184,231246,2,2,B|40:120|88:56,1,125
184,64,231852,1,2
232,64,232004,1,2
280,64,232155,1,2
376,64,232458,1,2
376,160,232761,5,0
376,208,232913,1,0
376,256,233064,1,0
376,304,233216,1,0
376,352,233367,2,2,B|272:352|272:248,1,125
272,192,233973,5,0
224,192,234125,1,0
176,192,234276,1,0
128,192,234428,1,0
80,192,234580,2,2,B|80:328|256:328,1,250
352,328,235489,5,8
352,280,235640,1,8
352,232,235792,1,8
352,136,236095,1,8
352,88,236246,1,8
352,40,236398,1,8
256,40,236701,2,2,B|200:128|288:176,1,125
256,256,237307,1,8
256,256,237458,1,8
256,256,237610,2,8,B|120:256|112:120,1,187.5
232,56,238519,1,8
232,56,238670,1,8
232,56,238822,6,8,B|336:56|352:176,1,187.5
352,272,239731,2,2,B|280:320|216:256,1,125
136,264,240337,1,2
136,216,240489,1,2
136,168,240640,1,2
232,168,240943,2,8,B|288:112|368:192,1,125
448,168,241549,1,8
448,120,241701,1,8
448,72,241852,1,8
352,72,242155,1,2
256,72,242458,5,0
208,72,242610,1,0
160,72,242761,1,0
112,72,242913,1,0
64,72,243064,2,8,B|56:160|152:152,1,125
232,152,243670,5,0
280,152,243822,1,0
328,152,243973,1,0
376,152,244125,1,0
424,152,244276,2,8,B|424:264|288:264,1,187.5
200,264,245186,5,8
152,264,245337,1,8
104,264,245489,1,8
104,168,245792,1,2
104,120,245943,1,2
104,72,246095,1,2
200,72,246398,1,4
