osu file format v9

[General]
AudioFilename: LACUNA COIL Trip The Darkness (OFFICIAL VIDEO).mp3
AudioLeadIn: 0
PreviewTime: 36308
Countdown: 0
SampleSet: Normal
StackLeniency: 0.7
Mode: 0
LetterboxInBreaks: 1

[Editor]
DistanceSpacing: 0.8
BeatDivisor: 3
GridSize: 8

[Metadata]
Title:Trip The Darkness
Artist:Lacuna Coil
Creator:Laeth1988
Version:Normal
Source:
Tags:Cristina Sabbia Symphonic Metal

[Difficulty]
HPDrainRate:4
CircleSize:4
OverallDifficulty:5
ApproachRate:5
SliderMultiplier:1.4
SliderTickRate:2

[Events]
//Background and Video events
Video,0,"LACUNA COIL Trip The Darkness (OFFICIAL VIDEO).avi"
0,0,"bg.jpg"
//Break Periods
2,65364,69344
2,111340,120048
//Storyboard Layer 0 (Background)
//Storyboard Layer 1 (Fail)
//Storyboard Layer 2 (Pass)
//Storyboard Layer 3 (Foreground)
//Storyboard Sound Samples
//Background Colour Transformations
3,100,0,0,0

[TimingPoints]
115,489.097208070104,3,1,0,50,1,0
47068,-100,3,1,0,50,0,1
61802,-100,3,1,0,50,0,0
94021,-100,3,1,0,50,0,1
108694,-100,3,1,0,50,0,0
144887,-100,3,1,0,50,0,1
159560,-100,3,1,0,50,0,0

[Colours]
Combo1 : 0,64,0
Combo2 : 164,0,0
Combo3 : 0,64,128
Combo4 : 128,0,128

[HitObjects]
256,200,23591,2,0,B|176:200,1,46.6666666666667
136,200,24080,2,0,B|136:152|168:120|248:80,1,140,2|0
296,96,24895,5,0
368,128,25221,1,0
376,200,25548,2,0,B|376:264|272:264,1,93.3333333333333,2|0
240,264,26200,1,0
168,248,26526,1,2
136,184,26852,1,0
136,112,27178,1,0
136,40,27504,2,0,B|216:40|208:152,1,140,0|2
352,264,28808,5,0
280,264,29134,1,0
208,264,29460,2,0,B|136:264|152:152,2,140
424,208,31417,6,0,B|352:208,1,46.6666666666667
384,280,31906,2,0,B|296:280|296:176,1,140,0|8
224,184,32721,5,0
152,184,33047,1,0
120,120,33373,1,8
192,120,33699,1,0
152,56,34025,1,0
224,56,34351,1,0
296,56,34677,1,8
368,56,35003,1,0
440,72,35329,2,0,B|496:128|496:256|440:312,1,233.333333333333,0|8
344,288,36634,5,0
344,216,36960,1,0
344,144,37286,2,0,B|240:144|280:272,1,140
353,311,38264,2,0,B|234:330|282:198,1,140
200,152,39242,6,0,B|240:200|312:136,1,93.3333333333333
320,144,39731,1,8
272,240,40220,2,0,B|320:192|376:256,1,93.3333333333333
384,256,40710,1,8
200,208,41525,6,0,B|72:208,2,93.3333333333333
168,280,42503,2,0,B|264:280,2,93.3333333333333
72,80,44133,5,0
144,80,44459,2,0,B|208:80,1,46.6666666666667
376,80,45438,2,0,B|376:176,1,93.3333333333333
413,173,46090,2,0,B|413:325,1,140,0|4
264,312,47068,6,0,B|176:312|136:272|176:216,1,140,0|8
168,136,48046,1,0
208,136,48209,1,0
280,136,48535,1,0
448,48,49350,5,0
400,104,49676,1,0
352,48,50002,2,0,B|272:48|232:88|232:160,1,186.666666666667
157,160,50981,1,0
157,48,51470,2,0,B|13:48|29:320,1,326.666666666667
102,306,52937,5,0
165,214,53426,1,0
227,306,53915,2,0,B|227:114,1,186.666666666667
226,120,54730,1,4
226,119,54893,6,0,B|138:119,1,46.6666666666667
104,120,55382,1,8
104,232,55872,2,0,B|160:232,1,46.6666666666667
224,232,56361,1,8
408,232,57176,5,0
336,232,57502,1,0
408,232,57828,1,0
256,232,58480,1,0
256,160,58806,1,0
336,232,59295,2,0,B|192:232|200:8|368:48,1,326.666666666667,0|8
352,120,60763,5,0
256,184,61252,1,0
256,192,61741,12,0,65164
256,192,70544,5,0
216,192,70708,1,0
144,192,71034,1,0
328,192,71849,6,0,B|432:192,2,93.3333333333333
328,120,72827,2,0,B|184:120|184:288|376:264,1,280
352,192,74131,1,0
328,120,74457,2,0,B|256:72|176:136,1,140,0|8
64,264,75762,6,0,B|152:352,1,93.3333333333333
208,336,76414,2,0,B|288:256,1,93.3333333333333
208,232,77066,2,0,B|288:152,1,93.3333333333333
224,104,77718,1,0
152,128,78044,2,0,B|64:40,1,93.3333333333333,0|8
384,48,79674,6,0,B|256:48,1,93.3333333333333
320,120,80326,2,0,B|192:120,1,93.3333333333333
256,192,80979,2,0,B|128:192,1,93.3333333333333
192,264,81631,2,0,B|64:264,1,93.3333333333333
24,264,82283,2,0,B|24:160|40:56|112:48,1,233.333333333333
208,48,83587,6,0,B|304:48,1,93.3333333333333
376,48,84239,2,0,B|432:104|344:152,1,93.3333333333333
304,128,84891,2,0,B|200:128,1,93.3333333333333
136,128,85543,2,0,B|88:80|160:16,1,93.3333333333333
58,46,86196,6,0,B|10:94|82:158,1,93.3333333333333
72,160,86685,1,8
40,264,87174,2,0,B|-8:312|64:376,1,93.3333333333333
72,352,87663,1,8
256,352,88478,6,0,B|120:352,2,93.3333333333333
328,352,89456,1,0
400,352,89782,1,8
472,352,90108,2,0,B|360:240,1,140
264,280,91087,6,0,B|400:280,1,93.3333333333333
400,280,91576,1,8
232,208,92391,2,0,B|328:176|440:208,1,186.666666666667
192,184,94021,6,0,B|256:120,1,46.6666666666667
272,96,94510,1,8
384,104,94999,2,0,B|336:152,1,46.6666666666667
296,184,95488,1,8
144,72,96304,5,0
216,72,96630,1,0
288,72,96956,1,0
224,208,97608,1,0
149,204,97934,2,0,B|124:340|207:377|336:389|289:184,1,373.333333333333
395,310,99890,6,0,B|478:230|395:142,1,186.666666666667
352,205,100869,2,0,B|272:237|192:197,1,140
119,149,101847,6,0,B|183:93|255:149,1,140
184,236,102825,2,0,B|248:292|320:236,1,140
248,66,104129,6,0,B|296:18|352:82,1,93.3333333333333
375,121,104781,2,0,B|327:169|271:105,1,93.3333333333333
217,136,105433,2,0,B|169:184|233:240,1,93.3333333333333
344,288,106412,2,0,B|248:416|128:261,1,233.333333333333
208,192,107716,6,0,B|256:296|304:176,1,140
256,192,108531,12,0,111140
256,192,121248,6,0,B|200:272|64:208|224:48|264:56|400:96|392:256|240:288,2,513.333333333333
144,192,125323,5,0
216,192,125649,2,0,B|216:144,1,46.6666666666667,0|8
216,256,126302,1,0
288,256,126628,2,0,B|288:320,1,46.6666666666667,0|8
256,192,128584,5,0
256,192,128910,1,4
256,192,129236,12,0,132171
160,96,133149,5,0
160,168,133475,1,0
160,168,133638,2,0,B|224:232|288:168,1,140
280,96,134453,2,0,B|344:96,1,46.6666666666667
104,272,137062,5,2
104,232,137225,1,0
176,224,137551,1,0
248,224,137877,1,0
248,184,138040,1,0
248,144,138203,1,4
376,280,139018,5,0
376,208,139344,1,0
376,208,139507,2,0,B|312:144|248:208,1,140
256,280,140322,2,0,B|192:280,1,46.6666666666667
296,216,140974,5,2
296,256,141137,1,0
368,264,141463,1,0
440,264,141789,1,0
440,304,141952,1,0
440,344,142115,1,4
336,192,142931,5,0
336,152,143094,2,0,B|232:152,1,93.3333333333333
240,224,143746,2,0,B|192:224,5,46.6666666666667,0|0|0|0|0|4
240,280,144887,6,0,B|320:280,1,46.6666666666667
360,280,145376,1,8
360,168,145865,6,0,B|272:168,1,46.6666666666667
240,168,146354,1,8
384,48,147170,6,0,B|504:48,2,93.3333333333333
256,120,148474,1,2
256,48,148800,2,0,B|160:40|160:208|264:192,2,233.333333333333
256,120,150756,6,0,B|328:112|352:152|328:232,1,140
336,312,151735,2,0,B|336:160,1,140
298,66,152713,5,0
298,66,152876,1,0
298,140,153202,1,8
213,66,153691,1,0
213,66,153854,1,0
213,140,154180,1,8
48,56,154995,5,0
104,104,155321,1,0
48,152,155647,2,0,B|80:184|104:216|120:192|160:152,1,140
160,40,156626,1,0
272,40,157115,2,0,B|416:40|416:128|272:128|360:240,1,280
416,320,158582,5,0
304,336,159071,2,0,B|184:216,1,140
256,192,159723,12,0,162495
56,208,163473,6,0,B|128:152|136:272|216:176,1,140
256,192,164451,12,0,166408
256,192,167386,12,0,170157
96,128,170646,5,0
168,128,170972,1,0
240,128,171299,1,0
168,216,171788,1,0
280,216,172277,1,0
400,128,172929,1,0
112,192,174233,5,0
224,200,174722,1,0
256,192,175211,12,0,179124
