osu file format v9

[General]
AudioFilename: QAZU.mp3
AudioLeadIn: 0
PreviewTime: 80946
Countdown: 0
SampleSet: Normal
StackLeniency: 0.7
Mode: 0
LetterboxInBreaks: 1

[Editor]
Bookmarks: 34866,65586,188466,223026
DistanceSpacing: 1.3
BeatDivisor: 4
GridSize: 8

[Metadata]
Title:Lichtgestalt
Artist:Lacrimosa
Creator:ErufenRito
Version:Insane
Source:
Tags:Garven Kurisuchianu

[Difficulty]
HPDrainRate:7
CircleSize:4
OverallDifficulty:7
ApproachRate:8
SliderMultiplier:2.3
SliderTickRate:1

[Events]
//Background and Video events
0,0,"lichtgestalt BG.jpg"
//Break Periods
2,96547,110957
2,157787,172397
//Storyboard Layer 0 (Background)
//Storyboard Layer 1 (Fail)
//Storyboard Layer 2 (Pass)
//Storyboard Layer 3 (Foreground)
//Storyboard Sound Samples
//Background Colour Transformations
3,100,163,162,255

[TimingPoints]
4187.65823826607,480,4,2,0,50,1,0
50135,-100,4,1,0,50,0,0
80987,-100,4,1,0,50,0,1
96347,-100,4,1,0,50,0,0
187427,-100,4,2,0,50,0,0
187787,-100,4,1,0,50,0,0
203867,-100,4,1,0,50,0,1
219227,-100,4,1,0,50,0,0

[Colours]
Combo1 : 255,0,0
Combo2 : 128,128,0
Combo3 : 128,128,192

[HitObjects]
420,285,34907,5,2
399,172,35147,1,0
286,156,35387,1,2
237,259,35627,1,0
318,340,35867,1,2
332,246,36347,5,4
65,119,36827,5,2
144,36,37067,1,0
248,84,37307,1,2
233,197,37547,1,0
121,221,37787,1,2
158,132,38267,5,4
459,133,38747,5,2
429,244,38987,1,0
314,250,39227,1,2
275,143,39467,1,0
362,70,39707,1,2
366,168,40187,5,4
145,340,40667,5,2
89,239,40907,1,0
168,155,41147,1,2
271,205,41387,1,0
258,318,41627,1,2
187,250,42107,5,4
437,220,42587,5,2
414,34,42827,1,0
324,198,43067,1,2
493,120,43307,1,0
311,85,43547,1,2
395,131,44027,5,4
139,0,44507,5,2
116,186,44747,1,0
26,22,44987,1,2
195,100,45227,1,0
13,135,45467,1,2
97,89,45947,5,4
231,252,46427,5,2
417,229,46667,1,0
253,139,46907,1,2
331,308,47147,1,0
366,126,47387,1,2
320,210,47867,5,4
55,193,48347,5,2
192,321,48587,1,0
7,298,48827,1,2
169,207,49067,1,0
90,374,49307,1,2
102,279,49787,5,4
384,80,50267,6,0,B|384:216,1,115,8|0
192,288,50747,2,0,B|192:144,1,115,8|0
256,80,51227,2,0,B|256:216,1,115,8|0
320,288,51707,2,0,B|320:144,1,115,8|0
128,64,52187,6,2,B|128:200,1,115,2|0
256,328,52667,2,2,B|256:184,1,115,2|0
384,64,53147,2,2,B|384:200,1,115,2|0
256,328,53627,2,2,B|256:184,1,115,2|0
472,40,54107,6,0,B|336:40,1,115,8|0
352,104,54587,2,0,B|480:104,1,115,8|0
352,168,55067,6,0,B|496:168,1,115,8|0
472,232,55547,2,0,B|352:232,1,115,8|0
360,296,56027,6,2,B|496:296,1,115,2|0
184,296,56507,2,2,B|328:296,1,115,2|0
8,296,56987,2,2,B|136:296,1,115,2|0
360,296,57467,2,2,B|496:296,1,115,2|0
352,80,57947,6,0,B|234:12,1,115,8|0
152,160,58427,2,0,B|269:92,1,115,8|0
352,256,58907,2,0,B|234:188,1,115,8|0
160,344,59387,2,0,B|277:276,1,115,8|0
352,80,59867,6,2,B|234:12,1,115,2|0
120,136,60347,2,2,B|237:68,1,115,2|0
416,192,60827,2,2,B|298:124,1,115,2|0
64,240,61307,2,2,B|181:172,1,115,2|0
392,120,61787,6,0,B|336:248,1,115,8|0
336,56,62267,2,0,B|197:71,1,115,8|0
256,240,62747,2,0,B|173:127,1,115,8|0
56,264,63227,2,0,B|112:135,1,115,8|0
112,328,63707,2,2,B|250:312,1,115,2|0
184,144,64187,2,2,B|266:256,1,115,2|0
424,344,64667,5,2
424,232,64907,1,0
424,120,65147,1,2
424,232,65387,1,0
424,232,65627,5,6
424,232,65867,2,0,L|304:232,1,115,0|2
309,232,66347,2,0,L|173:232,1,115,0|2
194,232,66827,5,0
96,128,67067,2,0,L|144:80|216:80,1,115,2|0
194,232,67547,2,0,L|146:280|74:280,1,115,2|0
96,128,68027,1,2
26,264,68267,6,0,L|74:216|146:216,1,115,0|2
280,224,68747,1,0
256,80,68987,2,0,L|208:128|136:128,1,115,2|0
224,264,69467,1,2
320,144,69707,6,0,L|368:208|368:264,1,115,0|2
264,136,70187,2,0,L|216:88|216:16,1,115,0|2
208,192,70667,1,0
120,72,70907,6,0,L|168:120|168:192,1,115,2|0
120,312,71387,2,0,L|168:264|168:192,1,115,2|0
312,192,71867,1,2
464,192,72107,2,0,B|320:192,1,115,0|2
200,192,72587,5,0
48,192,72827,1,2
48,192,72947,1,0
48,192,73067,1,0
48,192,73187,1,0
48,192,73307,6,0,B|56:280|144:288,1,115,2|0
296,296,73787,1,0
144,192,74027,2,2,B|136:104|48:96,1,115
256,40,74507,1,0
280,224,74747,6,0,B|358:232|371:304,1,115,2|0
225,165,75227,2,0,B|146:156|133:84,1,115,2|0
192,280,75707,1,0
224,96,75947,2,2,B|302:104|315:176,1,115
408,320,76427,1,0
408,136,76667,6,0,B|440:56|528:72,1,115,2|0
320,136,77147,2,0,B|288:216|200:200,1,115,2|0
416,208,77627,1,0
248,128,77867,2,2,B|280:48|368:64,1,115
336,248,78347,1,0
160,192,78587,6,0,B|72:184|72:104,1,115,2|0
16,304,79067,1,2
200,320,79307,5,0
200,320,79427,1,0
200,320,79547,1,2
48,216,79787,5,0
48,216,79907,1,0
48,216,80027,1,2
216,136,80267,5,0
216,136,80387,1,0
216,136,80507,1,2
478,195,80747,5,0
478,195,80867,1,0
478,195,80987,1,6
344,8,81227,2,0,B|280:17|249:81,1,115,0|2
32,136,81707,5,0
32,136,81827,1,0
32,136,81947,1,2
112,352,82187,2,0,B|175:342|206:278,1,115,0|2
424,352,82667,5,0
424,352,82787,1,0
424,352,82907,1,2
432,120,83147,2,0,B|367:105|316:154,1,115,0|2
112,56,83627,5,0
112,56,83747,1,0
112,56,83867,1,2
88,288,84107,2,0,B|150:304|203:256,1,115,0|2
344,80,84587,5,0
496,256,84827,1,6
280,176,85067,2,0,B|241:228|266:294,1,115,0|2
32,304,85547,5,0
32,304,85667,1,0
32,304,85787,1,2
72,80,86027,2,0,B|134:79|174:140,1,115,0|2
376,240,86507,5,0
376,240,86627,1,0
376,240,86747,1,2
210,79,86987,2,0,B|237:23|308:14,1,115,0|2
438,198,87467,1,0
256,336,87707,5,2
256,336,87827,1,0
256,336,87947,1,0
256,336,88067,1,0
256,336,88187,1,2
256,336,88307,1,0
256,336,88427,1,0
256,336,88547,1,0
256,336,88667,5,2
80,192,88907,2,0,B|200:192,1,115,0|2
432,192,89387,2,0,B|312:192,1,115,0|2
256,40,89867,5,0
256,40,89987,1,0
256,40,90107,1,2
256,272,90347,2,0,B|256:136,1,115,0|2
80,312,90827,2,0,B|200:312,1,115,0|2
432,312,91307,2,0,B|312:312,1,115,0|2
256,40,91787,5,0
256,40,91907,1,0
256,40,92027,1,2
32,88,92267,2,0,B|32:208,1,115,0|2
256,272,92747,2,0,B|256:152,1,115,0|2
480,88,93227,2,0,B|480:208,1,115,0|2
256,352,93707,5,0
256,352,93827,1,0
256,352,93947,1,2
256,120,94187,1,0
256,120,94427,1,2
40,48,94667,5,0
40,104,94787,1,0
40,160,94907,1,2
256,312,95147,5,0
256,256,95267,1,0
256,200,95387,1,2
472,48,95627,5,0
472,104,95747,1,0
472,160,95867,1,2
256,144,96107,5,0
256,88,96227,1,0
256,32,96347,1,10
488,192,111707,5,6
328,352,112187,6,0,B|184:352,1,115,8|0
120,288,112667,2,0,B|264:288,1,115,8|0
24,224,113147,2,0,B|168:224,1,115,8|0
139,224,113627,1,6
472,40,114107,6,0,B|344:40,1,115,8|0
357,40,114587,1,6
200,192,115067,6,0,B|328:192,1,115,8|0
315,192,115547,1,6
40,352,116027,6,0,B|168:352,1,115,8|0
88,192,116507,1,6
424,192,116987,1,6
256,80,117467,5,8
400,288,117707,1,0
400,296,117827,1,0
400,304,117947,1,8
112,288,118187,1,0
112,296,118307,1,0
112,304,118427,1,8
256,80,118667,1,0
256,88,118787,1,0
256,96,118907,1,8
256,104,119027,1,0
256,112,119147,1,8
256,120,119267,1,0
256,128,119387,1,6
416,312,119867,5,8
304,312,120107,1,0
416,312,120347,1,8
240,312,120587,1,0
416,312,120827,1,8
176,312,121067,1,0
416,312,121307,1,6
80,224,121787,5,8
192,224,122027,1,0
80,224,122267,1,6
440,136,122747,5,8
264,136,122987,1,0
440,136,123227,1,6
56,48,123707,5,8
288,48,123947,1,0
56,48,124187,1,6
288,48,124667,1,6
72,336,125147,5,8
72,336,125387,1,0
256,56,125627,1,8
256,56,125867,1,0
440,336,126107,1,8
440,336,126347,1,0
256,224,126587,2,0,B|256:296,4,57.5,8|0|8|0|2
256,216,127547,5,0
256,208,128027,1,8
256,200,128507,1,0
256,192,128987,5,2
360,96,129227,1,0
472,192,129467,1,0
464,192,129947,1,8
456,192,130427,1,0
448,192,130907,5,2
256,192,131147,1,0
64,192,131387,1,0
72,192,131867,1,8
80,192,132347,1,0
88,192,132827,5,2
256,352,133067,1,0
424,192,133307,1,0
256,192,133787,5,2
152,328,134027,1,0
152,320,134147,1,0
152,312,134267,1,8
360,328,134507,1,0
360,320,134627,1,0
360,312,134747,1,8
256,368,134987,1,0
256,256,135227,1,8
93,93,135707,5,8
174,174,135947,1,0
92,92,136187,1,8
10,173,136427,1,0
50,213,136547,1,0
90,253,136667,1,8
10,173,136907,1,0
90,253,137147,1,8
419,93,137627,5,8
338,174,137867,1,0
420,92,138107,1,8
502,173,138347,1,0
462,213,138467,1,0
422,253,138587,1,8
502,173,138827,1,0
462,213,138947,1,0
422,253,139067,1,8
90,253,139547,5,0
10,173,139787,1,0
50,213,139907,1,0
90,253,140027,1,8
256,192,140507,5,0
320,24,140747,1,0
320,80,140867,1,0
320,136,140987,1,8
192,24,141227,1,0
192,80,141347,1,0
192,136,141467,1,8
256,24,141707,5,0
256,80,141827,1,0
256,136,141947,1,8
256,192,142067,1,0
256,248,142187,1,8
256,304,142307,1,0
256,360,142427,6,0,B|120:360,1,115,8|0
132,351,142907,2,0,B|276:351,1,115,8|0
238,342,143387,2,0,B|102:342,1,115,8|0
114,333,143867,2,0,B|258:333,1,115,8|0
256,24,144347,6,0,B|392:24,1,115,8|0
380,33,144827,2,0,B|236:33,1,115,8|0
274,42,145307,2,0,B|410:42,1,115,8|0
398,51,145787,2,0,B|254:51,1,115,8|0
291,59,146267,2,0,B|475:59,1,172.5,8|0
467,63,146747,1,8
45,63,147467,1,0
53,71,147707,2,0,B|173:71,1,115,8|0
424,144,148187,6,0,B|288:144,1,115,8|0
424,208,148667,2,0,B|280:208,1,115,8|0
424,272,149147,2,0,B|288:272,1,115,8|0
424,336,149627,2,0,B|280:336,1,115,8|0
88,336,150107,6,0,B|224:336,1,115,8|0
424,272,150587,2,0,B|280:272,1,115,8|0
88,208,151067,2,0,B|224:208,1,115,8|0
424,144,151547,2,0,B|280:144,1,115,8|0
88,80,152027,2,0,B|350:80,1,230,8|0
80,72,152747,2,0,B|342:72,1,230,8|0
72,64,153467,2,0,B|208:64,1,115,8|0
304,128,153947,6,0,B|168:128,1,115,8|0
88,192,154427,2,0,B|232:192,1,115,8|0
304,256,154907,2,0,B|168:256,1,115,8|0
88,320,155387,2,0,B|232:320,1,115,8|0
424,64,155867,6,2,B|280:64,1,115,2|0
88,320,156347,2,2,B|232:320,1,115,2|0
256,192,156827,1,6
385,363,173147,5,8
254,314,173387,1,0
254,314,173627,1,8
306,180,173867,1,0
440,232,174107,1,8
440,232,174347,1,0
492,97,174587,1,8
358,45,174827,1,0
167,118,175067,6,2,B|56:181,1,115,2|0
208,186,175547,2,2,B|97:250,1,115,2|0
248,256,176027,2,2,B|137:320,1,115,2|0
288,325,176507,2,2,B|177:388,1,115,2|0
88,96,176987,5,8
122,244,177227,1,0
83,102,177467,1,8
200,200,177707,1,0
79,109,177947,1,8
225,121,178187,1,0
74,115,178427,1,8
203,38,178667,1,0
70,122,178907,6,2,B|176:193,1,115,2|0
65,129,179387,2,2,B|171:200,1,115,2|0
61,135,179867,2,2,B|167:206,1,115,2|0
56,142,180347,2,2,B|162:213,1,115,2|0
472,280,180827,5,8
472,280,181067,1,0
327,336,181307,1,8
327,336,181547,1,0
327,336,181787,1,8
435,233,182027,1,0
435,233,182267,1,8
294,283,182507,1,0
472,48,182747,6,2,B|366:119,1,115,2|0
128,160,183227,2,2,B|234:89,1,115,2|0
376,112,183707,2,2,B|270:183,1,115,2|0
32,224,184187,2,2,B|138:153,1,115,2|0
248,264,184667,6,0,B|256:336|176:368,1,115,8|0
91,133,185147,2,0,B|113:192|201:184,1,115,8|0
422,244,185627,2,0,B|399:184|311:192,1,115,8|0
264,112,186107,2,0,B|256:40|336:8,1,115,8|0
384,312,186587,6,2,B|456:304|488:384,1,115,2|0
128,304,187067,2,2,B|56:312|24:232,1,115,2|0
256,32,187547,1,4
248,296,188507,5,6
384,240,188747,2,0,L|264:240,1,115,0|2
408,184,189227,2,0,L|272:184,1,115,0|2
144,184,189707,5,0
40,288,189947,2,0,L|88:336|160:336,1,115,2|0
144,184,190427,2,0,L|96:136|24:136,1,115,2|0
40,288,190907,1,2
144,184,191147,6,0,L|192:232|264:232,1,115,0|2
208,88,191627,1,0
240,232,191867,2,0,L|288:184|360:184,1,115,2|0
336,336,192347,1,2
336,184,192587,6,0,L|384:120|384:64,1,115,0|2
496,184,193067,2,0,L|448:232|448:304,1,115,0|2
301,246,193547,1,0
448,280,193787,6,0,L|400:328|328:328,1,115,2|0
202,327,194267,2,0,L|154:279|154:207,1,115,2|0
283,157,194747,1,2
223,19,194987,6,0,B|79:19,1,115,0|2
120,168,195467,5,0
112,168,195587,1,0
104,168,195707,1,2
96,168,195827,1,0
88,168,195947,1,0
80,168,196067,1,0
72,168,196187,6,0,B|80:80|168:72,1,115,2|0
248,224,196667,1,0
72,168,196907,2,2,B|65:253|-20:265,1,115
172,349,197387,1,0
12,258,197627,6,0,B|50:325|122:308,1,115,2|0
212,160,198107,2,0,B|289:147|319:214,1,115,2|0
357,21,198587,1,0
312,199,198827,2,2,B|320:277|392:290,1,115
191,282,199307,1,0
374,286,199547,6,0,B|344:367|256:354,1,115,2|0
227,182,200027,2,0,B|256:100|344:113,1,115,2|0
447,235,200507,1,0
309,113,200747,2,2,B|281:30|192:41,1,115
80,151,201227,1,0
8,320,201467,6,0,B|62:389|129:345,1,115,2|0
250,241,201947,1,2
200,64,202187,5,0
200,64,202307,1,0
200,64,202427,1,2
384,40,202667,5,0
384,40,202787,1,0
384,40,202907,1,2
320,208,203147,5,0
320,208,203267,1,0
320,208,203387,1,2
256,352,203627,5,0
256,352,203747,1,0
256,352,203867,1,6
448,272,204107,1,0
256,192,204347,1,2
256,32,204587,5,0
256,32,204707,1,0
256,32,204827,1,2
64,112,205067,1,0
256,192,205307,1,2
448,272,205547,5,0
448,272,205667,1,0
448,272,205787,1,2
256,352,206027,1,0
64,272,206267,1,2
256,192,206507,5,0
256,192,206627,1,0
256,192,206747,1,2
448,112,206987,1,0
256,32,207227,1,2
64,112,207467,5,0
256,192,207707,1,6
256,192,207947,1,0
448,272,208187,1,2
448,112,208427,5,0
448,112,208547,1,0
448,112,208667,1,2
256,192,208907,1,0
64,272,209147,1,2
64,112,209387,5,0
64,112,209507,1,0
64,112,209627,1,2
256,192,209867,1,0
448,272,210107,1,2
256,56,210347,5,0
256,64,210467,1,0
256,72,210587,1,2
256,80,210707,1,0
256,88,210827,1,0
256,96,210947,1,0
256,104,211067,1,2
256,112,211187,1,0
256,120,211307,1,0
256,128,211427,1,0
256,136,211547,5,2
384,328,211787,2,0,B|264:328,1,115,0|2
488,264,212267,2,0,B|368:264,1,115,0|2
256,64,212747,5,0
256,72,212867,1,0
256,80,212987,1,2
200,304,213227,2,0,B|336:304,1,115,0|2
96,240,213707,2,0,B|216:240,1,115,0|2
136,176,214187,2,0,B|16:176,1,115,0|2
256,368,214667,5,0
256,320,214787,1,0
256,264,214907,1,2
280,32,215147,2,0,B|144:32,1,115,0|2
264,96,215627,2,0,B|384:96,1,115,0|2
456,160,216107,2,0,B|336:160,1,115,0|2
120,224,216587,5,0
176,224,216707,1,0
232,224,216827,1,2
464,224,217067,1,0
232,224,217307,1,2
440,328,217547,5,0
432,328,217667,1,0
424,328,217787,1,2
288,144,218027,5,0
296,144,218147,1,0
304,144,218267,1,2
88,64,218507,5,0
88,56,218627,1,0
88,48,218747,1,2
104,280,218987,5,0
128,304,219107,1,0
152,328,219227,1,10
