osu file format v7

[General]
AudioFilename: Wherever You Are.mp3
AudioLeadIn: 0
PreviewTime: 28126
Countdown: 0
SampleSet: Normal
StackLeniency: 0.7
Mode: 0
LetterboxInBreaks: 0

[Editor]
DistanceSpacing: 1
BeatDivisor: 4
GridSize: 8

[Metadata]
Title:Wherever You Are
Artist:Laava
Creator:Leorda
Version:Light
Source:Dance Dance Revolution UltraMix 2
Tags:DDR konami crimmiskye wmfchris orioncomet

[Difficulty]
HPDrainRate:2
CircleSize:3
OverallDifficulty:2
SliderMultiplier:1.4
SliderTickRate:1

[Events]
//Background and Video events
0,0,"[AnimePaper]wallpapers_Tsubasa-Resevoir-Chronicle_SakuraSweetie_207235.jpg"
//Break Periods
//Storyboard Layer 0 (Background)
//Storyboard Layer 1 (Fail)
//Storyboard Layer 2 (Pass)
//Storyboard Layer 3 (Foreground)
//Storyboard Sound Samples
//Background Colour Transformations
3,100,255,128,255

[TimingPoints]
330,434.782608695652,4,1,0,75,1,0
57721,-100,4,1,0,75,0,1
85547,-100,4,1,0,75,0,0

[Colours]
Combo1 : 255,255,0
Combo2 : 255,128,255
Combo3 : 128,255,255
Combo4 : 194,133,133
Combo5 : 255,0,128

[HitObjects]
40,56,28156,2,0,B|256:56|256:368|256:368,1,420,4|8
256,365,29895,6,0,B|256:368|256:56|480:56,1,420,4|8
471,196,31634,5,4
330,196,32069,1,8
190,196,32503,1,0
49,196,32938,1,8
128,80,33373,1,4
337,80,34025,6,2,B|376:80|376:80|336:96|336:96|376:96|376:96|336:112|336:112|376:112|376:112|336:128|336:128|376:128|376:128,1,280,0|4
90,128,35764,6,2,B|-32:232|112:320|112:320,1,210
232,304,36851,1,0
441,305,37503,2,0,B|496:240|440:160|440:160,2,140
292,156,39025,2,0,B|156:252|24:149,1,280
256,192,40112,12,4,42069
40,48,42938,5,0
139,147,43373,1,8
238,47,43808,2,0,B|344:160|344:160,1,140,0|8
473,149,44677,5,0
473,149,44895,1,0
473,149,45112,1,8
472,288,45547,2,0,B|271:375|47:279|47:279,1,420,2|8
62,145,47286,1,0
272,152,47938,6,2,B|354:32|380:158|384:320|473:135|473:135,1,280
160,320,49895,6,0,B|104:248|168:176|168:176,1,140,0|8
298,189,50764,1,0
298,189,51199,1,0
438,189,51634,6,0,B|494:117|430:45|430:45,1,140,0|8
299,58,52503,1,0
158,58,52938,1,8
158,198,53373,1,0
298,198,53808,1,8
256,192,54025,12,0,55982
192,304,57721,6,0,B|256:376|328:296|328:296,1,140,4|8
224,200,58590,2,0,B|256:232|296:192|296:192,2,70,0|0|8
83,200,59460,1,0
83,59,59895,1,8
223,59,60330,5,0
223,59,60547,1,0
223,59,60764,1,8
363,59,61199,2,0,B|448:72|448:248|448:248,2,210
363,199,62938,1,0
222,199,63373,1,0
222,199,63590,6,0,B|144:200|144:200,4,70
8,200,65112,5,8
110,298,65547,1,0
250,298,65982,2,0,B|368:200|368:200,1,140,8|0
497,208,66851,1,8
432,80,67286,6,0,B|272:80|272:80,1,140,0|8
240,208,68156,1,0
184,80,68590,1,8
128,208,69025,1,0
72,80,69460,1,8
256,192,69677,12,0,71634
256,112,72503,5,0
136,184,72938,1,8
257,253,73373,2,0,B|257:93|257:93,1,140
397,113,74243,5,0
397,252,74677,1,8
256,252,75112,2,0,B|256:96|256:96,1,140
136,40,75982,1,0
37,138,76416,1,8
136,237,76851,1,0
345,237,77503,6,0,B|345:241|480:48|224:96,1,280,8|0
21,94,79025,6,0,B|21:238|21:238,1,140,8|0
161,234,79895,2,0,B|161:149|161:149,2,70,8|0|0
301,234,80764,1,8
301,234,81199,1,0
441,234,81634,2,0,B|441:320|441:320,2,70,8|0|0
441,93,82503,1,8
300,93,82938,5,0
159,93,83373,1,8
256,192,83590,12,4,85547
280,192,87069,6,0,B|312:320|440:320|480:184|480:184,4,280,0|4|0|4|0
56,192,91634,5,0
56,51,92069,1,0
176,120,92503,2,0,B|176:192|176:192,2,70
296,192,93373,1,0
416,128,93808,1,0
416,268,94243,5,4
276,268,94677,1,0
135,268,95112,1,0
135,127,95547,1,0
256,192,96634,5,0
256,192,97069,1,0
256,192,97503,2,0,B|256:240|224:248|208:232|184:208|184:176|192:144|208:104|256:104|304:112|336:128|368:160|376:208|352:272|328:344|208:368|160:320|144:256|120:208|128:160,1,630,0|4
