osu file format v7

[General]
AudioFilename: La_Roux_-_Saviour.mp3
AudioLeadIn: 1511
PreviewTime: 113393
Countdown: 1
SampleSet: Soft
StackLeniency: 0.7
Mode: 0
LetterboxInBreaks: 0

[Editor]
Bookmarks: 97857
DistanceSpacing: 1
BeatDivisor: 4
GridSize: 8

[Metadata]
Title:Saviour
Artist:La Roux
Creator:Larto
Version:Saviour!?
Source:
Tags:JarJarJacob infected skis

[Difficulty]
HPDrainRate:2
CircleSize:4
OverallDifficulty:6
SliderMultiplier:2
SliderTickRate:2

[Events]
//Background and Video events
0,0,"La+Roux+Deirdre+OCallaghan.jpg"
//Break Periods
2,111236,113414
2,138878,141272
2,196950,199129
2,251807,254200
//Storyboard Layer 0 (Background)
//Storyboard Layer 1 (Fail)
//Storyboard Layer 2 (Pass)
//Storyboard Layer 3 (Foreground)
Sprite,Foreground,Centre,"SB\You.png",460,240 S,0,155607,,1.5 F,0,155607,155714,0,1 MY,0,155607,156464,370,330 F,0,155714,156464,1,0
Sprite,Foreground,Centre,"SB\ICantExplain.png",320,340 F,0,142107,142322,0,1 MX,0,142107,147893,300,450 F,0,147464,147893,1,0
Sprite,Foreground,Centre,"SB\I.png",320,340 F,0,142322,142857,1,0 S,0,142322,143179,0.5,1.5 MX,0,142322,143179,188,230
Sprite,Foreground,Centre,"SB\TheDarkExpression.png",320,390 F,0,143607,144036,0,1 F,0,147464,147886,1,0 MX,0,143607,147893,460,260
Sprite,Foreground,Centre,"SB\OnMyFace.png",320,240 F,0,146179,146607,0,1 MY,0,146179,147893,290,200 F,0,147464,147893,1,0
Sprite,Foreground,Centre,"SB\ToThePeople.png",320,240 F,0,147893,148322,0,1 MY,0,147893,153893,200,440 F,0,153464,153893,1,0
Sprite,Foreground,Centre,"SB\ThatImSurroundedBy.png",330,240 F,0,150464,150893,0,1 MY,0,150464,153893,350,400 F,0,153464,153893,1,0.1295999
Sprite,Foreground,Centre,"SB\ButYouUnderstandMe.png",270,240 F,0,156464,156893,0,1 MY,0,156464,161607,100,290 F,0,161179,161607,1,0
Sprite,Foreground,Centre,"SB\More.png",520,240 F,0,159464,159572,0,1 MY,0,159464,160107,160,230 F,0,160000,160107,1,0
Sprite,Foreground,Centre,"SB\Than.png",520,240 F,0,159893,160000,0,1 MY,0,159893,160750,180,250 F,0,160643,160750,1,0
Sprite,Foreground,Centre,"SB\More.png",520,240 MY,0,159893,160322,200,240 F,0,160107,160322,0.5,0 V,0,160107,160322,1.01024,1,1,1.3
Sprite,Foreground,Centre,"SB\Than.png",520,240 MY,0,160536,160964,220,260 F,0,160750,160964,0.5,0 V,0,160750,160964,1,1,1,1.3
Sprite,Foreground,Centre,"SB\Most.png",520,240 F,0,160750,160857,0,1 MY,0,160750,161607,255,285 F,0,161179,161607,1,0
Sprite,Foreground,Centre,"SB\AndYou.png",320,240 F,0,161179,161607,0,1 MY,0,161179,163322,270,160 F,0,162893,163322,1,0
Sprite,Foreground,Centre,"SB\Let.png",200,240 F,0,164607,165036,0,1 MY,0,164607,167607,160,330 F,0,167179,167607,1,0
Sprite,Foreground,Centre,"SB\Me.png",320,240 F,0,165036,165464,0,1 S,0,165893,,1.3 F,0,165464,167179,1 MY,0,165036,167607,340,150 F,0,167179,167607,1,0
Sprite,Foreground,Centre,"SB\Try.png",480,240 F,0,165464,165893,0,1 S,0,166322,,1.5 MY,0,165464,167607,130,300 F,0,167179,167607,1,0
Sprite,Foreground,Centre,"SB\Strobe.jpg",320,240 L,169214,16 F,0,0,1393,1,0 S,0,0,1716,1.29,1.7
Sprite,Foreground,Centre,"SB\flash.png",320,240 L,169750,18 MY,0,0,100,600,278 F,0,0,300,0.6,0 MY,0,0,1714,278 F,0,1714,,0 F,0,0,,0 C,0,0,,255,0,0
Sprite,Foreground,Centre,"SB\flash.png",420,240 L,170179,18 MY,0,0,100,600,328 F,0,0,300,0.6,0 MY,0,0,1714,328 F,0,1714,,0 F,0,0,,0 S,0,0,,0.75 C,0,0,,0,255,0
Sprite,Foreground,Centre,"SB\flash.png",220,240 L,170393,18 MY,0,0,100,600,328 F,0,0,300,0.6,0 MY,0,0,1714,328 F,0,1714,,0 F,0,0,,0 S,0,0,,0.75 C,0,0,,0,0,255
Sprite,Foreground,Centre,"SB\In.png",505,120 L,169750,9 F,0,0,20,0,1 F,0,20,200,1,0 F,0,3429,,0
Sprite,Foreground,Centre,"SB\Fact.png",505,170 L,170179,9 F,0,0,20,0,1 F,0,20,200,1,0 F,0,3429,,0
Sprite,Foreground,Centre,"SB\Its.png",505,220 L,170607,9 F,0,0,20,0,1 F,0,20,200,1,0 F,0,3429,,0
Sprite,Foreground,Centre,"SB\Easy.png",505,270 L,171036,9 F,0,0,20,0,1 F,0,20,200,1,0 F,0,400,420,0,1 F,0,420,600,1,0 F,0,3429,,0
Sprite,Foreground,Centre,"SB\Now.png",505,320 L,171679,9 F,0,0,20,0,1 F,0,20,200,1,0 F,0,3429,,0
Sprite,Foreground,Centre,"SB\line.png",320,240 L,169750,9 F,0,0,200,1,0 MY,0,0,200,120 F,0,429,629,1,0 MY,0,429,629,170 F,0,858,1058,1,0 MY,0,858,1058,220 F,0,1287,1887,1,0 MY,0,1287,1900,270 F,0,1930,2130,1,0 MY,0,1930,2130,320 F,0,3432,,0 F,0,0,,0 S,0,0,,2 R,0,0,,1.555
Sprite,Foreground,Centre,"SB\IAmNoLonger.png",320,240 F,0,181750,182179,0,1 MY,0,181750,185607,140,420 F,0,185179,185607,1,0
Sprite,Foreground,Centre,"SB\DreadingYou.png",320,380 F,0,184322,184750,0,1 MX,0,184322,185607,360,520 F,0,185179,185607,1,0
Sprite,Foreground,Centre,"SB\Muttering.png",190,240 F,0,185822,186250,0,1 MY,0,185822,188179,190,370 F,0,187750,188179,1,0
Sprite,Foreground,Centre,"SB\TheseWords.png",320,390 F,0,188607,189036,0,1 MX,0,188607,192464,320,520 F,0,192036,192464,1,0
Sprite,Foreground,Centre,"SB\InMyEar.png",320,390 F,0,192250,192679,0,1 MX,0,192250,196750,480,160 F,0,196322,196750,1,0
Sprite,Foreground,Centre,"SB\InMyEar.png",170,240 F,0,198893,199322,0,1 MY,0,198893,206607,80,380 F,0,206179,206607,1,0
Sprite,Foreground,Centre,"SB\InMyEar.png",170,240 L,200179,4 F,0,0,500,1,0 S,0,0,500,1,1.5 F,0,1715,,0 F,0,0,,0 MY,0,198893,206607,80,380
Sprite,Foreground,Centre,"SB\FinallyMySaviourIsHere.png",320,240 F,0,206393,206822,0,1 MX,0,206393,211750,230,410 F,0,211322,211750,1,0
Sprite,Foreground,Centre,"SB\InMyEar.png",470,240 F,0,212179,212607,0,1 MY,0,212179,219893,80,380 F,0,219464,219893,1,0
Sprite,Foreground,Centre,"SB\InMyEar.png",470,240 L,213893,4 F,0,0,500,1,0 S,0,0,500,1,1.5 F,0,1715,,0 F,0,0,,0 MY,0,212179,219893,80,380
Sprite,Foreground,Centre,"SB\FinallyMySaviourIsHere.png",320,240 F,0,219679,220107,0,1 MX,0,219679,225893,410,230 F,0,225464,225893,1,0
Sprite,Foreground,Centre,"SB\InMyEar.png",320,420 F,0,226750,227179,0,1 MX,0,226750,233607,170,470 F,0,233179,233607,1,0
Sprite,Foreground,Centre,"SB\InMyEar.png",320,420 L,227607,4 F,0,0,500,1,0 S,0,0,500,1,1.5 F,0,1715,,0 F,0,0,,0 MX,0,226750,233607,170,470
Sprite,Foreground,Centre,"SB\FinallyMySaviourIsHere.png",320,240 F,0,233607,234036,0,1 MY,0,233607,238750,340,140 F,0,238322,238750,1,0
Sprite,Foreground,Centre,"SB\InMyEar.png",320,90 F,0,239607,240036,0,1 MX,0,239607,246464,470,170 F,0,246036,246464,1,0
Sprite,Foreground,Centre,"SB\FinallyMySaviourIsHere.png",320,240 F,0,247322,247750,0,1 MY,0,247322,252893,140,340 F,0,252464,252893,1,0
Sprite,Foreground,Centre,"SB\Strobe.jpg",320,240 L,255250,2 F,0,0,1714,1,0 S,0,0,1714,1.29,1.5
Sprite,Foreground,Centre,"SB\flash.png",100,240 L,255250,7 MY,0,0,107,621,278 F,0,0,429,1,0 MY,0,429,,278 F,0,0,,0 C,0,0,,255,0,0 S,0,255250,258464,1,0.5 MY,0,255250,258464,278,388
Sprite,Foreground,Centre,"SB\flash.png",540,240 L,255464,7 MY,0,0,107,621,278 F,0,0,429,1,0 MY,0,429,,278 F,0,0,,0 C,0,0,,0,0,255 S,0,255250,258464,1,0.5 MY,0,255250,258464,278,388
Sprite,Foreground,Centre,"SB\InMyEar.png",220,320 F,1,464,1322,0,1 MY,0,464,7750,370,320 F,0,7322,7750,1,0
Sprite,Foreground,Centre,"SB\InMyEar.png",220,320 L,1322,4 F,0,0,500,1,0 S,0,0,500,1,1.5 F,0,1715,,0 F,0,0,,0 MY,0,464,7750,370,320
Sprite,Foreground,Centre,"SB\FinallyMySaviourIsHere.png",320,370 F,0,7750,8179,0,1 MX,0,7750,13750,320,370 F,0,13322,13750,1,0
Sprite,Foreground,Centre,"SB\InMyEar.png",420,370 F,0,13750,14179,0,1 MY,0,13750,21464,370,320 F,0,21036,21464,1,0
Sprite,Foreground,Centre,"SB\InMyEar.png",420,370 L,15036,4 F,0,0,500,1,0 S,0,0,500,1,1.5 F,0,1715,,0 F,0,0,,0 MY,0,13750,21464,370,320
Sprite,Foreground,Centre,"SB\FinallyMySaviourIsHere.png",320,370 F,0,21464,21893,0,1 MX,0,21464,26607,370,320 F,0,26179,26607,1,0
Sprite,Foreground,Centre,"SB\In.png",135,120 L,87464,8 F,0,0,20,0,1 F,0,20,200,1,0 F,0,3429,,0
Sprite,Foreground,Centre,"SB\Fact.png",135,170 L,87893,8 F,0,0,20,0,1 F,0,20,200,1,0 F,0,3429,,0
Sprite,Foreground,Centre,"SB\Its.png",135,220 L,88322,8 F,0,0,20,0,1 F,0,20,200,1,0 F,0,3429,,0
Sprite,Foreground,Centre,"SB\Easy.png",135,270 L,88750,8 F,0,0,20,0,1 F,0,20,200,1,0 F,0,400,420,0,1 F,0,420,600,1,0 F,0,3429,,0
Sprite,Foreground,Centre,"SB\Now.png",135,320 L,89393,8 F,0,0,20,0,1 F,0,20,200,1,0 F,0,3429,,0
Sprite,Foreground,Centre,"SB\line.png",320,240 L,87464,8 F,0,0,200,1,0 MY,0,0,200,120 F,0,429,629,1,0 MY,0,429,629,170 F,0,858,1058,1,0 MY,0,858,1058,220 F,0,1287,1887,1,0 MY,0,1287,1900,270 F,0,1930,2130,1,0 MY,0,1930,2130,320 F,0,3432,,0 F,0,0,,0 S,0,0,,2 R,0,0,,1.555
Sprite,Foreground,Centre,"SB\IHearYouCallMe.png",320,190 F,0,28750,29179,0,1 MX,0,28750,34750,300,450 F,0,34322,34750,1,0
Sprite,Foreground,Centre,"SB\FromThe.png",320,240 F,0,30893,31322,0,1 MX,0,30893,34750,390,270 F,0,34322,34750,1,0
Sprite,Foreground,Centre,"SB\OtherRoom.png",320,300 F,0,32607,33036,0,1 MX,0,32607,34750,300,400 F,0,34322,34750,1,0
Sprite,Foreground,Centre,"SB\YouSayMyName.png",240,240 F,0,35393,35822,0,1 F,0,35822,37322,1 F,0,37322,37750,1,0 F,0,37750,,0 MY,0,35393,42464,340,100
Sprite,Foreground,Centre,"SB\AsIfYouKnow.png",250,240 F,0,37322,37750,0,1 MY,0,37322,42464,280,410 F,0,42036,42464,1,0
Sprite,Foreground,Centre,"SB\WhatYoureAbout.png",380,240 F,0,39036,39464,0,1 MY,0,39036,42464,270,360 F,0,42036,42464,1,0
Sprite,Foreground,Centre,"SB\ToDo.png",530,240 F,0,40750,41179,0,1 MY,0,40750,42464,270,310 F,0,42036,42464,1,0
Sprite,Foreground,Centre,"SB\YouSayYoureTired.png",320,180 F,0,42464,42893,0,1 MX,0,42464,48464,190,370 F,0,48036,48464,1,0
Sprite,Foreground,Centre,"SB\AndYouMustBe.png",320,240 F,0,44179,44607,0,1 MX,0,44179,48464,410,240 F,0,48036,48464,1,0
Sprite,Foreground,Centre,"SB\LeavingSoon.png",320,300 F,0,46107,46536,0,1 MX,0,46107,48464,250,350 F,0,48036,48464,1,0
Sprite,Foreground,Centre,"SB\WhenWillWeEver.png",240,240 F,0,49750,50179,0,1 MY,0,49750,56179,120,380 F,0,55750,56179,1,0
Sprite,Foreground,Centre,"SB\SeeThisThrough.png",350,240 F,0,52964,53364,0,1 MY,0,52964,56179,290,430 F,0,55879,56179,1,0
Sprite,Foreground,Centre,"SB\flash.png",100,240 L,56179,90 MY,0,0,107,621,278 F,0,0,643,0.5,0 MY,0,643,,278 F,0,0,,0 C,0,0,,255,0,0
Sprite,Foreground,Centre,"SB\flash.png",200,240 L,56393,90 MY,0,0,107,621,328 F,0,0,643,0.5,0 MY,0,643,,328 F,0,0,,0 S,0,0,,0.75 C,0,0,,0,255,0
Sprite,Foreground,Centre,"SB\flash.png",300,240 L,56607,90 MY,0,0,107,621,380 F,0,0,643,0.5,0 MY,0,643,,380 F,0,0,,0 S,0,0,,0.5 C,0,0,,0,0,255
Sprite,Foreground,Centre,"SB\flash.png",540,240 L,56179,90 MY,0,0,107,621,278 F,0,0,643,0.5,0 MY,0,643,,278 F,0,0,,0 C,0,0,,255,0,0
Sprite,Foreground,Centre,"SB\flash.png",440,240 L,56393,90 MY,0,0,107,621,328 F,0,0,643,0.5,0 MY,0,643,,328 F,0,0,,0 S,0,0,,0.75 C,0,0,,0,255,0
Sprite,Foreground,Centre,"SB\flash.png",340,240 L,56607,90 MY,0,0,107,621,380 F,0,0,643,0.5,0 MY,0,643,,380 F,0,0,,0 S,0,0,,0.5 C,0,0,,0,0,255
Sprite,Foreground,Centre,"SB\AndIContinueTo.png",200,240 F,0,57036,57336,0,1 MY,0,57036,63893,100,370 F,0,63464,63893,1,0
Sprite,Foreground,Centre,"SB\DrownMySorrows.png",330,240 F,0,59179,59607,0,1 MY,0,59179,63893,230,420 F,0,63464,63893,1,0
Sprite,Foreground,Centre,"SB\AfterYoureGone.png",320,240 F,0,64322,64750,0.06815995,1 M,0,64322,66893,320,397,477,395 F,0,66464,66893,1,0.1039999
Sprite,Foreground,Centre,"SB\AndLookAroundFor.png",320,240 F,0,70322,70750,0,1 M,0,70322,76750,429,183,180,183 F,0,76322,76750,1,0
Sprite,Foreground,Centre,"SB\Somebody.png",320,240 F,0,72893,73322,0,1 M,0,72893,76750,189,238,410,238 F,0,76322,76750,1,0
Sprite,Foreground,Centre,"SB\Else.png",320,240 F,0,75036,75464,0,1 M,0,75036,76750,412,284,286,284 F,0,76322,76750,1,0
Sprite,Foreground,Centre,"SB\To.png",320,240 F,0,75893,76322,0,1 M,0,75893,76750,271,328,340,327 F,0,76322,76750,1,0
Sprite,Foreground,Centre,"SB\Hang.png",320,240 M,0,77607,78036,80,170,140,170 F,0,77607,78036,0,1 M,0,78089,78250,120,260,140,260 M,0,78304,78464,100,380,120,380 M,0,78518,81036,80,430,305,427 F,0,80607,81036,1,0
Sprite,Foreground,Centre,"SB\MyHopesOn.png",320,430 F,0,78893,79322,0,1 MX,0,78893,81036,270,460 F,0,80607,81036,1,0
Sprite,Foreground,Centre,"SB\InFactItsEasyNow.png",320,240 F,0,85322,85750,0,1 MY,0,85322,90464,100,290 F,0,90036,90464,1,0
Sprite,Foreground,Centre,"SB\That.png",320,240 F,0,89607,90036,0,1 MY,0,89607,91322,300,360 F,0,90893,91322,1,0
Sprite,Foreground,Centre,"SB\YoureNotHere.png",320,90 F,0,92607,93036,0,1 MX,0,92607,96464,480,180 F,0,96036,96464,1,0
Sprite,Foreground,Centre,"SB\IAmNoLonger.png",320,240 F,0,96036,96464,0,1 M,0,96036,99893,250,151,456,151 F,0,99464,99893,1,0
Sprite,Foreground,Centre,"SB\DreadingYou.png",320,240 F,0,98179,98607,0,1 M,0,98179,99893,413,214,323,214 F,0,99464,99893,1,0
Sprite,Foreground,Centre,"SB\Muttering.png",320,240 F,0,100107,100536,0,1 M,0,100107,102464,387,242,186,241 F,0,102036,102464,1,0
Sprite,Foreground,Centre,"SB\Hang.png",320,240 M,0,78036,,139,170 F,0,78036,,1 F,0,78036,78197,1,0 M,0,78250,,141,259 F,0,78250,78411,1,0 M,0,78464,,121,380 F,0,78464,78625,1,0
Sprite,Foreground,Centre,"SB\TheseWords.png",320,240 F,0,102893,103322,0.04255997,1 F,0,103322,105464,1 MY,0,102893,105893,350,100 F,0,105464,105893,1,0
Sprite,Foreground,Centre,"SB\InMyEar.png",320,240 F,0,105893,106322,0,1 MY,0,105893,111036,110,400 F,0,110607,111036,1,0 F,0,113179,113607,0,1 MX,0,113179,120893,240,450 F,0,120464,120893,1,0
Sprite,Foreground,Centre,"SB\InMyEar.png",320,400 L,114464,4 F,0,0,500,1,0 S,0,0,500,1,1.5 F,0,1715,,0 F,0,0,,0 MX,0,113179,120893,240,450
Sprite,Foreground,Centre,"SB\FinallyMySaviourIsHere.png",260,240 F,0,120679,121107,0,1 MY,0,120679,125607,180,290 F,0,125179,125607,1,0
Sprite,Foreground,Centre,"SB\InMyEar.png",320,390 F,0,126893,127322,0,1 MX,0,126893,133322,440,240 F,0,132893,133322,1,0
Sprite,Foreground,Centre,"SB\InMyEar.png",320,390 L,128179,4 F,0,0,500,1,0 S,0,0,500,1,1.5 F,0,1715,,0 F,0,0,,0 MX,0,126893,133322,440,240
Sprite,Foreground,Centre,"SB\FinallyMySaviourIsHere.png",420,240 F,0,134393,134822,0,1 MY,0,134393,139322,350,160 F,0,138893,139322,1,0
Sprite,Foreground,CentreRight,"sb\TriggerFinish.png",640,240 T,HitSoundFinish,0,270000 C,0,0,,255,0,0 F,0,0,40,0,0.5 F,0,40,150,0.5,0 P,0,0,280,H
Sprite,Foreground,CentreRight,"sb\TriggerFinish.png",320,240 T,HitSoundFinish,0,270000 C,0,0,,255,0,0 F,0,0,40,0,0.5 F,0,40,150,0.5,0
//Storyboard Sound Samples
//Background Colour Transformations
3,100,163,162,255

[TimingPoints]
1322,428.571428571429,4,2,0,80,1,0
114464,-100,4,2,0,80,0,1
141893,-100,4,2,0,80,0,0
200179,-100,4,2,0,80,0,1
255036,-100,4,2,0,80,0,0

[HitObjects]
144,48,1322,6,0,B|32:48,2,100,4|0|2
208,104,1964,2,0,B|320:104,2,100,8|0|2
144,168,2607,1,0
312,280,3036,5,4
400,280,3250,1,0
456,208,3464,1,2
400,136,3679,1,4
312,136,3893,1,2
272,208,4107,1,2
360,208,4322,1,0
200,320,4750,6,0,B|112:256|96:128|224:48,1,300,4|8
224,144,5607,1,2
224,232,5822,1,2
296,192,6036,1,0
328,88,6464,6,0,B|248:24,1,100,4|0
176,80,6893,1,2
96,144,7107,1,8
32,208,7322,2,0,B|104:280,1,100,2|2
176,344,7750,5,0
176,344,7964,1,2
176,344,8179,2,0,B|304:296|296:160,1,200,6|0
392,200,8822,2,0,B|192:200,1,200,10|0
96,200,9464,1,0
96,200,9893,6,0,B|40:112|120:24|176:16,1,200,6|0
240,32,10536,2,0,B|263:27|343:115|287:203,1,200,10|0
192,128,11179,1,2
192,128,11393,1,0
192,128,11607,2,0,B|416:128,1,200,4|2
496,128,12250,2,0,B|528:192|488:232,2,100,8|2|2
440,56,12893,1,2
384,200,13322,6,0,B|320:112,1,100,4|0
264,64,13750,2,0,B|176:128,1,100,2|8
128,184,14179,2,0,B|192:272,1,100,2|2
248,320,14607,2,0,B|336:256,1,100
384,200,15036,6,0,B|400:144|320:56|248:64,1,200,4|2
176,48,15679,1,8
104,80,15893,2,0,B|4:118,1,100,2|2
32,200,16322,1,0
24,336,16751,6,0,B|136:336,1,100,4|0
208,280,17179,2,0,B|312:280,1,100,2|8
384,336,17608,2,0,B|496:336,2,100,2|2|0
366,108,18465,6,0,B|360:40|256:-16|152:40|144:112,1,300,4|8
256,112,19322,1,2
256,112,19536,1,2
256,112,19750,1,4
40,312,20179,6,0,B|168:312,1,100,4|0
216,272,20607,1,2
296,344,20822,1,8
372,312,21036,2,0,B|472:312,2,100,2|2|4
408,216,21679,5,2
408,216,21893,2,0,B|440:128|304:64|256:128,1,200,4|0
192,144,22536,2,0,B|128:176|40:104|80:24,1,200,2|0
72,240,23393,2,2,B|144:312|256:232|256:232|352:160|440:240,2,400
112,120,25750,6,0,B|224:48,1,100,2|8
312,64,26179,2,0,B|396:118,1,100,2|2
472,176,26607,5,4
472,264,26822,1,0
384,256,27036,2,0,B|424:360,2,100,0|2|2
360,176,27679,2,0,B|232:176,1,100,0|2
160,176,28107,1,2
160,176,28322,1,8
160,176,28536,1,0
160,176,28750,5,4
24,296,29179,2,2,B|64:360|176:352|216:312,1,200
280,264,29822,1,0
336,192,30036,1,4
376,112,30250,2,0,B|480:112|480:112|480:232,2,200,2|2|2
288,112,31322,2,2,B|200:168|112:128|80:64,1,200
72,16,31964,1,0
160,16,32179,2,2,B|264:96|56:224|208:304,1,300
272,296,33036,2,0,B|392:296,1,100,2|0
272,296,33464,1,2
96,344,33893,6,0,B|16:320|-48:136|120:80,1,300,4|2
320,40,34964,1,0
368,112,35179,1,8
424,184,35393,1,0
472,256,35607,1,4
320,336,36036,5,0
232,352,36250,2,0,B|160:336|144:240,2,150,2|0|2
48,312,37322,2,0,B|160:288|176:152,1,200,4|2
136,64,37964,2,2,B|208:24|320:88|288:168,1,200,2|2
296,224,38607,2,0,B|416:224,1,100,8|0
296,224,39036,2,0,B|224:328|112:280,3,200,4|2|0|2
48,240,40536,2,2,B|160:40,1,200,2|0
72,16,41179,1,2
72,16,41393,2,0,B|280:152,1,200,2|0
312,176,42036,1,8
392,224,42250,1,0
464,272,42464,1,4
200,336,43107,5,0
112,304,43322,1,2
48,240,43536,1,0
16,64,43964,2,2,B|56:8|208:16|192:120,1,200
216,160,44607,1,4
240,248,44822,1,0
152,248,45036,2,0,B|230:283|322:205|329:154,1,200,0|2
296,104,45679,1,0
248,32,45893,1,4
208,344,46536,6,0,B|128:368|48:288|104:184,2,200,2|2|2
184,256,47607,2,0,B|352:104,1,200,4|0
400,64,48250,2,0,B|456:112|440:224|336:224,1,200,2|0
272,184,48893,2,0,B|168:80,1,100,8|0
144,48,49322,1,4
64,32,49536,1,0
456,280,50179,6,0,B|400:344|296:320|248:256,1,200,2|2
341,228,50822,1,0
384,128,51036,1,2
320,40,51250,2,2,B|224:-40|56:-48|-104:240|240:432|360:200,1,700,2|6
216,184,53393,6,0,B|136:272|-8:248,2,200,2|2|2
272,120,54464,2,0,B|488:120,1,200,4|0
408,48,55107,2,0,B|408:288,1,200,2|0
408,336,55750,1,8
320,344,55964,1,0
232,328,56179,6,0,B|184:352|96:336,2,100,2|0|2
280,248,56822,2,0,B|328:272|416:256,2,100,0|2|0
208,192,57464,2,0,B|176:112|248:64,1,100,2|0
304,112,57893,2,0,B|192:120|88:40,1,200,4|0
32,40,58536,2,0,B|72:144|40:240,1,200,2|0
8,328,59179,1,2
96,344,59393,1,0
184,344,59607,6,2,B|328:280|256:192|256:192|184:96|352:8,1,400
384,88,60679,1,0
448,152,60893,2,0,B|504:256|416:352,1,200,2|4
344,360,61536,1,0
256,368,61750,2,0,B|176:296,1,100,2|0
168,216,62179,2,0,B|88:128,1,100,0|2
48,72,62607,2,0,B|152:0,2,100,2|0|4
24,160,63250,5,0
24,248,63464,2,0,B|136:248,1,100,0|2
208,240,63893,2,0,B|232:296|200:360,2,100,0|0|2
184,152,64536,2,0,B|160:96|192:32,2,100,0|2|0
256,96,65179,1,2
256,96,65393,2,2,B|328:184|272:288,1,200
200,336,66036,1,8
112,336,66250,1,0
48,272,66464,6,0,B|-24:184,1,100,4|0
24,120,66893,2,0,B|87:42,2,100,2|0|0
112,136,67536,2,0,B|175:213,2,100,2|0|0
200,120,68179,2,0,B|263:42,2,100,2|0|0
288,136,68822,2,0,B|351:213,2,100,2|0|0
376,128,69464,1,8
376,128,69679,1,0
448,176,69893,6,0,B|528:272|440:384,1,200,4|2
368,360,70536,2,0,B|288:264|376:152,1,200,0|2
408,264,71179,1,8
64,176,71607,6,0,B|-16:272|72:384,1,200,4|2
144,360,72250,2,0,B|224:264|136:152,1,200,0|2
104,264,72893,1,8
128,48,73322,6,2,B|184:-16|344:-24|408:56,2,300
264,88,74822,1,0
400,120,75036,2,2,B|344:184|184:192|120:112,2,300
352,344,76750,6,0,B|248:344,1,100,2|0
160,272,77179,2,0,B|264:272,1,100,0|2
352,200,77607,2,0,B|248:200,1,100,2|0
160,128,78036,2,0,B|264:128,1,100,2|0
352,120,78464,6,0,B|376:64|336:0,2,100,0|2|0
432,152,79107,2,0,B|408:208|448:272,2,100,0|2|0
496,200,79750,1,8
256,336,80179,1,4
168,176,80607,5,2
168,88,80822,1,0
208,8,81036,1,0
304,8,81250,1,2
344,88,81464,1,8
344,176,81679,1,2
256,208,81893,12,12,83179
256,72,83607,5,2
256,312,84036,1,2
256,152,84464,1,2
256,232,84679,1,2
88,208,85322,5,4
88,208,85536,1,0
88,208,85750,2,2,B|16:208|-32:104|32:40,2,200
256,32,87036,2,2,B|364:32|364:113|364:113|364:192|256:192|256:192|152:194|149:273|149:273|149:354|260:353,1,600
328,288,88536,1,0
328,288,88750,2,2,B|384:240|312:152|168:224|96:144|192:72,2,300
256,352,90250,1,0
184,288,90464,2,0,B|128:240|200:152|344:224|416:144|320:72,2,300,2|2|2
256,352,91964,1,0
256,352,92179,2,0,B|256:32,2,300,2|2|2
168,328,93679,5,0
104,272,93893,2,2,B|48:168|128:56,1,200,2|2
184,16,94536,1,0
256,72,94750,2,0,B|256:184,1,100,2|0
256,264,95179,1,2
344,328,95393,1,0
408,272,95607,2,2,B|464:168|384:56,1,200,2|2
328,16,96250,1,0
256,72,96464,2,0,B|256:184,1,100,2|0
256,264,96893,1,2
168,328,97107,1,0
80,239,97322,6,2,B|88:25|260:38|260:38|413:40|441:247,1,600,2|2
352,296,98822,1,2
256,272,99036,2,2,B|144:208|360:64|248:0,1,300
152,152,100107,5,0
152,152,100322,1,2
152,152,100536,1,0
152,152,100750,2,0,B|64:192|112:304|208:272,1,200,4|0
272,248,101393,1,0
352,208,101607,2,0,B|448:144,1,100,2|0
392,72,102036,2,0,B|308:127,1,100,2|0
248,192,102464,2,2,B|312:304|208:368,1,200
184,272,103107,1,2
96,288,103322,2,4,B|32:240|80:112|160:120,2,200
112,56,104607,6,0,B|248:56,1,100,2|0
400,56,105036,2,0,B|400:192,1,100,2|0
400,328,105465,2,0,B|264:328,1,100,2|0
112,328,105893,2,0,B|112:192,1,100,2|0
160,152,106322,5,2
242,88,106536,1,0
338,128,106750,1,2
352,232,106964,1,0
269,295,107179,1,4
173,255,107393,1,0
256,200,107607,6,2,B|312:272|456:272|560:112|424:-72|224:-40|200:136,1,600
328,136,109107,1,0
328,136,109322,2,2,B|416:248|304:336,1,200
184,315,109964,2,0,B|104:224|192:120,1,200,2|0
256,96,110607,1,2
256,192,110822,1,0
256,288,111036,1,4
256,208,114464,12,4,117893
80,104,118322,5,2
40,184,118536,1,0
112,232,118750,2,0,B|224:232,1,100,2|2
304,232,119179,1,0
384,200,119393,1,0
456,144,119607,2,0,B|464:72|376:64,2,100,4|0|2
456,240,120250,2,0,B|448:312|536:320,2,100,0|2|2
384,200,120893,5,8
328,128,121107,1,0
248,88,121322,2,0,B|136:64|16:136,1,200,4|0
128,176,121964,2,0,B|152:64|56:-16,2,200,2|2|2
56,144,123036,2,2,B|32:224|104:304|176:288,1,200
232,280,123679,2,2,B|320:208|288:104|240:80,1,200
184,64,124322,1,0
176,160,124536,2,2,B|400:208,1,200,2|0
448,216,125179,5,2
480,144,125393,1,0
504,64,125607,1,6
424,40,125822,1,2
344,16,126036,1,0
152,40,126464,6,0,B|264:40,2,100,4|0|2
196,112,127107,2,0,B|296:112,2,100,4|0|2
256,184,127750,2,0,B|256:304,1,100,4|0
184,352,128179,2,2,B|85:325|23:186|99:97|141:77,1,300
152,56,129036,2,2,B|224:-16|376:0|414:109|410:156,1,300
430,174,129893,2,2,B|456:272|367:396|252:375|214:348,1,300
256,280,130750,1,2
256,192,130964,1,0
208,128,131179,2,2,B|272:88|360:136|344:224|304:256,1,200,2|6
328,304,131822,6,0,C|440:304,1,100,0|2
472,240,132250,1,0
424,176,132464,1,6
464,112,132679,1,2
356,29,133322,6,0,C|124:29,1,200,4|2
96,104,133964,1,0
156,183,134179,2,0,C|388:183,1,200,6|0
416,112,134822,1,0
336,112,135036,2,2,B|264:208|352:320,1,200
416,296,135679,2,0,B|200:296,2,200,2|2|2
496,288,136750,2,2,B|528:168|464:64,1,200
448,32,137393,2,2,B|336:80|224:32,1,200
176,16,138036,2,0,B|96:16|16:80|48:208|144:240,1,300,2|2
64,272,142322,5,4
80,192,142536,1,0
160,168,142750,1,0
200,104,142964,2,0,B|136:32|8:40,2,200,2|2|0
248,168,144036,1,0
272,240,144250,2,2,B|336:296|448:272|464:216,1,200
432,160,144893,2,2,B|368:104|256:128|240:184,1,200,2|4
40,248,146179,5,2
24,168,146393,1,0
56,96,146607,1,2
128,56,146822,2,2,B|112:144|232:176|288:104,1,200,2|2
440,40,147679,1,2
488,192,148107,5,0
448,264,148322,1,0
392,328,148536,2,2,B|312:360|200:296|208:224,1,200
208,184,149179,1,0
208,96,149393,2,0,B|-16:96,1,200,4|0
48,176,150036,1,2
96,256,150250,1,0
144,328,150464,1,4
232,344,150679,1,0
320,352,150893,5,0
400,312,151107,2,2,B|480:216|400:96,1,200,2|0
336,80,151750,1,2
248,48,151964,2,2,B|176:104|224:208|320:200,2,200
376,216,153250,1,0
368,304,153464,1,2
280,336,153679,1,0
192,304,153893,2,0,B|112:256|144:136|208:104,1,200,4|0
264,128,154536,2,2,B|40:128,1,200
120,56,155179,1,4
208,56,155393,1,0
120,56,155607,1,2
256,208,156036,5,0
256,208,156250,1,2
80,264,156893,5,2
168,312,157107,1,0
256,352,157322,2,0,B|376:352,1,100,4|0
400,280,157750,2,0,B|280:280,1,100,2|0
216,240,158179,1,2
256,160,158393,1,0
337,108,158607,2,2,B|312:40|182:48|168:120,1,200
120,184,159250,1,0
112,272,159464,6,6,B|176:368|312:184|400:280,2,300
16,120,161179,5,0
80,56,161393,1,0
160,16,161607,2,0,B|280:16,1,100,2|0
304,96,162036,2,0,B|192:96,1,100,2|0
256,176,162464,1,4
192,344,162893,5,0
128,280,163107,1,2
320,344,163536,1,0
384,280,163750,1,6
400,192,163964,1,0
400,104,164179,2,0,B|264:104,1,100,0|0
208,104,164607,6,2,B|120:152|216:216|216:216|304:280|200:352,2,300
280,152,166107,1,0
344,216,166322,1,8
344,304,166536,2,2,B|264:352|168:320|144:288,1,200
96,232,167179,2,0,B|48:120,1,100,2|0
16,56,167607,1,4
176,136,168036,5,8
144,56,168250,2,2,B|200:24|312:48|336:112,1,200
376,168,168893,2,0,B|272:224,1,100,2|0
200,240,169322,6,0,B|128:280|176:368,2,100,0|0|2
312,240,169964,2,0,B|384:280|336:368,2,100,0|2|0
256,168,170607,2,0,B|256:48,1,100,2|0
176,32,171036,2,2,B|96:56|96:152|144:192|184:184,1,200
208,112,171679,2,2,B|288:136|288:232|240:272|200:264,1,200
136,288,172322,1,8
0,192,172750,1,4
152,88,173179,6,0,B|144:24|216:0,1,100,2|0
314,7,173607,2,0,B|368:24|360:88,1,100,2|0
304,176,174036,2,0,B|256:208|208:176,1,100,2|0
256,104,174464,2,2,B|328:152|184:224|256:288,1,200
312,352,175107,2,2,B|192:384|112:320,1,200
64,256,175750,1,8
128,88,176179,1,4
304,72,176607,6,0,B|304:184,1,100,2|0
208,224,177036,2,0,B|208:112,1,100,2|0
304,168,177464,2,0,B|304:280,1,100,2|0
312,360,177893,2,2,B|416:360|472:272|456:208,1,200
456,160,178536,2,2,B|400:104|328:224|256:152,1,200
200,104,179179,1,8
200,280,179607,1,4
40,192,180036,6,0,B|16:56,1,100,2|0
72,24,180464,2,0,B|208:0,1,100,2|0
240,64,180893,2,0,B|257:162,1,100,2|0
280,248,181322,2,2,B|416:264|464:160,1,200
472,88,181964,1,0
408,24,182179,6,0,B|312:80,1,100,8|0
264,8,182607,2,0,B|168:64,1,100,8|0
248,120,183036,6,4,B|248:216|152:288|32:232|16:192,1,300,6|0
104,152,183893,2,2,B|104:288|240:328,1,200
288,328,184536,2,0,B|408:352,2,100,2|0|2
200,312,185179,1,0
176,216,185393,1,4
232,136,185607,1,2
328,88,185822,1,0
424,72,186036,1,0
448,168,186250,6,2,B|488:264|384:312|312:264,1,200,2|0
248,240,186893,2,0,B|144:200,1,100,2|0
72,168,187322,2,0,B|112:64,1,100,2|0
144,0,187750,2,0,B|248:40,1,100,2|0
344,72,188179,2,2,B|440:160|304:168|408:256,1,200
480,320,188822,2,2,B|432:384|296:360|272:312,1,200
208,272,189464,2,4,B|136:176|192:80,5,200
248,0,191822,1,0
312,88,192036,1,0
357,184,192250,2,2,B|109:184,1,200
80,184,192893,1,8
256,208,193322,12,4,196750
183,156,200179,6,2,B|132:195|142:283|252:383|388:287|398:175|297:136,4,400
256,88,203822,1,0
344,48,204036,2,0,B|464:48,1,100,2|0
500,130,204464,2,0,B|380:130,1,100,2|0
344,216,204893,2,0,B|464:216,1,100,2|0
416,312,205322,6,0,B|328:360|216:304|224:256,1,200,4|0
136,320,205964,2,2,B|264:296|280:200|264:144,1,200
272,80,206607,2,0,B|128:80,1,100,8|0
72,80,207036,6,0,B|16:176|112:272|176:248,1,200,6|0
144,144,207679,2,2,B|248:184|232:320|176:336,2,200
128,248,208750,2,0,B|360:248,1,200,2|0
432,248,209393,2,2,B|488:144|432:40,1,200,2|0
352,8,210036,1,2
352,112,210250,2,2,B|120:112,1,200,2|0
48,112,210893,6,0,B|48:240,1,100,2|0
152,208,211322,2,0,B|152:336,2,100,6|2|2
256,368,212179,5,4
336,320,212393,1,0
392,240,212607,1,2
392,144,212822,1,4
336,72,213036,1,0
256,32,213250,1,2
160,32,213464,2,0,B|40:32,1,100,6|0
256,208,213893,12,2,215607
256,208,215714,12,4,217322
88,88,217750,6,0,B|160:16,1,100,2|0
232,48,218179,2,0,B|160:120,1,100,2|2
96,168,218607,2,0,B|176:240,1,100,8|0
240,280,219036,2,0,B|232:336|160:352,2,100,4|0|2
248,200,219679,2,0,B|256:144|328:128,2,100,4|0|2
328,216,220322,5,0
328,216,220536,2,2,B|440:232|472:104|424:56|360:24|312:32,1,300
256,32,221393,2,2,B|224:104|128:112|88:16,2,200
328,88,222464,2,2,B|288:192|144:184,1,200,2|2
88,184,223107,2,2,B|8:256|80:360|160:384|248:288,1,300
144,256,223964,1,2
192,192,224179,6,0,B|424:192,1,200,4|0
472,192,224822,2,0,B|496:136|464:72,2,100
224,240,225893,6,0,B|112:192,1,100,2|0
64,160,226322,2,0,B|112:48,1,100,2|0
152,0,226750,2,0,B|264:48,1,100,2|0
312,80,227179,2,0,B|264:192,1,100,2|0
328,224,227607,6,2,B|379:263|369:351|259:451|123:355|113:243|214:204,4,400
256,272,231250,1,0
256,192,231464,2,0,B|320:112,1,100,2|0
240,88,231893,2,0,B|176:8,1,100,2|0
40,104,232750,6,0,B|112:184,1,100,4|0
32,208,233179,2,0,B|104:288,1,100,2|0
176,280,233607,2,0,B|242:205,1,100,2|0
168,176,234036,2,0,B|234:101,1,100,2|0
288,40,234464,6,2,B|408:88|368:200,1,200,6|2
328,264,235107,2,2,B|256:304|168:216|112:264,2,200
400,224,236179,2,2,B|320:160|344:64|384:40,1,200
424,120,236822,2,2,B|176:120,1,200
144,120,237464,1,0
64,120,237679,2,0,B|0:184|72:296|160:256,1,200,2|0
208,256,238322,6,0,B|320:256,1,100,4|0
296,176,238750,2,0,B|432:176,2,100,2|0|2
408,72,239607,5,4
336,40,239822,1,0
256,32,240036,1,2
176,40,240250,1,0
104,72,240464,2,2,B|32:152|96:264|160:256,1,200
208,288,241107,1,0
304,328,241322,6,2,B|464:304|320:176|512:120,1,300
472,240,242179,2,0,B|312:216|456:88|264:32,1,300,4|0
216,88,243036,2,0,B|216:200,1,100,4|0
296,196,243464,2,0,B|296:296,1,100,2|0
208,344,243893,2,2,B|16:320|32:80|136:32,1,400
200,32,244964,1,0
280,40,245179,2,0,B|376:112,1,100,2|0
288,144,245607,2,0,B|368:208,1,100,4|0
432,248,246036,5,2
392,312,246250,1,0
320,344,246464,5,4
240,336,246679,1,0
168,296,246893,1,4
112,240,247107,1,0
104,152,247322,5,4
136,80,247536,1,0
208,40,247750,1,4
288,56,247964,1,0
256,208,248179,12,4,249893
256,208,250000,12,4,251607
16,64,255250,5,0
96,64,255464,1,2
176,64,255679,1,0
256,64,255893,1,6
336,64,256107,1,0
416,64,256322,1,2
496,64,256536,1,0
416,288,256964,5,0
336,288,257178,1,2
256,288,257393,1,0
176,288,257607,1,6
96,288,257821,1,0
