osu file format v7

[General]
AudioFilename: La_Roux_-_Saviour.mp3
AudioLeadIn: 1511
PreviewTime: 113393
Countdown: 1
SampleSet: Soft
StackLeniency: 0.7
Mode: 0
LetterboxInBreaks: 0

[Editor]
DistanceSpacing: 0.699999988079071
BeatDivisor: 2
GridSize: 8

[Metadata]
Title:Saviour
Artist:La Roux
Creator:Larto
Version:Left Alone...
Source:
Tags:JarJarJacob infected skis

[Difficulty]
HPDrainRate:4
CircleSize:3
OverallDifficulty:1
SliderMultiplier:1.4
SliderTickRate:2

[Events]
//Background and Video events
0,0,"La+Roux+Deirdre+OCallaghan.jpg"
//Break Periods
2,25307,27070
2,111236,112784
//Storyboard Layer 0 (Background)
//Storyboard Layer 1 (Fail)
//Storyboard Layer 2 (Pass)
//Storyboard Layer 3 (Foreground)
Sprite,Foreground,Centre,"SB\InMyEar.png",220,320 F,1,464,1322,0,1 MY,0,464,7750,370,320 F,0,7322,7750,1,0
Sprite,Foreground,Centre,"SB\InMyEar.png",220,320 L,1322,4 F,0,0,500,1,0 S,0,0,500,1,1.5 F,0,1715,,0 F,0,0,,0 MY,0,464,7750,370,320
Sprite,Foreground,Centre,"SB\FinallyMySaviourIsHere.png",320,370 F,0,7750,8179,0,1 MX,0,7750,13750,320,370 F,0,13322,13750,1,0
Sprite,Foreground,Centre,"SB\InMyEar.png",420,370 F,0,13750,14179,0,1 MY,0,13750,21464,370,320 F,0,21036,21464,1,0
Sprite,Foreground,Centre,"SB\InMyEar.png",420,370 L,15036,4 F,0,0,500,1,0 S,0,0,500,1,1.5 F,0,1715,,0 F,0,0,,0 MY,0,13750,21464,370,320
Sprite,Foreground,Centre,"SB\FinallyMySaviourIsHere.png",320,370 F,0,21464,21893,0,1 MX,0,21464,26607,370,320 F,0,26179,26607,1,0
Sprite,Foreground,Centre,"SB\In.png",135,120 L,87464,8 F,0,0,20,0,1 F,0,20,200,1,0 F,0,3429,,0
Sprite,Foreground,Centre,"SB\Fact.png",135,170 L,87893,8 F,0,0,20,0,1 F,0,20,200,1,0 F,0,3429,,0
Sprite,Foreground,Centre,"SB\Its.png",135,220 L,88322,8 F,0,0,20,0,1 F,0,20,200,1,0 F,0,3429,,0
Sprite,Foreground,Centre,"SB\Easy.png",135,270 L,88750,8 F,0,0,20,0,1 F,0,20,200,1,0 F,0,400,420,0,1 F,0,420,600,1,0 F,0,3429,,0
Sprite,Foreground,Centre,"SB\Now.png",135,320 L,89393,8 F,0,0,20,0,1 F,0,20,200,1,0 F,0,3429,,0
Sprite,Foreground,Centre,"SB\line.png",320,240 L,87464,8 F,0,0,200,1,0 MY,0,0,200,120 F,0,429,629,1,0 MY,0,429,629,170 F,0,858,1058,1,0 MY,0,858,1058,220 F,0,1287,1887,1,0 MY,0,1287,1900,270 F,0,1930,2130,1,0 MY,0,1930,2130,320 F,0,3432,,0 F,0,0,,0 S,0,0,,2 R,0,0,,1.555
Sprite,Foreground,Centre,"SB\IHearYouCallMe.png",320,190 F,0,28750,29179,0,1 MX,0,28750,34750,300,450 F,0,34322,34750,1,0
Sprite,Foreground,Centre,"SB\FromThe.png",320,240 F,0,30893,31322,0,1 MX,0,30893,34750,390,270 F,0,34322,34750,1,0
Sprite,Foreground,Centre,"SB\OtherRoom.png",320,300 F,0,32607,33036,0,1 MX,0,32607,34750,300,400 F,0,34322,34750,1,0
Sprite,Foreground,Centre,"SB\YouSayMyName.png",240,240 F,0,35393,35822,0,1 F,0,35822,37322,1 F,0,37322,37750,1,0 F,0,37750,,0 MY,0,35393,42464,340,100
Sprite,Foreground,Centre,"SB\AsIfYouKnow.png",250,240 F,0,37322,37750,0,1 MY,0,37322,42464,280,410 F,0,42036,42464,1,0
Sprite,Foreground,Centre,"SB\WhatYoureAbout.png",380,240 F,0,39036,39464,0,1 MY,0,39036,42464,270,360 F,0,42036,42464,1,0
Sprite,Foreground,Centre,"SB\ToDo.png",530,240 F,0,40750,41179,0,1 MY,0,40750,42464,270,310 F,0,42036,42464,1,0
Sprite,Foreground,Centre,"SB\YouSayYoureTired.png",320,180 F,0,42464,42893,0,1 MX,0,42464,48464,190,370 F,0,48036,48464,1,0
Sprite,Foreground,Centre,"SB\AndYouMustBe.png",320,240 F,0,44179,44607,0,1 MX,0,44179,48464,410,240 F,0,48036,48464,1,0
Sprite,Foreground,Centre,"SB\LeavingSoon.png",320,300 F,0,46107,46536,0,1 MX,0,46107,48464,250,350 F,0,48036,48464,1,0
Sprite,Foreground,Centre,"SB\WhenWillWeEver.png",240,240 F,0,49750,50179,0,1 MY,0,49750,56179,120,380 F,0,55750,56179,1,0
Sprite,Foreground,Centre,"SB\SeeThisThrough.png",350,240 F,0,52964,53364,0,1 MY,0,52964,56179,290,430 F,0,55879,56179,1,0
Sprite,Foreground,Centre,"SB\flash.png",100,240 L,56179,90 MY,0,0,107,621,278 F,0,0,643,0.5,0 MY,0,643,,278 F,0,0,,0 C,0,0,,255,0,0
Sprite,Foreground,Centre,"SB\flash.png",200,240 L,56393,90 MY,0,0,107,621,328 F,0,0,643,0.5,0 MY,0,643,,328 F,0,0,,0 S,0,0,,0.75 C,0,0,,0,255,0
Sprite,Foreground,Centre,"SB\flash.png",300,240 L,56607,90 MY,0,0,107,621,380 F,0,0,643,0.5,0 MY,0,643,,380 F,0,0,,0 S,0,0,,0.5 C,0,0,,0,0,255
Sprite,Foreground,Centre,"SB\flash.png",540,240 L,56179,90 MY,0,0,107,621,278 F,0,0,643,0.5,0 MY,0,643,,278 F,0,0,,0 C,0,0,,255,0,0
Sprite,Foreground,Centre,"SB\flash.png",440,240 L,56393,90 MY,0,0,107,621,328 F,0,0,643,0.5,0 MY,0,643,,328 F,0,0,,0 S,0,0,,0.75 C,0,0,,0,255,0
Sprite,Foreground,Centre,"SB\flash.png",340,240 L,56607,90 MY,0,0,107,621,380 F,0,0,643,0.5,0 MY,0,643,,380 F,0,0,,0 S,0,0,,0.5 C,0,0,,0,0,255
Sprite,Foreground,Centre,"SB\AndIContinueTo.png",200,240 F,0,57036,57336,0,1 MY,0,57036,63893,100,370 F,0,63464,63893,1,0
Sprite,Foreground,Centre,"SB\DrownMySorrows.png",330,240 F,0,59179,59607,0,1 MY,0,59179,63893,230,420 F,0,63464,63893,1,0
Sprite,Foreground,Centre,"SB\AfterYoureGone.png",320,240 F,0,64322,64750,0.06815995,1 M,0,64322,66893,320,397,477,395 F,0,66464,66893,1,0.1039999
Sprite,Foreground,Centre,"SB\AndLookAroundFor.png",320,240 F,0,70322,70750,0,1 M,0,70322,76750,429,183,180,183 F,0,76322,76750,1,0
Sprite,Foreground,Centre,"SB\Somebody.png",320,240 F,0,72893,73322,0,1 M,0,72893,76750,189,238,410,238 F,0,76322,76750,1,0
Sprite,Foreground,Centre,"SB\Else.png",320,240 F,0,75036,75464,0,1 M,0,75036,76750,412,284,286,284 F,0,76322,76750,1,0
Sprite,Foreground,Centre,"SB\To.png",320,240 F,0,75893,76322,0,1 M,0,75893,76750,271,328,340,327 F,0,76322,76750,1,0
Sprite,Foreground,Centre,"SB\Hang.png",320,240 M,0,77607,78036,80,170,140,170 F,0,77607,78036,0,1 M,0,78089,78250,120,260,140,260 M,0,78304,78464,100,380,120,380 M,0,78518,81036,80,430,305,427 F,0,80607,81036,1,0
Sprite,Foreground,Centre,"SB\MyHopesOn.png",320,430 F,0,78893,79322,0,1 MX,0,78893,81036,270,460 F,0,80607,81036,1,0
Sprite,Foreground,Centre,"SB\InFactItsEasyNow.png",320,240 F,0,85322,85750,0,1 MY,0,85322,90464,100,290 F,0,90036,90464,1,0
Sprite,Foreground,Centre,"SB\That.png",320,240 F,0,89607,90036,0,1 MY,0,89607,91322,300,360 F,0,90893,91322,1,0
Sprite,Foreground,Centre,"SB\YoureNotHere.png",320,90 F,0,92607,93036,0,1 MX,0,92607,96464,480,180 F,0,96036,96464,1,0
Sprite,Foreground,Centre,"SB\IAmNoLonger.png",320,240 F,0,96036,96464,0,1 M,0,96036,99893,250,151,456,151 F,0,99464,99893,1,0
Sprite,Foreground,Centre,"SB\DreadingYou.png",320,240 F,0,98179,98607,0,1 M,0,98179,99893,413,214,323,214 F,0,99464,99893,1,0
Sprite,Foreground,Centre,"SB\Muttering.png",320,240 F,0,100107,100536,0,1 M,0,100107,102464,387,242,186,241 F,0,102036,102464,1,0
Sprite,Foreground,Centre,"SB\Hang.png",320,240 M,0,78036,,139,170 F,0,78036,,1 F,0,78036,78197,1,0 M,0,78250,,141,259 F,0,78250,78411,1,0 M,0,78464,,121,380 F,0,78464,78625,1,0
Sprite,Foreground,Centre,"SB\TheseWords.png",320,240 F,0,102893,103322,0.04255997,1 F,0,103322,105464,1 MY,0,102893,105893,350,100 F,0,105464,105893,1,0
Sprite,Foreground,Centre,"SB\InMyEar.png",320,240 F,0,105893,106322,0,1 MY,0,105893,111036,110,400 F,0,110607,111036,1,0 F,0,113179,113607,0,1 MX,0,113179,120893,240,450 F,0,120464,120893,1,0
Sprite,Foreground,Centre,"SB\InMyEar.png",320,400 L,114464,4 F,0,0,500,1,0 S,0,0,500,1,1.5 F,0,1715,,0 F,0,0,,0 MX,0,113179,120893,240,450
Sprite,Foreground,Centre,"SB\FinallyMySaviourIsHere.png",260,240 F,0,120679,121107,0,1 MY,0,120679,125607,180,290 F,0,125179,125607,1,0
Sprite,Foreground,Centre,"SB\InMyEar.png",320,390 F,0,126893,127322,0,1 MX,0,126893,133322,440,240 F,0,132893,133322,1,0
Sprite,Foreground,Centre,"SB\InMyEar.png",320,390 L,128179,4 F,0,0,500,1,0 S,0,0,500,1,1.5 F,0,1715,,0 F,0,0,,0 MX,0,126893,133322,440,240
Sprite,Foreground,Centre,"SB\FinallyMySaviourIsHere.png",420,240 F,0,134393,134822,0,1 MY,0,134393,139322,350,160 F,0,138893,139322,1,0
Sprite,Foreground,CentreRight,"sb\TriggerFinish.png",640,240 T,HitSoundFinish,0,270000 C,0,0,,255,0,0 F,0,0,40,0,0.5 F,0,40,150,0.5,0 P,0,0,280,H
Sprite,Foreground,CentreRight,"sb\TriggerFinish.png",320,240 T,HitSoundFinish,0,270000 C,0,0,,255,0,0 F,0,0,40,0,0.5 F,0,40,150,0.5,0
//Storyboard Sound Samples
//Background Colour Transformations
3,100,163,162,255

[TimingPoints]
1322,428.571428571429,4,2,0,80,1,0
114464,-100,4,2,0,80,0,1
141893,-100,4,2,0,80,0,0

[HitObjects]
42,101,1321,6,2,B|96:280|256:192|256:192|429:109|466:287,2,560
216,48,5607,5,0
296,72,5822,1,2
448,136,6464,1,4
256,224,7322,1,0
176,248,7536,1,2
65,346,8179,6,4,B|-24:296|-24:96|67:31,1,350,4|0
120,136,9679,2,2,B|256:80|400:136,2,280
184,272,12464,1,0
96,272,12679,1,2
144,144,13322,5,4
328,272,14179,1,0
416,272,14393,1,2
368,144,15036,6,2,B|309:68|256:144|256:144|205:220|141:143,4,280
408,280,19321,1,0
408,360,19536,1,2
296,320,20179,1,4
104,272,21036,1,0
112,360,21250,1,2
216,320,21893,6,0,B|272:216|192:120,1,210,4|2
116,31,22964,1,0
115,125,23393,2,2,B|411:125,2,280
24,128,28750,5,4
120,72,29179,1,2
216,128,29607,1,0
312,72,30036,1,2
408,128,30464,2,0,B|504:232|408:360|296:312,2,280,4|2|6
256,112,33036,5,2
256,192,33250,1,0
256,272,33464,1,2
488,128,35607,5,4
392,72,36036,1,2
296,128,36464,1,0
200,72,36893,1,2
104,128,37322,2,0,B|8:232|104:360|216:312,2,280,4|2|6
208,8,39464,6,0,B|208:168,1,140,0|2
304,120,40322,2,0,B|304:280,1,140,0|2
208,236,41179,2,0,B|208:376,3,140,0|2|2|4
192,136,43322,6,0,B|256:88|336:144,1,140,2|0
320,248,44179,2,0,B|256:296|176:240,1,140,4|0
161,142,45036,2,2,B|152:64|256:40|368:56|352:160,1,280
368,312,46536,1,2
256,256,46964,1,0
144,312,47393,1,2
256,32,49322,5,4
256,256,50179,1,2
325,165,50607,1,0
200,168,51036,2,2,B|141:190|109:294|157:342|197:366|237:374|277:374|317:358|330:332,1,350
325,63,53393,2,0,B|165:63,2,140,2|2|2
48,136,56179,5,4
48,248,56607,1,2
160,248,57036,1,0
160,136,57464,1,2
256,93,57893,2,0,B|311:186|271:296|232:315,2,210,4|2|2
340,12,59607,2,2,B|464:85|466:320|322:377,1,420,6|2
172,372,61322,2,2,B|48:299|46:64|190:7,1,420,6|2
256,96,63036,5,4
216,176,63464,1,2
296,224,63893,1,0
256,304,64322,1,2
160,272,64750,2,2,B|128:200|16:304|-32:208,2,210
256,336,66464,5,4
256,240,66893,1,2
256,144,67322,1,2
256,48,67750,1,4
352,48,68179,5,4
352,144,68607,1,2
352,240,69036,1,2
352,336,69464,1,4
464,136,69893,5,4
464,248,70322,1,2
352,248,70750,1,0
352,136,71179,1,2
256,93,71607,2,0,B|201:186|241:296|280:315,2,210,4|2|2
172,12,73322,2,2,B|48:85|46:320|190:377,1,420,6|2
340,372,75036,2,2,B|464:299|466:64|322:7,1,420,6|2
256,96,76750,5,4
296,176,77179,1,2
216,224,77607,1,0
256,304,78036,1,2
352,272,78464,2,2,B|384:200|496:304|544:208,2,210
256,192,80179,5,0
256,208,80607,12,2,83607
256,88,84464,5,2
312,144,84679,1,0
328,304,85750,2,2,B|152:304,2,140
424,352,87036,2,2,B|552:288|432:192|432:192|320:104|448:24,1,420
304,16,88750,5,2
208,128,89179,1,0
256,200,89393,1,2
88,352,90464,6,2,B|-40:288|80:192|80:192|192:104|64:24,1,420
208,16,92179,1,2
304,128,92607,1,0
256,200,92821,1,2
432,351,93893,6,2,B|391:310|391:310|349:272|309:312|309:312|257:362|208:314|208:314|167:273|128:304|128:304|71:359,1,420
48,200,95607,2,2,B|16:128|56:48,1,140,2|0
120,136,96250,1,2
80,351,97321,6,2,B|121:310|121:310|163:272|203:312|203:312|255:362|304:314|304:314|345:273|384:304|384:304|441:359,1,420
464,200,99036,2,2,B|496:128|456:48,1,140,2|0
392,136,99679,1,2
256,48,100750,5,4
192,144,101179,2,0,B|144:208|48:208,2,140,2|2|2
256,48,102464,2,2,B|368:112|328:272|240:280,1,280
256,48,104179,5,4
320,144,104607,2,0,B|368:208|464:208,2,140,2|2|2
256,48,105893,2,2,B|144:112|184:272|272:280,1,280
256,208,107607,12,4,111036
198,297,114464,6,2,B|116:259|103:114|199:49|328:44|412:135|400:274|296:304,2,560
48,232,118750,5,0
48,152,118964,1,2
464,232,120464,1,0
464,152,120679,1,2
360,336,121321,5,2
392,240,121750,1,0
360,144,122179,1,2
304,64,122607,1,0
208,64,123036,5,2
152,144,123464,1,0
120,240,123893,1,2
152,336,124321,1,0
256,312,124750,1,4
464,232,125607,5,0
464,152,125821,1,2
48,232,127321,1,0
48,152,127536,1,2
256,208,128179,12,0,131607
216,104,132464,5,0
136,104,132679,1,2
176,248,133321,1,4
296,104,134179,5,0
376,104,134393,1,2
336,248,135036,5,4
408,312,135464,1,0
312,344,135893,1,6
312,344,136107,1,0
176,248,136750,1,4
104,312,137179,1,0
200,344,137607,1,6
200,344,137821,1,0
256,192,138464,1,6
256,208,138679,12,4,141893
