osu file format v5

[General]
AudioFilename: La Roux - In for the Kill.mp3
AudioLeadIn: 0
PreviewTime: 63626
Countdown: 1
SampleSet: Normal
StackLeniency: 0.7
Mode: 0
LetterboxInBreaks: 1

[Editor]
Bookmarks: 14126,80426,93226,176426,214826
DistanceSpacing: 1
BeatDivisor: 4
GridSize: 8

[Metadata]
Title:In for the Kill
Artist:La Roux
Creator:Agent Spin Here
Version:Normal
Source:
Tags:

[Difficulty]
HPDrainRate:4
CircleSize:3
OverallDifficulty:4
SliderMultiplier:1.6
SliderTickRate:1

[Events]
//Background and Video events
0,0,"lriftk.jpg"
//Break Periods
2,35826,38506
2,61641,63121
2,80626,92906
2,115841,118521
2,141625,143106
//Storyboard Layer 0 (Background)
//Storyboard Layer 1 (Fail)
//Storyboard Layer 2 (Pass)
//Storyboard Layer 3 (Foreground)
//Storyboard Sound Samples
//Background Colour Transformations
3,100,0,0,0

[TimingPoints]
13241,400,4,1,0,70,1,0

[Colours]
Combo1 : 1,51,101
Combo2 : 255,0,0
Combo3 : 235,235,235
Combo4 : 0,0,0

[HitObjects]
96,168,15241,6,0,B|104:80|192:80|224:104|224:104,2,160
144,232,16241,1,8
144,232,16441,1,4
288,304,16841,6,0,B|376:312,1,80,8|0
376,72,17641,2,0,B|296:136,2,80,8|0|0
320,224,18441,2,0,B|240:184,1,80,8|0
208,120,18841,6,2,B|128:48|104:64|56:120|48:184|64:256|136:288,1,320,2|6
256,328,20041,6,0,B|352:344,1,80,8|0
376,104,20841,2,0,B|344:184,2,80,8|0|0
392,264,21641,2,0,B|472:192,1,80,8|0
464,128,22041,2,2,B|448:8|328:8|256:72,1,240
200,48,22841,1,4
56,128,23241,6,0,B|32:224,1,80,8|0
256,296,24041,2,0,B|152:280,2,80,8|0|0
184,152,24841,2,0,B|288:120,1,80,8|0
440,288,25641,2,0,B|408:200,2,80,8|0|4
376,64,27241,6,2,B|344:112|328:144|280:144|240:104|240:56|176:40|136:48|120:80|120:136,1,320
40,248,28441,2,2,B|48:352|168:320,1,160
384,256,29441,1,4
40,48,30441,6,0,B|40:152,2,80,8|0|0
168,136,31241,2,0,B|240:232,1,80,8|0
288,160,31641,6,2,B|336:80|424:96|464:176|440:256|360:280,1,320,2|6
216,328,32841,2,0,B|144:256,1,80,8|0
72,136,33641,2,0,B|120:224,2,80,8|0|0
232,104,34441,6,0,B|240:144|264:144|296:144|312:104|328:96|344:104|376:144,1,160,8|0
232,224,35241,2,0,B|240:264|264:264|296:264|312:224|328:216|344:224|376:264,1,160,8|4
192,152,39841,6,2,B|216:104|256:88|296:104|320:168,2,160
256,296,41041,1,0
256,296,41241,1,2
256,296,41441,1,2
104,240,41841,1,2
256,192,42241,1,8
408,240,42641,1,0
408,240,42841,1,4
368,80,43241,6,0,B|272:48,2,80,8|0|0
208,96,44041,2,0,B|136:160,1,80,8|0
64,152,44441,6,2,B|64:256|128:280|224:256|216:232|240:152|328:232,1,320,2|6
448,288,45641,6,0,B|448:184,1,80,8|0
224,304,46441,2,0,B|144:344,2,80,8|0|0
312,168,47241,6,0,B|352:112|256:96|232:64|304:32,1,160,8|0
416,136,48041,2,0,B|392:200|376:232|344:256|296:256,1,160,8|4
200,144,48841,6,0,B|120:176,1,80,8|0
312,320,49641,2,0,B|224:256,2,80,8|0|0
416,200,50441,2,0,B|456:128,1,80,8|0
224,48,51241,2,0,B|144:0,2,80,8|0|4
112,136,52641,5,2
8,256,53041,2,2,B|24:328|80:368|136:360|192:352|248:384|272:280,1,320
432,144,54441,1,0
432,144,54641,1,8
288,64,55041,2,2,B|288:160|264:176|240:160|232:96|216:80|200:96|184:192,1,240,2|4
80,296,56841,6,0,B|160:320,1,80,8|0
232,288,57241,2,2,B|296:256|344:208|296:152|240:120|168:128|168:256,1,320,2|6
72,104,58441,2,0,B|104:200,1,80,8|0
304,56,59241,6,0,B|360:104|392:64|448:48|480:80,1,160,0|2
392,216,60041,1,8
392,216,60241,2,2,B|336:272|264:248|248:208|216:176|160:184,1,240
120,240,61041,2,0,B|40:208|40:136|56:96,1,160,2|4
72,72,64441,6,0,B|128:136|176:64|256:96,1,160,0|8
192,160,65041,2,0,B|216:216|200:264|200:352|72:272,1,240,0|8
232,336,66041,5,0
376,264,66441,1,0
272,144,66841,2,0,B|240:208|288:240|336:192|344:144|360:144,1,160
328,72,67441,1,4
80,96,68041,5,8
168,232,68441,2,0,B|192:160|232:152|272:192|280:256,1,160,0|8
416,296,69241,2,0,B|504:296,2,80,2|0|0
336,152,70041,2,0,B|328:64|424:56|464:96,1,160
416,152,70641,2,0,B|408:208|376:232|336:240|288:208,1,160,4|0
80,208,71841,5,0
80,208,72041,1,8
80,208,72241,1,0
80,208,72441,2,0,B|152:264|112:304|168:336|208:320,1,160
344,320,73241,2,0,B|358:333|414:301|374:261|446:205,1,160
384,152,73841,2,0,B|336:104|280:96|280:104|280:104,2,80,0|2|4
80,112,75841,6,0,B|80:200,2,80,0|8|0
136,56,76441,2,0,B|224:40|264:88|256:160,1,160,0|0
416,304,77441,1,4
256,192,77641,12,4,80441
256,192,94241,5,0
256,192,94441,1,8
256,192,94641,2,2,B|160:184|152:112|184:64|264:56|328:88|336:128|352:144|400:112,1,320,0|2
384,288,95841,2,0,B|352:320|296:312,2,80,0|8|2
224,312,96641,2,2,B|152:296|112:240|88:184|72:128|80:104,1,240,2|6
320,56,98441,6,0,B|384:120,1,80,8|0
440,160,98841,2,2,B|480:240|392:248|352:184|384:352|288:304|272:280|264:192|296:160,1,320,2|6
168,64,100041,2,0,B|176:168,1,80,8|0
96,280,100641,5,0
96,280,100841,1,8
232,192,101241,2,2,B|224:144|208:104|208:72|232:48|264:32|296:48|312:72|312:104|288:144|280:200,2,320,2|2|6
360,288,103241,6,0,B|432:232,1,80,8|0
416,80,104041,2,0,B|384:176,2,80,8|0|0
320,208,104841,2,0,B|248:112,1,80,8|0
120,336,105641,2,0,B|152:232,2,80,8|0|4
416,72,107041,6,2,B|368:112|304:96|296:56|240:64,2,160
352,216,108241,1,0
272,216,108441,1,2
176,344,108841,2,2,B|72:376|-8:272|80:208,1,240
152,216,109641,2,0,B|152:112,1,80,8|0
72,136,110041,1,4
424,248,111241,6,0,B|456:152,1,80,8|0
456,88,111641,2,2,B|376:104|352:128|320:184|304:264|360:320|400:352,1,320,2|6
256,216,112841,2,0,B|176:144,1,80,8|0
88,40,113441,5,8
112,200,113841,1,0
112,200,114041,1,8
112,200,114241,1,0
224,312,114641,2,2,B|240:272|248:152|272:144|280:272|288:312,1,240
400,200,115641,1,4
112,104,119841,5,2
232,208,120241,2,2,B|232:296|304:328|352:328|400:304|296:176|448:216,1,320
248,64,121641,2,0,B|208:88|192:128,1,80,0|2
96,248,122241,1,2
96,248,122441,1,8
96,248,122641,1,0
96,248,122841,1,4
344,64,124041,6,0,B|328:144,1,80,8|0
408,120,124441,2,2,B|464:200|392:280|320:272|264:224|256:184|240:152,1,320,2|6
112,64,125641,2,8,B|72:144,1,80,8|0
256,296,126441,6,2,B|184:240|184:176|248:128|296:120|336:168|344:168|336:184,1,240
416,280,127441,1,2
464,128,127841,1,0
464,128,128041,1,2
320,56,128441,1,4
160,80,128841,6,0,B|112:152,1,80,8|0
344,216,129641,2,0,B|264:232,2,80,8|0|0
232,104,130441,2,0,B|352:120,1,80,8|0
104,240,131241,2,0,B|184:304,2,80,8|0|4
256,40,132641,5,2
104,88,133041,2,2,B|144:160|200:176|256:200|328:176|392:104,1,320
368,280,134241,1,2
208,288,134641,1,2
208,288,134841,1,2
208,288,135041,1,8
72,200,135441,1,4
424,64,136841,6,0,B|408:168,1,80,8|0
472,192,137241,2,2,B|448:264|360:256|352:192|304:168|272:176|256:216|264:272|224:280|192:264,1,320,2|6
256,112,138441,2,0,B|192:48,1,80,8|0
56,40,139041,5,8
56,40,139241,1,0
168,152,139641,1,8
168,152,139841,1,0
288,256,140241,2,2,B|304:304|344:320|400:304|408:224|440:200|488:232,1,240
472,304,141041,2,2,B|424:344|384:368|352:368|304:368,1,160,2|4
104,72,144441,6,8,B|160:120|200:56|264:72,1,160,0|8
232,144,145041,2,0,B|192:184|120:160|208:248|256:248|312:216|312:160,1,240,0|8
440,256,146041,5,8
440,256,146241,1,0
440,256,146441,1,0
304,336,146841,2,0,B|240:360|200:352|184:312|216:280,1,160
136,280,147441,1,4
248,72,148041,6,0,B|336:72,2,80,8|0|0
256,232,148841,1,8
104,168,149241,2,2,B|104:288|120:320|176:320,1,160
304,320,150041,2,2,B|392:296|384:232|360:176,1,160
448,192,150641,2,0,B|416:144|456:88,2,80,0|2|4
144,88,151841,6,0,B|120:136|56:128,2,80,0|8|0
208,40,152441,2,2,B|272:96|200:144|184:208,1,160
351,176,153241,2,2,B|345:138|273:90|337:34,1,160
392,88,153841,2,0,B|416:136|480:128,2,80,0|2|4
256,336,155841,5,0
256,336,156041,1,8
256,176,156441,1,8
256,16,156841,1,8
120,208,157441,1,4
488,48,158441,6,0,B|440:136,2,80,8|0|0
336,104,159241,2,0,B|320:200,1,80,8|0
120,56,160041,2,0,B|0:72,2,80,8|0|4
128,216,160841,2,0,B|96:304,1,80,8|0
336,232,161641,2,0,B|424:312,1,80,8|0
336,344,162041,6,0,B|224:336|248:272|256:224,1,160,0|8
320,88,162841,2,0,B|240:16|168:32|160:56,1,160,0|8
96,72,163441,1,4
64,312,164041,5,8
64,312,164241,1,0
64,312,164441,1,0
224,312,164841,1,8
352,224,165241,6,2,B|360:160|312:128,1,80,2|0
256,120,165641,1,0
152,240,166041,2,0,B|80:216|56:160|64:104,1,160
120,64,166641,2,0,B|152:24|216:24,2,80,0|2|4
352,280,167841,5,0
352,280,168041,1,8
352,280,168241,1,0
352,280,168441,2,2,B|176:280,1,160
320,184,169241,2,2,B|144:120,1,160
224,64,169841,2,0,B|264:24|320:64,2,80,0|2|4
80,320,171241,6,0,B|80:208,2,80,8|0|0
160,320,171841,1,0
160,320,172041,1,8
160,320,172241,1,0
160,320,172441,1,8
160,320,172641,1,0
160,320,172841,1,8
400,320,173441,1,4
256,192,173641,12,4,176441
