osu file format v5

[General]
AudioFilename: La Roux - In for the Kill.mp3
AudioLeadIn: 0
PreviewTime: 63626
Countdown: 1
SampleSet: Normal
StackLeniency: 0.7
Mode: 0
LetterboxInBreaks: 1

[Editor]
Bookmarks: 14126,80426,93226,176426,214826
DistanceSpacing: 1
BeatDivisor: 4
GridSize: 8

[Metadata]
Title:In for the Kill
Artist:La Roux
Creator:Agent Spin Here
Version:Hard
Source:
Tags:

[Difficulty]
HPDrainRate:8
CircleSize:4
OverallDifficulty:8
SliderMultiplier:2
SliderTickRate:1

[Events]
//Background and Video events
0,0,"lriftk.jpg"
//Break Periods
2,35826,39076
2,61626,63676
2,80626,93476
2,115826,119076
2,141625,143676
2,176626,201294
2,228026,230076
//Storyboard Layer 0 (Background)
//Storyboard Layer 1 (Fail)
//Storyboard Layer 2 (Pass)
//Storyboard Layer 3 (Foreground)
Sprite,Foreground,Centre,"lriftk inv.PNG",277,386 F,0,176326,176526,0,1 F,0,176526,200826,1 M,0,176426,201826,318,240,277,386 M,0,176526,201826,320,248,277,386 S,0,176526,201826,0.90784,1.50176 S,0,201826,,1.50176 F,0,200826,201944,1,0
//Storyboard Sound Samples
//Background Colour Transformations
3,100,0,0,0

[TimingPoints]
13241,400,4,1,0,70,1,0
230826,-100,4,1,0,70,0,1

[Colours]
Combo1 : 1,51,101
Combo2 : 255,0,0
Combo3 : 235,235,235
Combo4 : 0,0,0

[HitObjects]
80,96,15241,1,8
128,184,15441,1,0
192,112,15641,1,8
256,184,15841,1,8
320,112,16041,1,8
384,184,16241,1,0
432,96,16441,1,12
256,184,16841,5,8
256,184,17041,1,0
64,232,17441,1,0
120,312,17641,1,8
216,344,17841,1,0
312,328,18041,1,0
144,216,18441,1,8
232,256,18641,1,0
328,248,18841,6,2,B|376:232|440:200|384:176|352:160|312:152|280:152|280:120|312:96|336:80|376:80|392:64|384:48,1,300
126,54,19641,6,2,B|120:64|136:80|176:80|200:96|232:120|232:152|200:152|160:160|128:176|72:200|136:232|184:248,1,300
256,64,20641,5,0
256,160,20841,1,8
256,256,21041,1,0
256,352,21241,1,0
336,288,21441,6,0,B|328:240|328:216|296:200,1,100,0|8
176,288,21841,2,0,B|184:240|184:216|216:200,1,100,0|8
360,192,22341,1,8
152,192,22641,1,0
168,96,22841,1,8
256,48,23041,1,0
344,96,23241,1,8
360,192,23441,1,0
256,360,23841,5,0
256,256,24041,1,8
256,152,24241,1,0
256,48,24441,1,4
256,192,24541,12,4,26041
64,48,27241,5,2
144,104,27441,2,2,B|160:144|176:160|216:176|232:152|240:88|248:48|264:24|288:32|312:48|312:72|336:120,1,300
288,200,28241,1,0
192,232,28441,2,2,B|200:288|272:304,1,100,2|0
352,264,28841,2,2,B|384:224|368:160,2,100
432,328,29441,2,0,B|496:336|488:264,1,100,2|4
256,72,30241,5,0
152,72,30441,1,8
200,160,30641,1,0
256,240,30841,1,0
320,160,31041,1,0
368,72,31241,2,0,B|416:48|440:80|448:104|424:136,1,100,8|0
400,200,31641,6,2,B|424:248|376:280|360:280|480:280|368:328|304:304|320:240|360:184|368:160|304:168|280:216|296:248|320:288,1,300
199,275,32441,6,2,B|216:248|232:216|208:168|144:160|152:184|192:240|208:304|144:328|32:280|152:280|136:280|88:248|112:200,1,300
24,24,33441,5,0
80,104,33641,1,8
152,40,33841,1,0
208,120,34041,1,0
288,56,34241,1,0
344,136,34441,2,0,B|416:216,1,100,8|0
312,232,34841,2,0,B|224:288,1,100,8|0
192,192,35241,2,0,B|64:168,1,100,8|0
112,272,35641,1,4
88,56,39841,5,2
248,168,40241,2,2,B|288:208|296:88|368:128|408:72|400:160,2,200
152,184,41241,1,8
192,272,41441,1,0
384,328,41841,2,2,B|440:312|384:272|320:216|352:168|440:120|368:144,1,200
320,80,42441,1,8
224,40,42641,1,0
120,56,42841,1,4
72,144,43041,5,0
88,240,43241,1,8
160,176,43441,1,0
176,272,43641,1,0
352,176,44041,1,8
336,272,44241,1,0
424,232,44441,6,2,B|440:160|424:104|360:56|280:56|256:112|368:160,1,300
172,145,45241,6,2,B|256:112|232:56|152:56|88:104|72:160|88:232,1,300
256,320,46241,5,0
200,232,46441,1,8
256,152,46641,1,0
200,72,46841,1,0
312,72,47041,1,0
256,152,47241,2,0,B|336:264,1,100,8|0
256,151,47641,2,0,B|195:239,1,100,8|0
184,328,48041,2,2,B|240:360|256:280|256:280|280:360|344:328,1,200,2|6
456,192,48841,5,8
456,88,49041,1,0
280,192,49441,1,0
272,88,49641,1,8
168,88,49841,1,0
168,192,50041,1,0
368,88,50441,1,8
368,192,50641,1,0
168,192,51041,1,0
64,192,51241,1,8
64,296,51441,1,0
168,296,51641,1,4
360,40,52641,6,2,B|312:96|392:104|392:152,1,100
464,64,53041,2,2,B|464:152|504:272|384:288|336:192,1,300,2|0
248,168,53841,1,2
112,24,54241,1,0
64,112,54441,1,2
64,208,54641,2,2,B|80:288|112:312,1,100
192,328,55041,1,0
168,232,55241,2,2,B|216:216|264:248,1,100,2|0
256,144,55641,1,4
168,96,55841,5,0
256,48,56041,1,8
344,96,56241,1,0
256,144,56441,1,0
376,304,56841,1,8
456,240,57041,1,0
424,144,57241,6,2,B|408:208|376:240|336:144|288:136|288:136|288:200|288:200|344:240,1,300
177,231,58041,6,2,B|224:200|224:200|224:136|224:136|176:144|136:240|104:208|88:144,1,300
256,40,59041,5,0
352,64,59241,1,8
352,160,59441,1,0
256,120,59641,1,8
168,64,59841,1,0
168,160,60041,1,0
256,200,60241,2,2,B|312:232|312:248|312:240|208:248|208:264|208:256|288:312,1,200
275,303,60841,1,0
368,272,61041,2,2,B|416:264|424:224|424:192|392:176,2,100,2|0|4
72,56,64441,6,0,B|48:120|136:136,1,100
184,56,64841,1,8
232,136,65041,1,0
152,200,65241,2,0,B|176:240|256:240,1,100
152,296,65641,1,8
248,328,65841,1,0
344,320,66041,2,2,B|400:344|448:296|416:256,1,100,2|0
352,216,66441,2,2,B|368:160|440:168,1,100,2|0
368,88,66841,2,2,B|288:120|280:160|256:152|208:112|224:40,1,200
312,32,67441,1,4
312,32,67641,1,0
208,40,67841,5,0
160,128,68041,1,8
80,64,68241,2,0,B|40:104|56:168,1,100,0|0
160,128,68641,1,0
256,120,68841,2,0,B|264:184|208:224,1,100,8|0
120,208,69241,2,2,B|120:256|160:288|192:280,1,100,2|0
272,280,69641,2,2,B|296:336|368:320,1,100,2|0
432,256,70041,2,2,B|400:184|464:192|464:128|432:88|384:80|360:112,1,200
312,168,70641,1,2
264,80,70841,1,0
216,168,71041,1,4
264,256,71241,1,8
264,152,71441,1,0
176,96,71641,6,0,B|168:32|232:24,1,100
328,40,72041,2,8,B|392:64|344:144,1,100,8|0
360,224,72441,2,8,B|392:280|448:264,1,100,8|0
424,168,72841,2,0,B|400:120|456:128|440:56,1,100
496,160,73241,2,8,B|504:216|464:232|424:232,1,100,8|0
368,168,73641,1,0
296,104,73841,2,2,B|216:120|248:176|224:200|168:184|136:160|168:120|144:112|144:112|128:88,1,200
296,256,74641,2,2,B|216:272|248:328|224:352|168:336|136:312|168:272|144:264|144:264|128:240,1,200
56,96,75441,1,2
256,96,75841,5,0
344,48,76041,1,8
432,96,76241,1,0
352,152,76441,1,8
256,192,76641,1,0
168,144,76841,2,2,B|144:216|168:240|200:272|248:296|320:288|368:240,1,300,2|6
24,32,78241,5,0
64,120,78441,1,8
160,88,78641,1,0
176,184,78841,1,0
328,48,79241,1,8
424,80,79441,1,0
480,272,79841,1,0
424,192,80041,1,8
344,248,80241,1,0
280,176,80441,1,4
80,48,94241,5,8
176,72,94441,1,0
272,80,94641,2,2,B|320:144|360:168|416:336|224:328|176:216|184:136,1,400
64,320,95841,1,0
160,352,96041,1,8
256,336,96241,1,0
432,240,96641,2,0,B|384:200|472:184|416:128,1,100,2|8
368,224,97041,2,0,B|320:184|408:168|352:112,1,100,0|4
264,120,97441,5,0
160,128,97641,1,8
224,200,97841,1,0
128,216,98041,1,0
40,32,98441,1,8
72,128,98641,1,0
136,48,98841,6,2,B|200:24|240:88|216:152|160:200|152:256|160:312,1,300
354,285,99641,6,2,B|360:256|352:200|296:152|272:88|312:24|376:48,1,300
256,208,100641,5,0
200,128,100841,1,8
256,40,101041,1,0
304,128,101241,1,8
360,208,101441,1,0
312,296,101641,1,0
208,296,101841,2,0,B|144:296|128:232,1,100,2|0
112,144,102241,2,2,B|80:88|16:112,1,100,2|0
48,208,102641,2,0,B|64:248|64:264|32:304,1,100,0|4
48,96,103241,5,8
136,48,103441,1,0
328,112,103841,1,0
408,56,104041,1,8
416,152,104241,1,0
328,208,104441,1,0
256,192,104541,12,4,106041
72,128,107041,6,2,B|64:168|72:184|136:208,1,100,2|0
168,112,107441,2,2,B|272:56|336:144|320:224|320:224,2,200,2|2|0
216,200,108441,1,8
392,296,108841,2,2,B|304:152|232:432|88:304|120:256,1,300
24,304,109641,1,8
72,216,109841,1,0
168,216,110041,1,4
120,128,110241,5,0
48,56,110441,1,8
144,48,110641,1,0
216,112,110841,1,0
400,40,111241,1,8
320,104,111441,1,0
416,112,111641,6,2,B|376:168|392:200|480:304|336:256|328:192|272:208|328:328,1,300
189,316,112441,6,2,B|240:208|184:192|176:256|32:304|120:200|136:168|96:112,1,300
256,232,113441,5,0
344,192,113641,1,8
256,144,113841,1,0
168,192,114041,1,8
168,88,114241,1,0
344,88,114641,2,2,B|392:80|360:240|432:8|440:144|480:104|504:152|448:304,1,300
256,232,115641,1,4
80,72,119841,5,2
128,160,120041,1,0
176,72,120241,2,2,B|424:32|264:280,1,300
224,160,121041,1,2
64,272,121441,1,0
136,344,121641,1,0
232,328,121841,1,2
416,248,122241,1,2
360,168,122441,1,8
448,120,122641,1,0
368,56,122841,1,4
264,56,123041,5,0
264,152,123241,1,8
264,248,123441,1,0
264,344,123641,1,0
264,152,124041,1,8
264,56,124241,1,0
168,88,124441,6,2,B|104:152|160:216|144:288|56:280|72:224|152:200|208:304,1,300
311,287,125241,6,2,B|357:201|437:225|453:281|365:289|349:217|405:153|341:89,1,300
256,272,126241,5,2
256,168,126441,1,4
496,344,127041,1,8
424,272,127241,1,0
488,192,127441,1,8
328,72,127841,1,0
408,128,128041,1,8
336,312,128441,1,4
200,160,128841,5,8
112,208,129041,1,0
200,32,129441,1,0
272,96,129641,1,8
352,160,129841,1,0
432,216,130041,1,0
264,320,130441,1,8
264,216,130641,1,0
80,296,131041,1,0
136,216,131241,1,8
192,136,131441,1,0
256,56,131641,1,4
416,304,132641,5,2
232,232,133041,2,2,B|224:152|288:128|352:136|352:144|344:144|344:136|336:72|264:40|216:80,1,300,2|0
144,112,133841,1,2
160,312,134241,1,2
360,280,134641,1,2
312,192,134841,1,2
360,104,135041,1,0
400,192,135241,1,8
360,280,135441,1,4
456,104,135841,5,0
408,16,136041,1,8
304,16,136241,1,0
256,104,136441,1,0
360,280,136841,1,8
256,280,137041,1,0
176,216,137241,6,2,B|80:144|128:-8|184:16|200:80|160:72|192:160,1,300
325,141,138041,6,2,B|352:72|312:80|328:16|384:-8|432:144|336:216,1,300
136,192,139041,5,8
200,272,139241,1,0
376,192,139641,1,10
312,272,139841,1,0
256,80,140241,2,2,B|224:120|224:136|304:152|304:168|216:208|216:224|280:280,1,200
256,257,140841,1,8
176,320,141041,2,2,B|232:360|256:400|288:360|344:312,1,200,2|6
96,128,144441,6,0,B|96:64|176:48,1,100
192,144,144841,1,8
136,224,145041,1,0
232,224,145241,2,0,B|280:208|288:136,1,100
264,48,145641,1,8
360,80,145841,1,0
416,160,146041,2,2,B|424:224|368:264,1,100,2|0
304,184,146441,2,2,B|248:216|256:288,1,100,2|0
328,336,146841,2,2,B|264:360|232:360|224:304|168:288|168:328|136:368|104:336|96:312|128:344,1,200
152,232,147441,1,4
64,184,147641,6,0,B|56:120|136:120,1,100
208,168,148041,1,8
208,64,148241,1,0
296,104,148441,2,0,B|344:96|368:120|368:168,1,100
304,232,148841,1,8
376,296,149041,1,0
400,200,149241,2,2,B|440:160|480:176|504:208,1,100,2|0
472,288,149641,2,0,B|472:344|400:368,1,100,2|0
312,344,150041,2,2,B|224:296|200:248|208:208|216:176,1,200
112,192,150641,2,2,B|96:248|144:304,2,100,0|2|4
152,96,151241,5,8
248,96,151441,1,0
280,192,151641,2,0,B|336:192|376:152,1,100
368,256,152041,1,8
440,192,152241,1,0
440,88,152441,2,2,B|368:48|328:136,1,100,2|0
248,96,152841,2,2,B|200:136|216:200,1,100,2|0
256,272,153241,2,2,B|208:320|128:320|72:296|72:240,1,200
144,192,153841,2,0,B|136:136|56:136,2,100,0|2|4
240,152,154441,5,8
176,72,154641,1,0
272,64,154841,2,0,B|336:56|368:80|368:128,1,100
336,192,155241,1,8
264,256,155441,1,0
336,328,155641,1,0
408,256,155841,2,0,B|440:216|432:152,1,100,0|8
368,80,156241,2,0,B|320:48|248:72,1,100,0|8
184,112,156641,2,0,B|144:144|152:232,1,100,0|8
248,208,157041,1,0
408,320,157441,1,4
64,112,158241,5,0
88,208,158441,1,8
112,304,158641,1,0
136,208,158841,1,0
168,112,159041,1,0
192,208,159241,1,8
208,304,159441,1,0
248,208,159641,1,0
280,112,159841,1,0
304,208,160041,1,8
336,304,160241,1,0
360,208,160441,6,0,B|392:160|400:256|464:216,1,100
448,120,160841,1,8
360,72,161041,1,0
280,136,161241,2,0,B|200:144|176:88,1,100
112,40,161641,1,8
72,128,161841,1,0
152,192,162041,2,2,B|216:176|272:248,1,100,2|0
176,288,162441,2,2,B|224:336|304:296,1,100,2|0
368,296,162841,2,2,B|408:256|384:208|424:152|488:232|448:280|432:288,1,200
504,208,163441,2,4,B|480:136|400:144,1,100,4|0
456,48,163841,5,0
360,64,164041,1,8
288,128,164241,1,0
208,64,164441,2,0,B|144:32|80:64,1,100
40,128,164841,1,8
120,184,165041,1,0
200,240,165241,2,2,B|160:280|200:336,1,100,2|0
288,288,165641,2,2,B|336:248|384:296,1,100,2|0
464,336,166041,2,2,B|472:280|456:224|400:184|328:184,1,200
272,136,166641,2,0,B|248:80|320:32,2,100,0|2|4
368,96,167241,5,8
440,168,167441,1,0
384,256,167641,1,0
280,256,167841,1,0
176,256,168041,1,8
120,176,168241,1,0
168,88,168441,2,2,B|232:96|248:184,1,100,2|0
312,80,168841,2,2,B|264:88|352:184,1,100,2|0
408,96,169241,2,2,B|432:152|400:200|352:240|328:248|272:224,1,200
240,312,169841,2,0,B|288:352|336:320,2,100,0|2|4
280,216,170441,5,8
176,224,170641,1,0
128,136,170841,1,0
192,56,171041,1,0
280,104,171241,1,8
352,40,171441,1,0
432,96,171641,1,4
424,192,171841,6,0,B|424:304,1,100,0|8
320,288,172241,2,0,B|320:176,1,100,0|8
216,192,172641,2,8,B|216:296,1,100,0|8
112,296,173041,1,0
112,96,173441,1,4
256,192,173641,12,4,176441
256,192,202041,5,0
80,96,202441,1,8
40,184,202641,1,0
168,336,203041,1,0
248,280,203241,1,8
344,312,203441,1,0
424,256,203641,1,0
384,56,204041,1,8
296,112,204241,1,0
208,64,204441,1,0
144,144,204641,5,0
64,200,204841,1,8
144,256,205041,1,0
232,200,205241,1,0
400,304,205641,1,8
456,216,205841,1,0
280,312,206241,1,0
336,232,206441,1,8
280,144,206641,1,0
216,64,206841,1,0
416,64,207241,1,8
392,160,207441,1,0
216,64,207841,5,0
112,56,208041,1,8
72,152,208241,1,0
168,152,208441,1,0
72,328,208841,1,8
168,328,209041,1,0
344,240,209441,1,0
408,312,209641,1,8
472,240,209841,1,0
408,160,210041,1,0
232,64,210441,1,8
320,112,210641,1,0
128,176,211041,5,0
224,160,211241,1,8
184,248,211441,1,0
280,232,211641,1,0
80,256,212041,1,8
40,168,212241,1,0
176,24,212641,1,0
264,64,212841,1,8
352,24,213041,1,0
256,192,213241,12,4,214841
128,128,215041,5,0
208,64,215241,1,8
272,136,215441,1,0
296,232,215641,2,0,B|336:280|424:248,1,100
440,176,216041,1,8
464,80,216241,1,0
368,104,216441,2,2,B|344:136|352:168|288:184,1,100,2|0
208,152,216841,2,2,B|224:192|168:224|232:256,1,100,2|0
120,280,217241,2,2,B|56:184|104:104|136:80,1,200
208,48,217841,2,0,B|264:24|320:48,1,100,0|4
392,96,218241,5,0
456,168,218441,1,8
424,264,218641,1,0
368,184,218841,2,0,B|312:200|360:264|288:248,1,100
256,160,219241,1,8
216,248,219441,1,0
152,168,219641,2,2,B|80:264,1,100,2|0
160,320,220041,2,2,B|200:368|264:328,1,100,2|0
336,280,220441,2,2,B|384:304|440:264|384:192|376:168|472:160,1,200
480,256,221041,2,0,B|464:304|440:328|408:352,2,100,0|2|4
464,160,221641,5,8
384,104,221841,1,0
288,72,222041,2,0,B|200:88|208:152,1,100
288,184,222441,1,8
200,224,222641,1,0
280,280,222841,2,2,B|336:272|336:344|264:336,1,100,2|0
192,304,223241,2,2,B|136:336|128:264|80:288,1,100,2|0
24,344,223641,2,2,B|0:264|40:216|88:192|128:176,1,200
32,120,224241,2,0,B|80:88|144:104,2,100,0|2|4
56,24,224841,5,8
152,48,225041,1,0
248,48,225241,2,0,B|296:104|256:152,1,100
352,192,225641,1,8
408,104,225841,1,0
456,192,226041,1,0
408,280,226241,2,0,B|296:280,1,100,0|8
216,240,226641,2,0,B|112:168,1,100,0|8
88,272,227041,2,0,B|184:336,2,100,0|8|0
208,112,227841,1,4
96,120,230841,6,0,B|104:48|192:80,1,100
192,168,231241,1,8
256,88,231441,1,0
288,184,231641,2,0,B|352:192|344:264,1,100
424,192,232041,1,8
384,96,232241,1,0
472,48,232441,2,2,B|504:104|496:176,1,100,2|0
480,240,232841,2,2,B|440:280|368:264,1,100,2|0
288,264,233241,2,2,B|248:256|208:224|176:232|128:320|112:304|72:256,1,200
72,184,233841,2,4,B|112:200|152:176|200:160,1,100,4|0
104,96,234241,5,0
176,32,234441,1,8
248,96,234641,2,0,B|296:128|352:96,2,100
272,192,235241,1,8
368,192,235441,1,0
448,128,235641,2,2,B|488:168|440:256,1,100,2|0
408,312,236041,2,2,B|360:344|312:304,1,100,2|0
224,256,236441,2,2,B|176:216|136:224|136:256|152:296|120:296|96:288|56:248,1,200
120,176,237041,2,0,B|168:144|200:152|240:192,2,100,0|2|4
168,88,237641,5,8
264,64,237841,1,0
328,136,238041,2,0,B|360:176|344:232,1,100
400,312,238441,2,0,B|456:304|456:232,1,100,8|0
440,144,238841,2,2,B|416:88|360:64,1,100,2|0
472,64,239241,2,2,B|520:120|512:160|488:208,1,100,2|0
496,256,239641,2,2,B|480:336|424:360|368:360|328:344,1,200
256,312,240241,2,0,B|184:288|184:224,2,100,0|2|4
256,208,240841,5,8
176,144,241041,1,0
256,88,241241,2,0,B|184:40|128:56,1,100
80,104,241641,1,8
80,200,241841,1,0
168,248,242041,1,0
256,296,242241,2,0,B|296:328|360:304,1,100,0|8
304,216,242641,2,0,B|360:200|408:224,1,100,0|8
351,307,243041,2,0,B|407:339|455:307,2,100,0|8|0
368,104,243841,1,4
256,192,244041,12,4,246841
