osu file format v5

[General]
AudioFilename: 07 - Cover My Eyes.mp3
AudioLeadIn: 0
PreviewTime: 73562
Countdown: 1
SampleSet: Soft
StackLeniency: 0.7
Mode: 0
LetterboxInBreaks: 1

[Editor]
DistanceSpacing: 1.20000004768372
BeatDivisor: 8
GridSize: 8

[Metadata]
Title:Cover My Eyes
Artist:La Roux
Creator:Larto
Version:Hard
Source:
Tags:

[Difficulty]
HPDrainRate:6
CircleSize:4
OverallDifficulty:5
SliderMultiplier:1.5
SliderTickRate:2

[Events]
//Background and Video events
0,0,"La+Roux++0491.jpg"
//Break Periods
2,96067,104689
2,200511,210522
//Storyboard Layer 0 (Background)
//Storyboard Layer 1 (Fail)
//Storyboard Layer 2 (Pass)
//Storyboard Layer 3 (Foreground)
//Storyboard Sound Samples
//Background Colour Transformations
3,100,163,162,255

[TimingPoints]
18645,555.555555555556,4,2,1,100,1,0
55050,-100,4,2,1,51,0,0
55328,-100,4,2,1,100,0,0
57273,-100,4,2,1,53,0,0
57550,-100,4,2,1,100,0,0
71162,-100,4,1,1,71,0,0
71509,-100,4,2,1,100,0,0
72253,-100,4,1,1,72,0,0
72342,-100,4,2,1,100,0,0
73106,-100,4,1,1,71,0,0
73662,-100,4,1,1,71,0,1
91717,-100,4,2,1,100,0,0
123523,-100,4,2,2,100,0,0
123800,-100,4,2,1,100,0,0
157828,-100,4,1,1,71,0,0
158245,-100,4,2,1,100,0,0
158800,-100,4,1,1,69,0,0
159078,-100,4,2,1,100,0,0
159634,-100,4,1,1,71,0,0
160328,-100,4,1,1,69,0,1
196006,-100,4,1,1,100,0,0
196283,-100,4,1,1,70,0,0
196561,-100,4,1,1,56,0,0
196839,-100,4,1,1,48,0,0
197117,-100,4,1,1,37,0,0
197395,-100,4,1,1,25,0,0
197672,-100,4,1,1,0,0,0
197950,-100,4,1,1,71,0,0
211422,-100,4,1,1,100,0,1
229061,-100,4,1,1,85,0,0
229200,-100,4,1,1,91,0,1
246978,2222.22222222222,4,1,1,91,1,0
247394,-100,4,1,1,61,0,0
247672,-100,4,1,1,69,0,0
247950,-100,4,1,1,57,0,0
248228,-100,4,1,1,50,0,0
248505,-100,4,1,1,36,0,0
248783,-100,4,1,1,22,0,0
251144,-100,4,1,1,0,0,0
251283,-100,4,1,1,74,0,0

[HitObjects]
136,288,18922,5,0
80,224,19200,1,2
128,152,19478,1,0
208,176,19756,1,2
208,256,20033,2,2,B|272:304|368:288|424:208|376:192,1,225
471,183,21145,5,0
487,100,21422,1,2
410,62,21700,1,0
352,122,21978,1,2
392,192,22256,1,0
336,256,22533,6,0,B|176:256,1,150,4|0
160,176,23367,2,0,B|320:176,1,150,4|0
264,96,24200,1,2
184,96,24478,1,0
112,104,24756,6,0,B|56:168|48:256,1,150,4|0
104,304,25589,2,0,B|112:256|128:192|160:144,1,150,4|0
192,96,26422,1,2
272,96,26700,1,0
352,96,26978,6,2,B|416:120|448:160|472:216|456:288,1,225,2|0
400,336,28089,5,2
320,344,28367,1,0
248,304,28645,1,2
184,248,28922,2,2,B|144:208|136:152|144:80|216:48,1,225,2|0
280,24,30033,1,0
352,64,30311,6,2,B|368:104|432:64,2,75
280,112,31145,2,2,B|240:152|288:200,2,75,2|4|2
280,24,31978,1,0
208,72,32256,6,0,B|208:200|48:48|48:216,1,225,4|2
48,264,33367,1,0
48,352,33645,2,0,B|88:368|152:352|184:264|120:208,2,225,4|4|4
48,264,35589,1,0
40,184,35867,6,2,B|24:144|56:104,1,75,4|2
120,160,36422,2,0,B|160:120|120:64,1,75,0|2
72,48,36978,2,0,B|88:24|120:0|208:8|208:88,1,150,2|8
232,120,37811,1,0
264,192,38089,6,0,B|296:224|352:224,1,75,4|0
416,224,38645,2,2,B|472:216|488:160,1,75,0|2
472,104,39200,2,0,B|432:72|376:88|352:120|352:168,1,150,2|8
352,224,40033,1,0
360,296,40311,6,0,B|328:344|272:344,1,75,4|0
232,296,40867,2,0,B|176:296|160:256,1,75,2|0
208,184,41422,2,0,B|152:152|184:120|212:84|144:48,1,150,2|8
88,96,42256,1,0
64,176,42533,6,0,B|56:224|96:256,1,75,4|2
128,312,43089,2,0,B|168:288|208:360,1,75,0|2
264,368,43645,2,0,B|344:376|408:304,1,150,2|8
440,240,44478,1,0
416,160,44756,6,0,B|376:136|328:168,1,75,4|0
272,192,45311,2,0,B|232:216|184:192,1,75,2|0
120,176,45867,2,0,B|56:160|32:112|64:32,1,150,2|8
128,96,46700,1,0
208,112,46978,6,0,B|256:128|296:112,1,75,4|0
360,88,47533,2,0,B|408:64|456:96,1,75,2|0
482,154,48089,2,0,B|498:202|482:258|418:274,1,150,2|8
408,192,48922,1,0
391,109,49200,6,0,B|334:127|313:184|334:233,1,150,4|2
352,312,50033,1,0
272,328,50311,2,0,B|224:352|184:304,1,75,2|0
120,312,50867,2,0,B|136:264|184:240,1,75,8|0
248,248,51422,6,0,B|256:192|224:160|168:144|144:168,1,150,4|0
168,248,52256,2,2,B|104:256|72:224|56:200|72:152,1,150,2|0
72,88,53089,1,2
136,40,53367,1,0
216,40,53645,6,0,B|328:40,1,75,4|0
248,112,54200,2,2,B|360:112,1,75
408,120,54756,2,0,B|472:120|424:176|528:176,2,112.5,2|0|0
320,112,55867,6,0,B|208:112,1,75,4|0
288,184,56422,2,2,B|176:184,1,75
128,184,56978,2,0,B|64:184|112:128|8:128,2,112.5,2|0|0
208,184,58089,6,0,B|320:184,1,75,4|0
240,256,58645,2,2,B|352:256,1,75
408,248,59200,2,0,B|448:248|488:288|480:344|456:360,1,150,0|2
368,360,60033,1,2
280,360,60311,2,0,B|224:360|200:328,1,75,8|0
168,256,60867,2,0,B|120:232|80:248,1,75,0|8
24,296,61422,1,0
24,200,61700,1,0
24,296,61978,1,8
304,32,62533,5,4
368,96,62811,2,0,B|480:96,2,75,0|2|2
296,152,63645,2,2,B|272:184|304:216|304:216|344:256|288:304,1,150
304,368,64478,1,0
216,368,64756,5,4
152,304,65033,2,0,B|40:304,2,75,0|2|2
224,248,65867,2,2,B|248:216|216:184|216:184|176:144|232:96,1,150
216,32,66700,1,0
288,80,66978,5,4
216,136,67256,1,0
288,184,67533,1,2
224,248,67811,1,0
288,304,68089,2,2,B|312:344|355:352|400:336|420:287,1,150
448,224,68922,1,0
448,136,69200,6,0,B|448:24,1,75,8|0
368,96,69756,2,0,B|368:200,1,75,0|8
280,136,70311,2,0,B|280:40,2,75,0|0|8
64,248,71422,6,0,B|64:360,1,75,8|0
144,288,71978,2,0,B|144:184,1,75,0|8
232,248,72533,2,0,B|232:344,2,75,0|0|8
328,104,73644,6,0,B|304:88|256:80|200:88|168:112,1,150,4|0
120,168,74478,1,0
80,248,74756,1,8
120,328,75033,2,8,B|160:360|208:312,1,75
272,296,75589,2,8,B|296:312|336:320|400:312|432:288,1,150,12|0
464,224,76422,1,0
376,232,76700,2,2,B|352:216|312:208|248:216|216:240,1,150
160,280,77533,5,8
96,344,77811,1,0
64,256,78089,2,4,B|64:224|80:160|120:104|200:88|256:88|256:88|304:88|392:88|432:160,1,450
332,172,80033,2,2,B|277:158|253:158|197:166|176:192,1,150
208,264,80867,5,0
304,264,81145,1,0
392,264,81422,2,8,B|424:312|376:352,2,75
332,172,82256,2,4,B|277:158|253:158|197:166|176:192,1,150
104,224,83089,6,2,B|48:232|32:184,1,75
88,120,83645,2,8,B|64:80|112:48,1,75
192,40,84200,1,8
280,48,84478,2,0,B|320:48|320:96|320:96|320:152|264:152,1,150,12|0
200,200,85311,1,0
117,236,85589,2,2,B|65:236|65:236|9:240|-29:312|9:368|69:368|69:368|128:368,1,300,2|2
73,303,86978,5,4
73,303,87256,2,8,B|176:304,2,75
72,208,88089,2,0,B|232:208,1,150,8|0
184,128,88922,2,2,B|224:112|256:136|256:136|304:160|344:128,1,150
408,104,89756,5,4
488,144,90033,1,0
504,232,90311,1,8
488,320,90589,1,8
408,360,90867,1,8
320,360,91145,2,4,B|280:376|248:352|248:352|200:328|160:360,1,150,4|0
112,80,92256,6,0,B|152:56|208:88,1,75,0|2
256,128,92811,2,0,B|304:152|352:120,1,75,0|2
408,88,93367,2,0,B|448:64|488:96,2,75,0|4|2
296,336,94478,6,0,B|248:360|200:328,1,75,0|2
144,296,95034,2,0,B|104:272|64:304,2,75,0|4|2
256,192,95867,5,4
80,272,105589,5,0
160,304,105867,1,2
248,312,106145,1,0
336,304,106422,1,2
416,272,106700,2,2,B|456:248|480:216|496:160|488:128,1,150,2|0
456,64,107533,1,2
368,32,107811,1,0
280,40,108089,2,2,B|224:64|232:112,2,75
312,120,108922,2,0,B|312:176|272:200|224:208|184:192,1,150
152,344,110033,6,0,B|200:360|240:336,1,75,0|2
296,344,110589,2,0,B|336:360|371:342,1,75,0|2
256,192,111422,12,4,113645
72,96,114200,6,0,B|152:96,1,75
168,184,114756,2,2,B|256:184,1,75
256,96,115311,2,0,B|352:96,1,75,0|2
440,288,116422,6,2,B|360:288,1,75
344,200,116978,2,0,B|256:200,1,75,2|0
256,288,117533,2,0,B|160:288,1,75,2|2
88,288,118089,6,0,B|8:288|8:232|8:232|8:168|120:168,2,225,4|4|4
256,192,120311,12,4,122533
192,248,123089,5,2
272,272,123367,1,0
272,192,123644,2,2,B|280:176|280:176|336:176|336:176|320:136|320:136|376:128,1,150,2|10
432,136,124478,2,0,B|480:128|472:72,1,75,2|4
296,48,125311,5,2
208,64,125589,1,0
144,128,125867,2,2,B|120:176|112:224|192:272,1,150,0|8
216,176,126700,2,2,B|256:216|296:144,1,75,2|4
360,120,127256,6,0,B|408:160|392:216,1,75,0|2
384,272,127811,2,0,B|392:336|448:336,1,75,0|2
256,328,128645,1,8
256,192,129200,12,4,131978
88,320,132533,5,0
24,248,132811,1,0
88,176,133089,1,8
152,248,133367,2,0,B|168:296|208:336|264:344,1,150,2|0
352,360,134200,5,2
432,304,134478,1,0
416,208,134756,1,2
320,184,135033,1,0
248,248,135311,1,8
256,344,135589,1,0
336,272,135867,6,2,B|376:248|352:200,1,75,4|2
160,208,136700,2,0,B|129:177|150:140,1,75,0|2
256,40,137533,1,8
256,192,138089,12,4,140311
56,88,140589,5,0
128,152,140867,1,2
144,56,141145,1,0
216,120,141422,2,2,B|248:128|288:136|272:184|352:200,1,150
440,208,142256,2,2,B|496:224|512:272|488:304|440:312,1,150,2|0
360,344,143089,5,2
280,288,143367,1,0
208,216,143645,2,2,B|192:160|208:120|256:96|304:104,1,150
272,192,144478,2,0,B|288:248|272:288|224:312|176:304,1,150,2|0
120,256,145311,6,0,B|64:240|96:176,2,75,2|0|2
392,256,146422,1,2
256,40,146978,1,12
176,80,147256,5,0
256,128,147533,1,8
328,176,147811,1,0
256,224,148089,5,8
184,272,148366,1,0
256,320,148644,1,8
432,272,149200,6,0,B|472:248|480:192,1,75,4|0
480,120,149756,2,2,B|480:56|432:48,1,75,2|0
392,120,150311,2,2,B|360:152|312:152|280:128|280:128|248:104|192:104|160:136,1,225
88,136,151422,6,0,B|48:160|40:216,1,75,4|0
40,288,151978,2,2,B|40:352|88:360,1,75,2|0
128,288,152533,2,2,B|160:256|208:256|240:280|240:280|272:304|328:304|360:272,1,225,2|2
184,184,153922,5,8
256,136,154200,1,0
328,96,154478,1,0
328,184,154756,1,8
184,96,155311,1,2
72,312,155867,5,8
72,312,156145,1,0
72,224,156422,1,0
72,224,156700,1,8
144,264,156978,1,0
144,264,157256,1,0
144,176,157533,1,8
440,312,158089,5,8
440,312,158367,1,0
440,224,158644,1,0
440,224,158922,1,8
368,264,159200,1,0
368,264,159478,1,0
368,176,159755,1,8
216,272,160311,5,4
128,256,160589,1,0
80,176,160867,1,8
104,88,161145,1,0
184,48,161422,1,8
272,48,161700,2,8,B|320:40|352:64,1,75
360,144,162256,2,0,B|336:168|280:168|240:152|224:112,1,150,4|0
144,160,163089,1,0
208,224,163367,2,2,B|280:272|376:232,1,150
424,184,164200,1,0
480,112,164478,1,0
392,104,164756,6,4,B|312:152|256:112|256:112|192:64|104:104,1,300
48,160,166145,1,0
136,168,166422,1,8
216,192,166700,2,8,B|272:224|328:224|376:208,1,150
440,168,167533,5,0
488,240,167811,1,0
416,296,168089,1,8
328,312,168367,1,8
240,280,168645,1,8
216,192,168922,2,8,B|272:224|328:224|376:208,1,150,8|0
440,168,169756,5,8
416,80,170033,1,0
336,40,170311,1,8
248,32,170589,2,8,B|208:32|176:72,1,75
256,104,171145,2,2,B|240:176|160:216|56:168,1,225,2|2
128,104,172256,2,4,B|160:144|176:224|160:264|128:320,1,225
48,352,173367,1,0
8,272,173645,1,8
48,192,173922,6,8,B|48:144|104:128,2,75
96,272,174756,2,4,B|128:328|176:344|232:344,1,150
311,343,175589,2,2,B|355:344|403:328|435:272,1,150,2|0
464,192,176422,6,4,B|464:144|408:128,1,75
343,96,176978,2,4,B|281:79|235:102|196:142,1,150
140,198,177811,2,2,B|109:229|86:274|103:336,1,150,2|2
176,288,178645,5,8
256,336,178922,1,0
336,288,179200,1,8
256,248,179478,1,8
256,160,179756,1,8
344,160,180033,2,2,B|344:72|296:56|232:72,1,150
256,160,180867,1,0
168,160,181145,2,4,B|168:72|216:56|280:72,1,150
256,160,181978,1,0
256,248,182256,1,0
168,248,182533,6,4,B|168:296|168:344|256:344|256:344|344:344|344:288|344:232,1,300
432,240,183922,1,0
384,160,184200,1,0
296,152,184478,2,2,B|296:120|296:96|248:96|208:96|208:128|208:161,1,150
224,216,185311,6,8,B|184:232|152:200,1,75
296,312,185867,2,8,B|336:328|368:296,1,75,8|8
256,264,186422,1,0
296,152,186700,2,0,B|296:120|296:96|248:96|208:96|208:128|208:161,1,150
200,240,187533,6,0,B|200:288|136:280,1,75
88,216,188089,2,8,B|40:216|40:160,1,75
48,80,188645,1,8
136,48,188922,2,2,B|200:24|264:24|264:24|312:32,1,150
376,48,189756,1,0
376,136,190033,2,4,B|312:112|248:112|248:112|200:120,1,150
136,136,190867,1,8
176,216,191145,1,0
256,248,191422,1,12
343,239,191700,5,0
328,324,191978,1,0
401,371,192256,1,0
475,338,192533,1,2
489,252,192811,1,2
417,207,193089,1,2
408,288,193367,1,4
185,59,193922,5,0
112,12,194200,1,0
38,45,194477,1,0
24,131,194755,1,2
96,176,195033,1,2
170,144,195311,1,2
104,96,195589,1,4
296,263,196145,5,0
344,192,196423,1,0
296,119,196701,1,0
215,119,196978,1,2
168,192,197256,1,2
216,264,197534,1,2
256,192,197812,1,4
256,192,197950,12,4,200311
256,192,211422,5,4
208,264,211700,5,0
136,312,211978,2,8,B|96:288|120:232,1,75
120,160,212533,2,8,B|128:112|88:96,2,75
192,216,213367,2,4,B|248:264|344:264,1,150
408,216,214200,1,0
320,216,214478,2,2,B|264:264|168:264,1,150
96,216,215311,5,0
64,128,215589,1,0
104,48,215867,2,6,C|128:72|152:48|176:72|200:48|224:72|248:48|272:72|296:48|320:72|344:48|368:80,1,375
424,128,217533,1,0
448,200,217811,2,6,C|424:224|400:200|376:224|352:200|328:224,1,150,6|6
256,208,218645,5,8
256,296,218922,1,0
256,208,219200,1,8
256,120,219478,1,0
256,208,219756,1,8
168,208,220033,2,0,C|160:203|136:227|112:203|88:227|64:203,1,150,0|0
72,120,220867,6,4,B|120:80|152:88,1,75
224,64,221422,2,8,B|272:48|328:80,1,75
374,86,221978,2,8,B|408:80|440:120,1,75,8|4
480,200,222533,2,4,B|504:272|456:328|400:328,1,150
344,288,223367,1,0
256,288,223645,1,8
168,288,223922,1,0
85,323,224200,2,8,B|56:328|8:272|32:200,1,150
96,136,225033,6,4,B|200:136,1,75
136,216,225589,2,2,B|224:216,1,75
301,216,226145,2,6,B|376:216,1,75
341,136,226701,2,0,B|416:136,1,75
424,48,227256,5,0
344,80,227533,1,8
256,48,227811,1,0
168,80,228089,1,8
88,48,228366,1,0
104,136,228645,1,8
184,176,228922,2,2,B|264:216|344:176|352:152,1,150
288,336,229756,6,0,B|328:320|360:288,1,75,0|8
408,232,230311,2,0,B|440:192|416:128,1,75,0|8
392,64,230867,1,0
296,24,231145,2,0,B|192:0|88:48|80:112,1,225,8|8
72,168,232256,1,0
64,256,232533,2,0,B|80:320|112:336,1,75,8|0
184,352,233089,1,8
272,336,233367,1,0
328,264,233645,6,14,B|368:208|376:160|368:120|336:88|304:96|288:152,1,225
247,152,234756,2,14,B|218:122|186:131|175:175|188:214|219:251|281:280,1,225
256,192,235867,12,4,237533
256,192,237811,5,8
256,192,238089,1,4
224,336,238645,6,0,B|184:320|152:288,1,75,0|8
104,232,239200,2,0,B|72:192|96:128,1,75,0|8
120,64,239756,1,0
216,24,240034,2,0,B|320:0|424:48|432:112,1,225,8|8
440,168,241145,1,0
448,256,241422,2,0,B|432:320|400:336,1,75,8|0
328,352,241978,1,0
240,336,242256,1,8
184,264,242533,6,12,B|144:208|136:160|144:120|176:88|208:96|224:152,1,225
265,152,243644,2,14,B|294:122|326:131|337:175|324:214|293:251|231:280,1,225
256,192,244756,12,4,246700
216,121,247256,5,0
168,192,247534,1,0
216,265,247812,1,0
297,265,248089,1,2
344,192,248367,1,2
296,120,248645,1,2
256,200,248922,2,4,B|240:240|256:264|256:264|280:296|248:352,1,150
252,344,251422,1,4
