osu file format v6

[General]
AudioFilename: Colourless Colour.mp3
AudioLeadIn: 0
PreviewTime: 45534
Countdown: 1
SampleSet: Normal
StackLeniency: 0.7
Mode: 0
LetterboxInBreaks: 1

[Editor]
Bookmarks: 15308,45544,113575,173812
DistanceSpacing: 0.800000011920929
BeatDivisor: 4
GridSize: 16

[Metadata]
Title:Colourless Colour
Artist:La Roux
Creator:JarJarJacob
Version:Relaxed
Source:
Tags:Synthpop Elly Jackson Eleanor Ben Langmaid Symbolic m980 Color Colorless

[Difficulty]
HPDrainRate:4
CircleSize:4
OverallDifficulty:4
SliderMultiplier:1.2
SliderTickRate:1

[Events]
//Background and Video events
0,0,"larouxback.jpg"
//Break Periods
2,75975,82014
//Storyboard Layer 0 (Background)
//Storyboard Layer 1 (Fail)
//Storyboard Layer 2 (Pass)
//Storyboard Layer 3 (Foreground)
//Storyboard Sound Samples
//Background Colour Transformations
3,100,163,162,255

[TimingPoints]
185,472.44094488189,4,2,0,100,1,0
45539,-50,4,1,0,100,0,1
60598,-100,4,1,0,100,0,0
60657,-50,4,1,0,100,0,1
75775,-100,4,1,0,100,0,0
76011,-100,4,2,0,100,0,0
113570,-50,4,1,0,100,0,1
128629,-100,4,1,0,100,0,0
128688,-50,4,1,0,100,0,1
143807,-100,4,1,0,100,0,0

[HitObjects]
48,192,15303,1,4
96,192,15539,1,0
144,192,15775,1,2
240,192,16247,2,0,B|336:112|496:192,1,240,0|0
352,288,17901,1,0
304,288,18137,1,0
304,288,18610,1,2
208,288,19082,5,4
256,208,19555,2,8,B|256:112,1,60,8|0
256,48,20263,2,0,B|256:128,1,60,0|8
160,128,20972,1,0
192,224,21444,5,2
256,304,21917,1,0
320,224,22389,1,2
256,144,22862,5,4
256,48,23334,2,0,B|160:48,1,60,8|0
336,48,24279,1,8
256,144,24751,5,2
256,48,25223,2,0,B|352:48,1,60,8|0
176,48,26168,1,8
176,48,26405,1,8
192,96,26641,6,0,B|192:152|336:152|336:96,2,180,4|2|8
192,288,28531,2,0,B|192:232|336:232|336:288,2,180,2|2|8
192,288,30185,1,8
192,288,30421,1,4
192,192,30893,5,2
256,112,31366,1,0
320,192,31838,1,0
328,288,32310,2,0,B|328:400|184:400|184:280,1,240,2|2
184,292,33728,1,2
256,224,34200,6,0,B|256:64,2,120,4|8|0
256,320,35618,1,8
256,224,36090,1,0
160,224,36562,5,0
208,144,37035,1,2
304,144,37507,1,2
328,184,37744,1,0
352,224,37980,5,4
256,224,38452,1,8
208,224,38688,1,0
256,96,39397,1,8
352,160,39870,5,2
256,160,40342,1,8
208,160,40578,1,0
256,288,41287,1,8
256,288,41523,1,8
208,288,41759,6,0,B|48:288,2,120,4|8|0
256,192,43177,1,8
304,288,43649,2,0,B|464:288,1,120,2|8
448,192,44594,5,8
400,192,44830,1,8
352,192,45066,1,8
304,192,45303,1,8
256,192,45539,5,4
128,240,46011,1,8
192,368,46484,1,2
336,368,46956,1,10
400,240,47429,1,4
400,176,47665,6,2,B|400:56|128:56|128:176,1,360,2|2
256,240,48846,1,10
256,240,49082,1,8
256,176,49318,5,4
112,128,49791,1,8
256,80,50263,1,2
400,128,50736,1,10
256,176,51208,5,4
400,224,51681,1,8
256,272,52153,1,2
112,224,52626,1,10
112,224,52862,1,8
112,224,53098,1,4
256,64,53807,6,2,B|160:160|272:304,2,240
288,128,54988,2,2,B|336:176|288:256,1,120,6|8
432,304,55696,6,0,B|304:384|48:336,1,360,0|8
81,341,56641,1,8
81,341,56877,1,4
80,272,57114,6,2,B|16:144|96:0,1,240
144,80,57822,2,2,B|224:80|176:144|128:208|96:272|208:272,1,240,2|8
256,144,58767,6,0,B|384:144,2,120,4|0|8
256,272,59712,2,0,B|128:272,2,120,0|0|8
256,208,60421,1,8
256,144,60657,5,4
112,144,61129,1,8
112,288,61602,1,2
256,288,62074,1,10
256,144,62547,5,4
400,144,63019,1,8
400,288,63492,1,2
256,288,63964,1,10
192,288,64200,1,8
128,288,64436,5,4
160,144,64909,1,8
256,48,65381,1,2
352,144,65854,1,10
384,288,66326,5,4
256,208,66799,1,8
128,288,67271,1,2
256,368,67744,1,10
256,368,67980,1,8
256,368,68216,1,4
256,144,68925,6,2,B|80:144,3,120,2|2|2|8
256,368,70106,2,2,B|0:368,1,240,6|8
16,304,70814,6,0,B|384:304,1,360,0|8
376,304,71759,1,8
376,304,71996,1,4
448,304,72232,5,0
336,208,72704,1,0
336,208,72940,1,2
176,208,73413,1,8
176,208,73649,6,2,B|80:304,2,120,2|4|2
176,208,74358,1,8
256,288,74830,5,8
256,224,75066,1,8
256,160,75303,1,8
256,96,75539,1,8
256,32,75775,1,0
464,192,83334,5,4
416,192,83570,1,0
368,192,83806,1,2
272,192,84278,2,0,B|176:112|16:192,1,240,0|0
80,272,85696,1,2
128,272,85933,1,0
176,272,86169,1,2
176,368,86641,1,0
304,288,87113,5,4
256,208,87586,2,8,B|256:112,1,60,8|0
256,48,88294,2,0,B|256:128,1,60,0|8
352,128,89003,5,0
320,224,89475,1,8
256,304,89948,1,0
192,224,90420,1,8
224,184,90657,1,8
256,144,90893,5,4
256,48,91365,2,0,B|352:48,1,60,8|0
176,48,92310,1,8
256,144,92782,5,2
256,48,93254,2,0,B|160:48,1,60,8|0
336,48,94199,1,8
336,48,94436,1,8
320,96,94672,6,0,B|320:152|176:152|176:96,2,180,4|2|8
320,288,96562,2,0,B|320:232|176:232|176:288,2,180,2|2|8
320,288,98216,1,8
320,288,98452,1,4
320,192,98924,5,2
256,112,99397,1,0
224,152,99633,1,0
192,192,99870,2,0,B|192:304|336:304|336:184,2,240,2|0|2
256,128,102231,6,0,B|256:16,2,90,4|0|0
256,128,103649,1,2
256,224,104121,5,0
352,224,104593,1,8
304,144,105066,1,0
208,144,105538,1,8
184,184,105775,1,8
160,224,106011,5,4
256,224,106483,1,8
304,224,106719,1,0
256,96,107428,1,8
160,160,107901,5,2
256,160,108373,1,8
304,160,108609,1,0
256,288,109318,1,8
256,288,109554,1,8
304,288,109791,6,0,B|464:288,2,120,4|8|0
256,192,111208,1,8
208,288,111681,2,0,B|48:288,1,120,2|8
64,192,112625,5,8
112,192,112861,1,8
160,192,113097,1,8
208,192,113334,1,8
256,192,113570,5,4
384,240,114042,1,8
320,368,114515,1,2
176,368,114987,1,10
144,304,115224,1,0
112,240,115460,1,4
112,176,115696,6,2,B|112:56|384:56|384:176,1,360,2|2
256,240,116877,1,10
256,240,117113,1,8
256,176,117349,5,4
400,128,117822,1,8
256,80,118294,1,2
112,128,118767,1,10
184,152,119003,1,0
256,176,119239,5,4
112,224,119712,1,8
256,272,120184,1,2
400,224,120657,1,10
400,224,120893,1,8
400,224,121129,1,4
256,64,121838,6,2,B|352:160|240:304,2,240
224,128,123019,2,2,B|176:176|224:256,1,120,6|8
80,304,123727,6,0,B|208:384|464:336,1,360,0|8
430,341,124672,1,8
430,341,124908,1,4
432,272,125145,6,2,B|496:144|416:0,1,240
368,80,125853,2,2,B|288:80|336:144|384:208|416:272|304:272,1,240,2|8
256,144,126798,6,0,B|128:144,2,120,4|0|8
256,208,127507,1,0
256,272,127743,2,0,B|384:272,2,120,0|0|8
256,208,128452,1,8
256,144,128688,5,4
400,144,129160,1,8
400,288,129633,1,2
256,288,130105,1,10
256,216,130342,1,0
256,144,130578,5,4
112,144,131050,1,8
112,288,131523,1,2
256,288,131995,1,10
320,288,132231,1,8
384,288,132467,5,4
352,144,132940,1,8
256,48,133412,1,2
160,144,133885,1,10
144,216,134122,1,0
128,288,134357,5,4
256,208,134830,1,8
384,288,135302,1,2
256,368,135775,1,10
256,368,136011,1,8
256,368,136247,1,4
256,144,136956,6,2,B|432:144,2,120
256,224,137665,1,8
256,368,138137,2,2,B|512:368,1,240,6|8
496,304,138845,6,0,B|128:304,1,360,0|8
136,304,139790,1,8
136,304,140027,1,4
64,304,140263,5,0
160,192,140735,1,0
208,144,140972,1,2
256,96,141208,1,8
304,144,141444,1,8
352,192,141680,6,2,B|448:288,2,120,2|4|2
304,144,142389,1,8
256,288,142861,5,8
256,224,143097,1,8
256,160,143334,1,8
256,96,143570,1,8
256,32,143806,1,0
