osu file format v6

[General]
AudioFilename: La Roux - Bulletproof.mp3
AudioLeadIn: 0
PreviewTime: 48387
Countdown: 1
SampleSet: Normal
StackLeniency: 0.7
Mode: 0
LetterboxInBreaks: 1

[Editor]
DistanceSpacing: 1.10000002384186
BeatDivisor: 4
GridSize: 8

[Metadata]
Title:Bulletproof
Artist:La Roux
Creator:Larto
Version:Insane
Source:
Tags:

[Difficulty]
HPDrainRate:10
CircleSize:4
OverallDifficulty:8
SliderMultiplier:2.6
SliderTickRate:2

[Events]
//Background and Video events
0,0,"laroux.jpg"
Video,-961,"La Roux - Bulletproof.avi"
//Break Periods
2,64636,69768
2,117186,133753
//Storyboard Layer 0 (Background)
//Storyboard Layer 1 (Fail)
//Storyboard Layer 2 (Pass)
//Storyboard Layer 3 (Foreground)
//Storyboard Sound Samples
//Background Colour Transformations
3,100,0,0,0

[TimingPoints]
208,486.57800486618,4,1,0,70,1,0
48873,-100,4,1,0,70,0,0
64445,-100,4,1,0,70,0,0
134275,-200,4,1,1,17,0,0
140114,-200,4,1,1,0,0,0
140235,-200,4,1,1,15,0,0
149359,-100,4,1,0,71,0,0
165636,-100,4,1,0,71,0,1

[HitObjects]
256,128,14075,1,0
384,160,14318,2,2,B|440:216|376:280,1,130,2|0
344,216,14683,2,2,B|304:152|344:88,1,130,2|0
376,40,15048,1,0
256,40,15291,1,4
136,40,15535,1,4
192,152,15778,6,2,B|192:328,1,130
320,280,16265,2,2,B|320:104,1,130
416,56,16751,2,4,B|368:88|264:64,1,130
224,56,17116,2,8,B|144:96|176:208|248:216,1,195,8|0
255,360,17724,6,0,B|291:360|291:360|331:344|331:344|392:344,2,130,2|0|2
256,256,18454,1,0
256,144,18697,1,2
352,88,18941,1,0
256,24,19184,1,2
160,88,19427,1,0
72,184,19671,6,4,B|56:248|56:248|72:312,1,130
192,312,20157,2,8,B|208:248|208:248|192:184,1,130,8|0
320,192,20644,2,0,B|305:255|305:255|321:319,1,130,4|0
440,310,21130,2,0,B|456:248|456:248|440:176,1,130,8|0
352,88,21617,5,2
224,88,21860,1,0
144,192,22104,1,0
144,192,22225,2,2,B|40:160|104:40,1,130
82,94,22590,1,0
256,16,22833,6,4,B|256:176,2,130
336,120,23563,6,2,B|368:192|296:248,1,130
203,237,24050,2,2,B|144:192|176:120,1,130
264,160,24536,2,4,B|296:224|376:216,1,130
424,200,24901,2,8,B|496:136|464:24|376:8,1,195,0|4
256,24,25510,5,8
160,80,25753,1,0
352,80,25996,1,8
256,136,26239,2,0,B|256:272,1,130,0|14
160,200,26726,1,6
352,200,26969,1,6
432,304,27213,6,0,B|496:232|456:168,1,130,0|2
352,200,27699,1,0
352,200,27821,2,2,B|264:120|320:16,1,195
320,26,28429,5,4
200,136,28672,1,0
256,280,28916,2,8,B|256:368,2,65,8|0|8
205,138,29402,6,2,B|206:74|150:42|107:53,1,130,2|0
69,66,29767,2,2,B|13:98|13:162|45:194,1,130,2|0
77,218,30132,2,2,B|132:250|188:218|200:175,1,130,2|8
312,136,30619,5,0
400,264,30862,1,8
256,280,31105,1,0
76,217,31348,6,0,B|88:128|168:96,1,130,4|0
133,261,31835,2,0,B|189:309|285:269,1,130,8|0
256,120,32322,2,2,B|328:136|360:200,1,130
279,216,32687,2,2,B|272:104|424:112,1,195,2|0
440,256,33295,5,8
321,321,33538,1,0
191,321,33781,1,0
72,256,34025,1,0
192,184,34268,6,2,B|352:184,1,130
256,80,34755,1,2
256,80,34998,1,0
128,128,35241,6,0,B|96:200|152:256,1,130,4|0
366,248,35728,2,4,B|416:200|384:120,1,130,4|0
320,176,36093,2,2,B|352:224|472:224|488:144,1,195,2|2
336,56,36701,1,8
336,56,36822,1,0
256,232,37187,1,4
104,184,37431,5,0
192,304,37674,2,2,B|256:344|336:296,1,130,2|0
360,256,38039,2,2,B|400:192|352:112,1,130,2|0
312,80,38404,1,4
256,232,38647,1,4
200,80,38890,1,4
128,160,39134,6,2,B|312:160,1,130
384,160,39620,2,2,B|200:160,1,130
192,296,40107,2,4,B|256:328|344:288,3,130
456,216,41080,2,2,B|472:136|440:72|368:72,1,195
312,216,41688,1,0
56,216,42053,2,4,B|40:136|72:72|144:72,1,195
200,216,42661,1,2
424,272,43026,6,0,B|456:200|416:120,1,130,8|0
328,208,43513,2,0,B|296:136|336:56,1,130,8|0
187,81,44000,2,0,B|216:136|184:208,1,130,8|0
84,145,44486,2,0,B|56:200|88:272,1,130,8|0
256,288,44973,1,14
408,288,45216,5,0
408,96,45459,1,2
408,288,45703,1,0
104,96,46189,5,0
104,288,46432,1,2
104,96,46676,1,0
496,24,47162,5,0
424,128,47406,2,2,B|328:232,1,130,10|0
296,168,47770,2,2,B|200:272,1,130,10|0
152,312,48135,2,4,B|72:272|136:176,2,130
256,320,48865,5,2
368,264,49109,1,0
400,208,49230,1,0
432,152,49352,1,8
320,56,49595,2,0,B|152:56,1,130,0|2
256,192,50082,2,0,B|416:192,1,130,0|8
256,320,50568,1,0
256,320,50812,5,2
144,264,51055,1,0
112,208,51177,1,0
80,152,51298,1,8
192,56,51541,2,0,B|360:56,1,130,0|2
256,192,52028,2,0,B|96:192,2,130,0|8|0
256,192,52758,12,4,54704
40,192,54948,5,0
152,288,55191,1,2
208,304,55312,2,2,B|320:328|360:224,1,130,0|2
360,224,55677,2,0,B|400:152|360:72,1,130,8|0
256,8,56164,1,8
256,160,56407,6,0,B|288:232|392:224,1,130,0|2
256,160,56894,2,0,B|224:232|120:224,1,130,0|8
256,160,57380,2,0,B|256:0,1,130,0|2
256,30,57745,1,0
256,30,57867,1,0
264,168,58110,1,8
264,168,58232,1,0
264,168,58354,1,0
376,280,58597,5,2
496,192,58840,1,0
368,104,59083,1,8
144,104,59327,1,0
16,192,59570,1,2
144,280,59813,1,0
256,168,60057,2,0,B|256:24,1,130,8|0
256,192,60543,12,0,62489
176,368,62733,5,0
336,320,62976,1,8
176,280,63219,1,2
256,256,63341,1,0
336,232,63463,1,2
176,184,63706,1,0
336,104,63949,1,8
176,104,64193,1,0
256,256,64436,1,4
256,64,70518,5,4
56,160,70761,2,0,B|144:160,1,65,10|8
120,224,71005,2,0,B|200:224,1,65,8|2
184,288,71248,2,0,B|272:288,1,65,8|0
256,352,71491,2,0,B|440:352,2,130,10|8|10
96,352,72221,5,4
16,248,72464,1,0
104,152,72708,1,8
24,48,72951,1,0
104,152,73194,2,2,B|176:216|280:216,1,130
208,136,73559,2,6,B|136:192|136:280|192:336,1,195,6|2
304,304,74167,5,8
432,304,74411,1,0
304,304,74654,1,8
432,304,74897,1,0
208,80,75141,5,12
80,80,75384,1,0
208,80,75627,1,12
80,80,75870,1,0
144,200,76114,6,2,B|208:280|312:200,1,130
216,168,76479,2,2,B|152:232|200:336|272:352,1,195,2|2
344,264,77087,1,8
384,144,77330,1,0
288,56,77573,1,8
288,56,77695,2,0,B|256:112|152:160|72:88,1,195,0|4
8,48,78303,5,0
48,168,78547,2,0,B|72:248,1,65,8|0
120,192,78790,2,0,B|184:232,2,65,0|0|8
256,152,79276,1,0
256,280,79520,1,8
256,152,79763,1,0
352,72,80006,5,6
352,312,80250,1,2
160,312,80493,1,2
160,72,80736,1,2
392,187,80979,6,4,B|328:219|264:219|240:211,1,130
200,200,81344,2,2,B|120:208|112:328|192:376|240:336,1,195
320,344,81953,2,0,B|400:296|336:224,1,130,8|0
296,280,82318,2,2,B|272:232|272:192|333:144|400:193,1,195,2|8
424,312,82926,1,2
256,344,83169,1,2
88,312,83412,1,2
256,192,83656,5,0
128,192,83899,2,4,B|96:120|136:48,1,130
184,104,84264,2,2,B|248:136|336:128|392:88,1,195
472,24,84872,2,4,B|520:104|440:200,1,130
368,224,85359,2,8,B|336:296|400:384,2,130
480,280,86089,5,0
360,288,86332,2,2,B|280:304|176:264,1,130,2|0
168,256,86697,2,2,B|88:192|112:96,1,130,2|0
104,80,87062,1,0
256,192,87305,1,4
408,80,87548,1,0
416,272,87792,5,2
256,352,88035,1,2
96,272,88278,1,2
256,192,88521,1,2
152,72,88765,2,0,B|168:0|240:0|256:0,1,130,8|0
232,96,89130,2,0,B|328:104|344:184|336:224,1,130,8|0
256,192,89495,1,8
96,272,89738,5,2
256,352,89981,1,2
416,272,90224,1,2
256,192,90468,1,2
360,88,90711,2,0,B|344:16|272:16|256:16,1,130,8|0
280,96,91076,2,0,B|184:104|168:184|176:224,1,130,8|0
256,192,91441,1,8
256,312,91684,6,4,B|208:256|312:240|240:176,1,130
32,64,92414,6,0,B|192:64,1,130,0|2
32,192,92901,1,0
168,312,93144,1,0
168,312,93266,2,2,B|0:312,1,130
256,128,93874,5,0
336,296,94117,2,2,B|400:216|376:120,1,130,2|0
312,200,94482,2,2,B|288:264|224:320,1,130,2|0
206,244,94847,2,4,B|278:180|246:76,1,130
255,128,95333,1,4
112,192,95577,6,2,B|80:248|120:320|184:320,1,130
372,306,96063,2,2,B|392:312|432:248|400:192,1,130
256,240,96550,1,8
256,240,96672,1,0
256,240,96793,1,0
256,240,96915,2,4,B|192:168|336:112|224:24,1,195
160,104,97523,5,2
352,184,97766,1,0
160,184,98010,1,2
352,104,98253,1,0
352,256,98496,2,12,B|344:328|264:344|168:336|160:248,1,260
160,104,99226,6,0,B|168:32|256:16|344:24|352:112,1,260
256,104,99834,2,0,B|256:248,1,130
40,336,100443,1,0
184,336,100686,1,0
328,336,100929,1,0
472,336,101172,1,0
256,336,101416,5,4
256,336,101659,1,8
224,232,101902,1,10
288,200,102024,1,8
224,160,102146,1,8
288,128,102267,1,10
224,88,102389,1,8
288,56,102511,1,8
224,16,102632,2,12,B|152:-8|56:24,2,130
360,272,103362,6,2,B|400:200|368:120,1,130
256,192,103849,1,8
216,128,103970,1,0
256,64,104092,1,0
144,128,104335,2,2,B|104:200|136:280,1,130
256,192,104822,1,8
296,256,104943,1,0
256,320,105065,1,0
96,320,105308,5,4
176,192,105552,1,0
256,320,105795,1,4
336,192,106038,1,0
416,320,106282,2,6,B|464:256|464:128|376:24,2,260
256,192,107376,12,4,109201
48,192,109444,5,0
120,296,109688,2,2,B|168:336|264:336,1,130,2|0
256,280,110052,2,2,B|328:280|408:232,1,130,2|0
360,192,110417,2,4,B|424:160|440:72,2,130,4|4|6
232,184,111147,5,0
120,104,111391,1,8
232,16,111634,1,0
344,104,111877,1,2
344,248,112120,1,0
232,328,112364,1,8
120,248,112607,1,0
32,192,112850,6,2,B|104:160|208:192,1,130
288,200,113337,2,8,B|368:216|464:176,1,130
488,88,113823,1,0
376,24,114067,2,4,B|304:88|200:88|128:16,1,260
256,192,115040,12,4,116986
32,64,134503,5,0
32,64,134868,2,0,B|32:200|264:272|376:128,1,422.5,2|4
488,192,136814,2,0,B|488:56|256:-16|144:128,1,422.5,2|2
256,8,138639,2,2,B|376:120|136:264|264:376,1,390
256,368,140342,1,0
256,88,142288,5,4
107,220,142653,2,0,B|256:368|256:368|425:203,1,422.5,2|4
445,101,144600,2,0,B|378:32|298:16|250:16|202:16|114:40|58:112,1,422.5,2|2
114,150,146424,2,2,B|138:105|216:76|283:74|314:89|402:113|428:193,1,325,2|10
256,197,148127,5,12
256,32,150074,5,6
176,96,150317,1,0
112,176,150560,1,8
104,216,150682,1,0
112,256,150803,1,0
176,336,151047,2,4,B|248:368|320:344,1,130
240,240,151533,2,2,B|320:256|376:192,1,130
432,112,152020,5,6
416,64,152141,1,0
368,80,152263,1,0
280,112,152506,1,8
240,128,152628,1,0
216,88,152750,1,0
152,16,152993,2,4,B|80:56|56:136,1,130
48,200,153480,2,2,B|48:304|128:360,1,130
168,352,153966,6,2,B|256:384|360:368|440:312,1,260,6|8
464,248,154696,1,0
376,272,154939,2,2,B|288:312|184:304|104:232,1,260,2|0
40,168,155669,1,2
120,80,155912,2,0,B|192:40|280:64,1,130
360,160,156399,6,2,B|208:160,1,130,2|0
237,225,156764,2,2,B|101:225,1,130,2|0
40,224,157129,2,4,B|-24:280|48:360,2,130
152,288,157859,5,6
200,304,157980,1,0
256,312,158102,1,0
360,312,158345,2,8,B|432:264|368:160,1,130,8|0
360,88,158832,5,6
312,72,158954,1,0
256,64,159075,1,0
152,64,159319,2,0,B|80:112|144:216,1,130,8|0
256,256,159805,6,2,B|256:112,3,130
344,128,160778,1,4
168,256,161265,1,4
344,368,161751,2,2,B|440:344|512:272|504:64|392:-16|232:-8|136:16|96:112,1,650
40,184,163211,1,2
40,184,163333,1,0
256,192,163698,5,4
256,304,163941,1,0
160,240,164184,2,2,B|120:176|168:104,1,130,2|0
200,79,164549,2,2,B|265:41|336:92,1,130,2|0
352,128,164914,1,6
192,192,165157,1,4
352,240,165401,6,2,B|432:240|432:328,1,130,2|0
256,336,165887,2,4,B|176:336|176:248,1,130,4|0
160,144,166374,2,2,B|80:144|80:56,1,130,2|0
256,48,166860,2,0,B|336:48|336:136,1,130,4|0
320,256,167347,6,2,B|152:256,1,130,2|0
192,128,167834,1,2
320,128,168077,1,8
192,128,168320,1,2
80,192,168563,1,4
432,192,169050,1,4
256,192,169537,12,0,171483
80,120,171726,5,0
152,120,171848,1,0
224,120,171970,1,8
80,192,172213,5,2
152,192,172334,1,0
224,192,172456,1,2
80,264,172699,5,0
152,264,172821,1,0
224,264,172943,2,4,B|296:296|384:248,1,130
352,120,173429,6,2,B|424:152|512:104,1,130
376,24,173916,2,8,B|304:-8|216:40,1,130
248,168,174402,6,2,B|176:136|88:184,1,130
32,264,174889,2,8,B|104:296|192:248,1,130,8|8
256,352,175376,5,4
416,192,175862,1,4
256,32,176349,1,4
96,192,176835,1,4
256,192,177322,12,0,179268
160,72,179511,5,0
216,56,179633,1,0
272,80,179755,1,8
304,136,179876,1,0
280,192,179998,1,0
224,216,180120,1,0
184,200,180241,2,6,B|113:160|150:80,2,130
184,336,180971,6,2,B|336:336,1,130
288,256,181458,2,8,B|432:256,1,130
312,176,181944,2,2,B|160:176,1,130
208,256,182431,2,8,B|64:256,1,130
96,128,182918,6,2,B|48:64|104:0,1,130
200,8,183404,2,8,B|248:72|192:136,1,130,8|8
312,127,183891,2,2,B|264:72|312:8,1,130,2|2
415,8,184377,2,8,B|464:64|416:128,1,130
320,216,184864,5,2
192,216,185107,1,2
96,296,185350,2,4,B|136:392|288:384|344:360,1,260
424,280,186080,2,8,B|464:208|408:136,2,130
256,312,186810,5,6
256,72,187297,1,6
184,192,187783,1,2
256,192,187905,1,0
328,192,188027,1,8
320,344,188270,6,2,B|144:344,1,130
104,256,188756,2,8,B|104:80,1,130
192,40,189243,2,2,B|368:40,1,130
408,128,189730,2,8,B|408:304,1,130
256,192,190216,1,2
256,192,190459,1,2
192,40,190703,6,8,B|368:40,1,130
408,128,191189,2,2,B|408:304,1,130
320,344,191676,2,8,B|144:344,1,130
104,256,192163,2,2,B|104:80,1,130
256,192,192892,12,4,194839
336,16,195082,5,0
176,64,195325,1,8
336,104,195568,1,2
256,128,195690,1,0
176,152,195812,1,2
336,192,196055,1,0
176,240,196298,1,8
336,288,196542,1,0
256,128,196785,1,4
