osu file format v7

[General]
AudioFilename: Tu Peor Error.mp3
AudioLeadIn: 0
PreviewTime: 31080
Countdown: 0
SampleSet: Normal
StackLeniency: 0.7
Mode: 0
LetterboxInBreaks: 0
SkinPreference:Default

[Editor]
Bookmarks: 11518,31110,50706,60498,80100,99682,119274,129069
DistanceSpacing: 0.800000011920929
BeatDivisor: 4
GridSize: 8

[Metadata]
Title:Tu Peor Error
Artist:La Quinta Estacion
Creator:Beuchi-chan
Version:Normal
Source:
Tags:collab #spanish soyah Zakiu sesito71 Astom Nerv_Mario

[Difficulty]
HPDrainRate:5
CircleSize:4
OverallDifficulty:5
SliderMultiplier:1.5
SliderTickRate:2

[Events]
//Background and Video events
0,0,"BG.jpg"
//Break Periods
2,50939,59335
2,119511,127906
//Storyboard Layer 0 (Background)
//Storyboard Layer 1 (Fail)
//Storyboard Layer 2 (Pass)
//Storyboard Layer 3 (Foreground)
//Storyboard Sound Samples
//Background Colour Transformations
3,100,163,162,255

[TimingPoints]
1760,612.244897959184,4,2,0,50,1,0
20574,-100,4,1,0,50,0,0
60370,-100,4,1,0,50,0,0
69554,-100,4,1,0,50,0,0

[Colours]
Combo1 : 255,255,255
Combo2 : 128,0,128
Combo3 : 255,128,192

[HitObjects]
113,278,11555,1,0
113,278,11862,1,0
113,278,12168,2,2,B|25:230|89:182,1,112.5,2|2
166,192,13086,1,0
224,192,13392,1,0
400,278,14004,5,0
400,278,14311,1,0
400,278,14617,2,2,B|488:230|424:182,1,112.5,2|2
346,192,15535,1,0
288,192,15841,1,0
168,192,16453,5,2
110,171,16760,1,0
89,118,17066,2,2,B|167:37|256:19|378:46|426:124|426:124,1,375,2|0
402,171,18902,1,2
346,196,19208,1,0
286,201,19515,2,0,B|285:306|285:306,4,75,2|0|2|0|0
136,192,21351,5,0
96,144,21657,1,0
56,96,21964,2,0,B|112:48|216:88,1,150
198,81,22882,1,8
198,81,23188,1,8
376,192,23800,5,0
416,240,24106,1,0
456,288,24413,2,0,B|400:336|296:296,1,150
313,302,25331,1,8
313,302,25637,1,8
256,192,26249,6,2,B|192:240|192:240|128:176|208:96,1,225,2|0
236,68,27474,1,0
293,50,27780,1,0
346,79,28086,1,2
256,192,28698,6,2,B|320:144|320:144|384:208|304:288,1,225,2|0
275,315,29923,1,0
218,333,30229,1,0
165,304,30535,1,2
136,192,31147,5,4
136,192,31760,5,2
195,192,32066,1,0
256,192,32372,2,0,B|307:134|254:87,1,112.5
259,92,32984,2,0,B|174:73|174:73,2,75
259,92,33902,1,0
259,92,34208,1,2
256,192,34821,6,0,B|307:251|254:298,1,112.5
260,291,35433,2,0,B|175:311|175:311,2,75
260,291,36351,1,0
260,291,36657,1,2
378,271,37270,5,0
412,221,37576,1,0
466,195,37882,1,8
412,163,38188,1,0
378,113,38494,1,0
256,192,38800,12,4,40331
256,192,40943,5,0
376,192,41555,5,2
316,192,41862,1,0
256,192,42168,2,0,B|205:251|258:298,1,112.5
251,291,42780,2,0,B|336:311|336:311,2,75
251,291,43698,1,0
251,291,44004,1,2
256,192,44617,6,0,B|205:134|258:87,1,112.5
252,92,45229,2,0,B|337:73|337:73,2,75
252,92,46147,1,0
252,92,46453,1,2
134,113,47066,5,0
100,163,47372,1,0
46,189,47678,1,8
100,221,47984,1,0
134,271,48290,1,0
256,192,48596,12,4,50739
64,192,60535,5,0
94,140,60841,1,0
144,106,61147,1,0
201,89,61453,2,2,B|235:168|364:169|413:109,1,225
396,126,62525,1,2
448,192,62984,5,0
417,243,63290,1,0
367,277,63596,1,0
311,295,63902,2,2,B|277:216|148:215|99:275,1,225
116,258,64974,1,2
203,154,65433,6,0,B|254:200|330:140,1,112.5,0|0
308,155,66045,1,2
280,99,66351,1,0
255,45,66657,1,2
231,99,66964,1,0
203,155,67270,1,2
203,155,67576,1,2
256,192,67882,12,0,69719
256,192,70331,5,4
225,243,70637,1,0
225,303,70943,1,8
278,331,71249,1,0
337,317,71555,2,2,B|416:272|369:195|369:195|288:269,1,225
256,192,72780,5,0
286,140,73086,1,0
286,80,73392,1,8
233,52,73698,1,0
174,66,74004,2,2,B|101:79|143:189|143:189|224:115,1,225
256,264,75382,6,0,B|160:264,1,75
181,264,75841,1,8
120,264,76147,1,0
120,264,76453,2,8,B|64:192|120:160,2,112.5,8|0|8
256,120,77831,6,0,B|352:120,1,75
331,120,78290,1,8
392,120,78596,1,0
392,120,78902,2,8,B|448:192|392:224,2,112.5,8|0|8
392,120,80127,1,4
256,192,80739,5,2
196,192,81045,1,0
136,192,81351,2,0,B|102:233|102:233|172:291|64:306,2,150
256,192,83188,5,2
315,192,83494,1,0
375,192,83800,2,0,B|410:151|410:151|340:93|448:78,2,150
255,192,85637,5,2
255,192,85943,1,2
255,192,86249,2,0,B|213:121|292:120|251:36|251:36,2,150
256,192,87780,12,0,89311
340,203,89923,6,0,B|416:161|326:65,2,150,4|2|0
298,245,91453,1,0
256,288,91759,1,0
213,245,92066,1,0
171,203,92372,2,0,B|95:161|185:65,2,150,0|2|0
171,203,93902,6,0,B|256:67|342:210,1,225,0|0
296,248,95127,1,0
256,288,95433,1,2
216,248,95739,1,0
256,192,96045,12,0,99719
200,312,100637,5,0
200,312,100790,2,8,B|200:208,4,75
200,312,102474,1,2
200,312,102780,1,2
312,312,103086,5,0
312,312,103239,2,8,B|312:224,4,75
312,312,104770,1,8
312,312,105076,1,8
256,88,106300,5,0
256,88,106453,2,8,B|256:176,5,75,8|8|8|8|0|0
256,163,108290,5,4
187,268,108902,2,0,B|256:323|340:262,1,150,4|0
368,228,109821,5,2
386,171,110127,1,2
362,116,110433,1,0
312,83,110739,1,0
253,69,111045,2,0,B|253:168|253:168,2,75
195,83,111964,5,0
145,116,112270,1,2
121,171,112576,1,2
139,228,112882,1,0
181,271,113188,2,8,B|250:326|334:265,3,150
257,172,115637,5,8
257,172,115943,1,0
257,172,116249,1,8
257,172,116555,1,0
256,192,116862,12,4,119311
256,192,129106,5,4
157,123,129719,5,2
199,81,130025,1,0
254,59,130331,2,0,B|330:21|345:101|357:116|357:116,1,112.5,8|0
346,95,130943,2,0,B|311:156|385:212|426:139|426:139,1,150,8|0
355,261,132168,5,2
313,303,132474,1,0
258,325,132780,2,0,B|182:363|167:283|155:268|155:268,1,112.5,8|0
166,289,133392,2,0,B|200:227|126:171|85:244|85:244,1,150,8|0
84,117,134923,6,0,B|168:57|256:35|348:52|451:130|451:130,1,375
339,191,137066,1,2
255,104,137678,1,0
172,190,138290,2,2,B|172:280|259:298|259:298,1,150,2|6
318,301,139208,5,0
365,264,139515,1,2
408,185,139974,2,0,B|424:120|381:69|381:69,1,112.5,8|0
387,77,140739,1,8
297,76,141198,1,0
194,83,141657,5,0
147,120,141964,1,2
104,199,142423,2,0,B|88:264|131:315|131:315,1,112.5,8|0
124,306,143188,1,8
215,308,143647,1,0
428,267,144719,6,0,B|344:327|256:349|164:332|61:254|61:254,1,375
173,193,146862,1,2
257,280,147474,1,0
340,194,148086,2,2,B|340:104|253:86|253:86,1,150,2|6
193,88,149004,5,0
136,109,149311,1,8
102,159,149617,1,0
98,218,149923,2,0,B|97:309|97:309,2,75,0|8|8
256,304,151147,5,0
319,296,151453,1,0
376,275,151759,1,8
410,225,152066,1,0
414,166,152372,2,0,B|415:75|415:75,2,75,0|8|8
335,61,153596,6,0,B|277:18|205:94|264:143|264:143,1,150
256,192,154515,1,2
256,251,154821,2,0,B|247:239|306:288|234:364|176:321,1,150
256,192,156045,12,4,158494
