osu file format v9

[General]
AudioFilename: La Luna - Take Me (Nightcore Mix).mp3
AudioLeadIn: 2000
PreviewTime: 57212
Countdown: 0
SampleSet: Soft
StackLeniency: 0.7
Mode: 0
LetterboxInBreaks: 0

[Editor]
Bookmarks: 51497,92345,148711
DistanceSpacing: 0.8
BeatDivisor: 2
GridSize: 8

[Metadata]
Title:Take Me (Nightcore Mix)
Artist:La Luna
Creator:akrolsmir
Version:Normal
Source:
Tags:Happy Hardcore Trance Electronic

[Difficulty]
HPDrainRate:3
CircleSize:3
OverallDifficulty:3
ApproachRate:4
SliderMultiplier:1.2
SliderTickRate:1

[Events]
//Background and Video events
0,0,"NormalBackground.jpg"
//Break Periods
2,35472,45368
2,81136,91032
2,103968,113150
//Storyboard Layer 0 (Background)
//Storyboard Layer 1 (Fail)
//Storyboard Layer 2 (Pass)
//Storyboard Layer 3 (Foreground)
//Storyboard Sound Samples
//Background Colour Transformations
3,100,163,162,255

[TimingPoints]
-402,356.748192627823,4,2,0,50,1,0
7446,-100,4,2,0,65,0,0
12262,-100,4,2,0,90,0,0
15473,-100,4,2,0,70,0,0
16543,-100,4,2,0,90,0,0
21002,-100,4,2,0,70,0,0
23856,-100,4,2,0,100,0,0
46688,-100,4,2,0,80,0,0
58104,-100,4,2,0,100,0,1
69342,-100,4,2,0,100,0,0
79509,-100,4,1,0,75,0,0
92352,-100,4,2,0,80,0,0
102341,-100,4,1,0,75,0,0
114470,-100,4,2,0,70,0,0
123746,-100,4,1,0,75,0,0
126600,-100,4,1,0,75,0,1
126957,-100,4,2,0,100,0,1
137837,-100,4,2,0,100,0,0
149432,-100,4,2,0,100,0,1
160669,-100,4,2,0,100,0,0
171015,-100,4,2,0,5,0,0

[Colours]
Combo1 : 147,255,160
Combo2 : 0,128,102
Combo3 : 0,198,50
Combo4 : 40,94,147

[HitObjects]
16,184,311,2,0,B|16:256|80:288,1,120,2|0
118,296,846,2,0,B|246:296,1,120,2|2
88,152,2273,6,0,B|104:80|208:64,1,120,0|2
200,192,3878,6,0,B|256:216|320:192,1,120,0|2
317,193,4414,1,0
400,144,4770,1,0
400,240,5127,1,2
224,208,6019,6,0,B|208:280|128:280|128:280,1,120,2|0
89,279,6554,2,0,B|89:159,1,120,2|2
376,336,7981,6,0,B|448:336|472:272,1,120,2|0
376,64,9586,6,0,B|416:120|376:176,1,120,2|0
376,175,10122,1,0
248,120,10478,2,0,B|112:120,1,120,2|0
40,272,12440,6,0,B|72:384|232:384|264:264,1,300,8|0
152,176,13867,2,0,B|184:64|352:64|376:184,1,300,8|0
464,64,15294,2,0,B|464:200,4,120,8|0|2|0|4
368,328,18148,5,8
368,232,18505,2,0,B|336:136|224:112,1,180,0|2
160,236,19575,1,8
160,332,19932,2,0,B|56:324|16:212,1,180,0|2
23,86,21002,5,8
90,18,21359,1,0
157,85,21716,2,4,B|336:86,1,180
80,144,23856,6,0,B|240:144,1,120,0|2
256,64,24570,2,0,B|312:32|376:64,1,120,0|8
456,112,25283,2,0,B|376:232,1,120,0|2
384,304,25997,2,0,B|324:333|268:301,1,120,0|8
272,208,26710,6,0,B|144:136,1,120,0|2
80,104,27424,2,0,B|48:152|72:208|128:232,1,120,0|8
88,304,28137,1,0
88,304,28494,1,2
176,264,28851,2,0,B|280:320,1,120,0|8
376,320,29564,5,4
416,232,29921,1,2
416,232,30278,2,0,B|464:176|416:112,1,120,0|8
336,168,30992,1,0
336,168,31348,1,2
272,240,31704,2,0,B|144:240,1,120,0|8
80,304,32418,6,0,B|32:248|80:184,1,120,0|2
32,104,33132,2,0,B|152:104,1,120,0|8
208,184,33845,1,0
264,104,34202,1,2
320,184,34559,2,0,B|320:304,1,120,0|8
416,304,35272,1,4
232,216,46688,6,0,B|232:156,1,60,0|8
144,136,47223,2,0,B|152:72|224:64|224:64|352:64,2,240,0|2|4
384,152,49542,6,2,B|324:152,1,60,2|10
224,152,50077,2,0,B|120:152|120:312|240:312,2,240,0|2|4
400,232,52218,6,0,B|280:232,2,120,0|2|0
424,88,53466,1,0
392,48,53645,1,0
344,32,53823,1,0
296,32,54002,2,0,B|224:24|188:92,1,120
72,200,55072,6,0,B|72:264,1,60,0|8
160,296,55607,2,0,B|240:344,1,60,0|8
307,326,56142,2,0,B|363:294,1,60,0|8
443,249,56677,1,4
288,56,57391,6,0,B|224:56,3,60,2|0|0|2
80,48,58461,2,0,B|40:104|80:160,1,120,4|0
176,160,59174,1,2
272,160,59531,2,0,B|272:296,1,120,0|8
192,336,60245,1,0
96,336,60601,1,2
96,240,60958,6,0,B|128:184|208:168,1,120,0|8
190,172,61494,1,0
286,172,61850,2,0,B|348:183|380:239,1,120,0|4
216,344,63099,6,0,B|152:344,3,60,2|0|0|2
96,264,63991,2,0,B|24:264,1,60,0|4
32,168,64526,2,0,B|96:176|152:112,1,120,0|2
144,32,65239,2,0,B|264:32,1,120,0|8
320,112,65953,1,0
416,112,66309,1,2
480,184,66666,6,0,B|512:240|480:304,1,120,0|8
482,299,67201,1,0
387,297,67558,2,0,B|357:237|389:181,1,120,0|4
96,240,69520,6,0,B|96:120,1,120,0|2
96,120,70055,1,0
96,120,70412,1,2
240,104,70947,2,8,B|296:64|352:104,1,120
351,103,71482,1,0
351,103,71839,1,8
304,216,72374,6,0,B|424:216,1,120,0|2
448,312,73088,2,0,B|384:312,3,60,2|0|0|4
88,328,75228,6,0,B|48:272|88:216,1,120,0|2
136,216,75763,2,0,B|256:216,1,120,0|8
408,216,76655,1,0
488,160,77012,1,2
488,160,77190,1,0
480,64,77547,1,8
344,112,78082,6,2,B|216:112,1,120
176,112,78617,2,2,B|104:112,1,60
67,112,78974,2,4,B|27:168|67:224,1,120
256,192,79509,12,4,80936
112,40,92352,6,0,B|168:16|232:40,1,120,0|8
320,72,93066,1,0
387,139,93422,1,8
319,206,93779,1,0
251,273,94136,1,8
318,340,94493,1,4
472,232,95206,6,0,B|472:96,1,120,0|8
376,104,95920,2,0,B|320:72|256:104,1,120,0|8
256,200,96633,2,0,B|136:200,1,120,0|8
40,200,97347,1,2
208,112,98060,6,0,B|264:80|328:112,2,120,0|8|0
144,184,99130,1,8
232,224,99487,1,0
144,264,99844,1,8
232,304,100200,1,4
375,288,100736,6,0,B|439:264,1,60,0|8
368,200,101271,2,0,B|416:136,1,60,0|8
312,128,101806,2,0,B|312:64,1,60,0|8
216,80,102341,1,4
256,192,102519,12,4,103768
428,192,114470,6,0,B|368:192,3,60,2|0|0|2
304,120,115362,1,0
304,120,115541,2,4,B|192:64,1,120,4|0
104,56,116254,1,2
152,136,116611,2,0,B|32:136,1,120,0|8
32,232,117324,1,0
99,299,117681,1,2
168,232,118038,6,0,B|216:232|248:264|248:312,1,120,0|8
344,304,118751,1,0
410,234,119108,1,2
464,152,119465,2,0,B|408:112|352:152,1,120,0|8
264,184,120178,6,0,B|240:152|272:112,3,60,2|0|0|2
284,84,120892,1,4
368,40,121249,1,4
448,96,121605,2,0,B|472:160|448:216,1,120,0|2
376,280,122319,1,0
376,280,122676,1,8
352,184,123032,2,0,B|232:184,1,120,0|8
256,192,123746,12,4,126600
400,296,127313,5,2
336,224,127670,1,2
240,224,128027,2,0,B|240:88,1,120,0|8
320,48,128741,1,0
416,48,129097,1,2
416,144,129454,6,0,B|384:200|304:216,1,120,0|8
321,211,129989,1,0
226,212,130346,2,0,B|164:201|132:145,1,120,0|4
296,40,131595,6,0,B|360:40,3,60,2|0|0|2
416,120,132487,2,0,B|488:120,1,60,0|4
480,216,133022,2,0,B|416:208|360:272,1,120,0|2
368,352,133735,2,0,B|248:352,1,120,0|8
192,272,134449,1,0
96,272,134805,1,2
32,200,135162,6,0,B|0:144|32:80,1,120,0|8
29,84,135697,1,0
125,87,136054,2,0,B|155:147|123:203,1,120,0|4
416,144,138016,6,0,B|416:264,1,120,0|2
416,264,138551,1,0
416,264,138908,1,2
272,280,139443,2,8,B|216:320|160:280,1,120
160,280,139978,1,0
160,280,140335,1,8
208,168,140870,6,0,B|88:168,1,120,0|2
64,72,141584,2,0,B|128:72,3,60,2|0|0|4
424,56,143724,6,0,B|467:120|424:168,1,120,0|2
376,168,144259,2,0,B|256:168,1,120,0|8
104,168,145151,1,0
24,224,145508,1,2
24,224,145686,1,0
32,320,146043,1,8
168,272,146578,6,2,B|296:272,1,120
336,272,147113,2,2,B|408:272,1,60
444,272,147470,2,4,B|484:216|444:160,1,120
120,112,148718,6,0,B|128:40|208:40|208:40|264:40,1,180,2|0
405,40,149788,2,0,B|405:160,1,120,4|0
312,160,150502,1,2
216,160,150859,2,0,B|176:216|216:272,1,120,0|8
296,320,151573,2,0,B|416:320,1,120,0|2
483,252,152286,5,0
415,184,152642,1,2
415,184,152821,1,0
320,184,153178,1,2
252,251,153534,1,4
40,352,154426,6,0,B|40:288,3,60,2|0|0|2
168,352,155496,1,4
168,352,155853,1,0
128,264,156210,2,0,B|96:200|136:144,1,120,2|0
208,208,156923,1,4
208,208,157280,2,0,B|240:256|296:256|296:256|320:256,1,120,0|2
296,160,157994,6,0,B|416:160,1,120,0|2
416,160,158529,1,2
496,112,158886,1,2
496,208,159242,1,4
320,240,160848,5,0
320,144,161204,1,2
320,144,161383,2,0,B|248:152|232:216,1,120,0|8
96,264,162275,1,0
96,360,162631,1,2
96,360,162810,2,0,B|24:352|8:280,1,120,0|8
144,240,163702,6,0,B|144:120,1,120,0|2
176,32,164415,2,0,B|144:16|112:32,3,60,2|0|0|4
456,136,166556,6,2,B|400:96|336:136,1,120,0|2
309,165,167091,2,0,B|309:285,1,120,0|8
164,285,167983,2,0,B|101:264|101:193,1,120,0|2
100,145,168517,2,0,B|220:145,1,120,0|8
352,144,169410,5,2
424,208,169766,1,2
352,272,170123,1,0
352,272,170302,2,4,B|232:272,1,120
256,192,171550,12,0,174761
