osu file format v9

[General]
AudioFilename: La Luna - Take Me (Nightcore Mix).mp3
AudioLeadIn: 2000
PreviewTime: 57212
Countdown: 0
SampleSet: Soft
StackLeniency: 0.7
Mode: 0
LetterboxInBreaks: 0

[Editor]
Bookmarks: 75039,77714
DistanceSpacing: 1
BeatDivisor: 4
GridSize: 4

[Metadata]
Title:Take Me (Nightcore Mix)
Artist:La Luna
Creator:akrolsmir
Version:Insane
Source:
Tags:Happy Hardcore Trance Electronic

[Difficulty]
HPDrainRate:7
CircleSize:5
OverallDifficulty:7
ApproachRate:8
SliderMultiplier:1.4
SliderTickRate:1

[Events]
//Background and Video events
0,0,"HardBackground2.jpg"
//Break Periods
2,35471,45763
2,81136,91427
2,103968,113545
//Storyboard Layer 0 (Background)
//Storyboard Layer 1 (Fail)
//Storyboard Layer 2 (Pass)
//Storyboard Layer 3 (Foreground)
//Storyboard Sound Samples
//Background Colour Transformations
3,100,163,162,255

[TimingPoints]
-402,356.748192627823,4,2,0,40,1,0
935,-100,4,1,0,40,0,0
1203,-100,4,2,0,65,0,0
6643,-100,4,1,0,65,0,0
6822,-100,4,2,0,65,0,0
12262,-100,4,2,0,90,0,0
15651,-100,4,2,0,70,0,0
16543,-100,4,2,0,90,0,0
21002,-100,4,2,0,70,0,0
22429,-100,4,1,0,75,0,0
23856,-100,4,2,0,100,0,0
56677,-100,4,1,0,75,0,0
58104,-100,4,2,0,100,0,1
69342,-100,4,2,0,100,0,0
79509,-100,4,1,0,75,0,0
92352,-100,4,2,0,80,0,0
102341,-100,4,1,0,75,0,0
114470,-100,4,2,0,70,0,0
123746,-100,4,1,0,16,0,0
123835,-100,4,1,0,21,0,0
123924,-100,4,1,0,26,0,0
124013,-100,4,1,0,31,0,0
124103,-100,4,1,0,36,0,0
124192,-100,4,1,0,41,0,0
124281,-100,4,1,0,47,0,0
124370,-100,4,1,0,51,0,0
124459,-100,4,1,0,57,0,0
124549,-100,4,1,0,61,0,0
124638,-100,4,1,0,65,0,0
124727,-100,4,1,0,69,0,0
124816,-100,4,1,0,73,0,0
126600,-100,4,2,0,100,0,1
137837,-100,4,2,0,100,0,0
149432,-100,4,2,0,100,0,1
160580,-100,4,2,0,100,0,0
172620,-100,4,2,0,5,0,0

[Colours]
Combo1 : 139,254,168
Combo2 : 57,130,101
Combo3 : 170,200,170
Combo4 : 43,137,145

[HitObjects]
304,304,311,2,0,B|224:304,1,70
176,344,668,2,0,B|172:300|136:295,1,70
65,294,1024,2,0,B|28:299|24:343,1,70,4|0
184,192,2273,5,0
328,192,2630,1,4
480,88,3878,6,0,B|472:40|424:40|424:40|360:40,1,140
315,89,4414,2,0,B|256:89|256:89|208:89|200:41,1,140
60,41,5127,1,4
40,289,6019,6,0,B|56:258|96:252,1,70
100,322,6376,2,0,B|116:352|160:352,1,70
160,284,6732,2,0,B|160:216,1,70,4|0
376,296,7981,5,0
456,184,8338,1,4
324,92,9586,6,0,B|284:68|228:68|188:92,1,140
190,161,10122,1,0
70,89,10478,1,0
196,27,10835,1,4
432,192,12262,5,8
432,192,12440,1,8
80,192,13689,5,8
80,192,13867,1,8
256,80,15116,5,8
256,80,15294,1,8
256,220,15651,2,2,B|232:252|256:292,1,70
315,255,16008,2,2,B|386:255,1,70
455,255,16365,2,2,B|455:207|408:192,1,70
104,80,17970,5,8
40,48,18148,1,8
408,304,19397,5,8
472,336,19575,1,8
220,337,21002,6,2,B|180:345|156:329|147:286,1,70
212,265,21359,2,2,B|300:265,1,70
356,265,21716,2,2,B|372:193|300:169,1,70
272,80,22251,1,4
164,97,22429,6,0,B|199:64,1,35
160,165,22697,2,0,B|186:194,1,35
91,163,22965,2,0,B|62:189,1,35
93,96,23232,2,0,B|63:63,1,35
128,132,23500,1,8
128,132,23678,1,8
128,256,23856,6,4,B|208:256,1,70
184,320,24213,2,0,B|256:320,1,70
289,320,24481,1,2
323,320,24570,2,2,B|323:224,1,70,2|10
328,176,24927,2,2,B|240:176,1,70,2|10
192,168,25282,6,0,B|200:136|184:112|144:112,1,70
120,168,25639,2,0,B|96:176|80:200|77:229,1,70
113,220,25907,1,0
147,220,25996,2,2,B|147:308,1,70,2|10
147,360,26353,2,2,B|99:360|88:322,1,70,2|10
64,264,26709,6,0,B|64:232|48:208|8:200,1,70
104,200,27066,2,0,B|208:200,1,70
208,200,27334,1,0
242,200,27423,2,2,B|258:160|298:144|338:160,1,70,2|10
232,120,27780,2,2,B|104:120,1,70,2|10
92,116,28136,6,0,B|68:84|96:44,1,70
160,32,28493,2,0,B|192:72|232:56,1,70
256,64,28761,1,0
288,72,28850,2,6,B|336:80|352:128,1,70,2|14
280,144,29207,2,4,B|280:240,1,70,2|14
280,283,29563,6,0,B|336:332,1,70
384,280,29921,2,0,B|416:248,1,35
356,208,30188,2,0,B|380:184,1,35
436,136,30455,2,2,B|412:104|364:112,2,70,10|2|10
448,208,30990,5,0
492,264,31169,1,0
436,308,31348,2,0,B|424:328|404:328,1,35
340,328,31615,2,0,B|316:324|312:304,1,35
352,248,31882,2,2,B|314:220|272:248,2,70,10|2|10
360,176,32417,6,0,B|408:184|432:136,1,70
421,81,32775,1,0
421,81,32864,1,0
350,81,33043,1,0
350,81,33132,1,0
289,46,33309,1,10
224,56,33488,1,2
176,104,33666,1,10
136,160,33844,6,0,B|64:160,1,70
52,228,34202,2,0,B|80:228|80:256,1,35
52,308,34469,2,0,B|67:345|107:319,1,35
136,292,34736,2,4,B|172:308|208:292,2,70,14|2|14
256,192,35271,1,4
224,232,46688,6,0,B|272:224|304:280,1,70
340,300,47045,1,0
399,337,47223,2,2,B|420:366|464:352,1,70
440,284,47580,2,0,B|336:220,1,70
416,188,47937,2,2,B|465:176|460:121,1,70
392,124,48294,2,0,B|336:84,1,70
320,156,48650,2,2,B|312:204|240:188,1,70
200,196,49007,1,8
128,180,49186,1,8
272,119,49542,6,0,B|310:119|330:87,1,70
328,20,49899,1,0
396,20,50077,2,2,B|396:96,1,70
368,152,50434,2,2,B|408:160|424:224,3,70
440,264,51148,2,0,B|448:304|408:344,1,70
371,279,51504,2,2,B|259:303,1,70
232,300,51861,1,8
180,252,52039,1,8
152,144,52218,5,0
152,144,52396,2,2,B|168:104|128:80,1,70
152,144,52753,2,0,B|128:192|192:216,1,70
224,248,53109,2,2,B|296:296,1,70
328,240,53466,2,0,B|248:184,1,70
203,181,53822,1,2
144,144,54002,2,2,B|168:104|240:96|288:128,1,140
340,140,54537,2,8,B|396:156|388:212,2,70,0|8|8
320,208,55071,6,2,B|240:208,1,70
176,136,55606,2,2,B|176:216,1,70
104,280,56141,2,2,B|176:280,1,70
312,272,56676,5,0
312,272,56766,1,0
369,232,56944,1,0
369,232,57033,1,0
369,162,57211,1,0
369,162,57301,1,0
427,123,57479,1,0
427,123,57568,1,0
491,150,57747,1,8
472,280,58104,6,4,B|448:232|387:259,1,70,4|4
416,320,58461,2,0,B|336:352,1,70
336,312,58729,1,2
320,280,58818,2,2,B|216:288,1,70
208,232,59174,1,2
248,176,59353,6,0,B|264:136|304:120|328:136,2,70,2|4|6
180,156,59888,2,0,B|160:156|144:140,1,35
88,108,60156,2,2,B|124:72,1,35
168,40,60423,2,2,B|184:88|240:88,1,70
240,16,60780,1,2
216,85,60958,6,8,B|269:101|295:67|308:37|368:72,1,140
328,128,61493,2,0,B|328:208,1,70
320,272,61850,2,8,B|264:264|260:216,1,70
233,298,62207,2,0,B|177:282|153:330,1,70
153,240,62564,2,8,B|80:188,1,70
272,148,63009,5,2
272,148,63099,2,2,B|240:168|204:148,1,70
205,78,63455,2,2,B|237:58|273:78,1,70
336,108,63812,1,4
396,72,63991,1,4
455,109,64169,1,0
455,109,64258,1,0
455,178,64436,1,2
455,178,64526,1,2
394,213,64704,1,2
334,177,64882,1,2
332,248,65061,6,4,B|324:300|280:300,1,70,2|4
220,296,65418,1,4
260,240,65596,2,0,B|228:228,1,35
260,164,65863,2,2,B|224:152,1,35
256,88,66131,1,2
256,88,66309,2,2,B|184:64,1,70
158,136,66666,6,8,B|112:124|124:88|108:64|70:48|30:64,1,140
48,128,67201,2,0,B|24:160|21:189|35:212,1,70
99,184,67558,2,8,B|131:248,1,70
117,315,67915,1,0
53,286,68093,2,8,B|-3:294|13:358,2,70
94,382,68717,2,2,B|54:358,1,35
118,315,68985,2,2,B|198:315,1,70
312,368,69342,5,0
312,368,69520,2,2,B|376:368|376:296,1,70
312,296,69877,1,0
312,296,70055,2,0,B|312:224,1,70
241,226,70412,2,4,B|239:309,1,70
184,344,70769,5,0
184,344,70947,2,2,B|180:304|144:284,1,70
184,228,71304,1,0
184,228,71482,2,2,B|168:200|124:200,1,70
160,140,71839,2,4,B|236:140,1,70
288,184,72196,5,0
288,184,72374,2,2,B|360:184,1,70
432,184,72731,2,0,B|440:136|384:120,3,70
344,96,73444,1,4
344,96,73623,1,4
376,32,73801,6,0,B|336:12|308:36,1,70
272,96,74158,1,0
272,96,74247,1,0
308,156,74425,1,2
308,156,74515,1,2
264,208,74693,2,2,B|236:232|200:216,1,70
136,184,75050,5,0
84,136,75228,2,2,B|76:96|96:56,1,70
160,48,75585,1,2
212,96,75763,2,2,B|224:136|204:172,1,70
200,236,76120,2,4,B|180:280|216:320,1,70
244,360,76476,5,0
316,360,76655,2,2,B|376:312,1,70
340,252,77012,1,0
412,256,77191,2,2,B|432:188,1,70
364,184,77547,2,4,B|360:116,1,70
220,124,78082,5,2
220,124,78260,1,2
152,104,78439,1,2
152,104,78617,1,2
168,172,78796,1,2
168,172,78974,2,6,B|232:244,2,70,6|0|6
256,192,79509,12,4,80936
304,12,92352,6,0,B|376:12,1,70
444,12,92709,1,0
504,48,92887,2,2,B|480:96|432:72,1,70
440,144,93244,2,0,B|344:144,1,70
376,216,93601,2,2,B|336:216|316:248,1,70
376,288,93957,2,0,B|304:344,1,70
256,360,94314,2,2,B|192:376|176:328,1,70
128,312,94671,1,8
128,312,94849,1,8
132,172,95206,6,0,B|163:149|150:110,1,70
80,124,95563,1,0
84,58,95741,2,2,B|71:17|31:25,1,70,2|2
24,95,96098,1,0
32,164,96276,1,0
96,200,96455,2,2,B|136:200|148:240,1,70
192,184,96811,2,0,B|265:156,1,70
207,108,97168,2,2,B|280:80,1,70
318,137,97525,1,8
318,137,97703,1,8
304,232,97882,6,0,B|328:192|392:208,1,70
358,275,98238,1,2
368,344,98417,2,2,B|424:336|432:272,2,70
296,352,98952,1,0
224,352,99130,2,2,B|168:352|160:304,1,70
223,283,99487,2,0,B|167:219,1,70
108,216,99844,1,0
40,216,100022,2,8,B|12:196|0:156|12:116|36:92,1,140,0|8
106,91,100557,1,8
142,31,100736,5,2
73,31,100914,1,2
292,192,101271,1,2
222,192,101449,1,2
440,352,101806,1,2
370,352,101984,1,2
384,128,102341,6,0,B|384:184,1,35
340,224,102609,2,0,B|380:224,1,35
436,260,102876,2,0,B|436:212,1,35
480,164,103144,2,0,B|416:164,1,35
384,128,103411,5,8
340,224,103590,1,8
436,260,103768,1,4
432,56,114470,6,0,B|472:56|488:104,1,70
419,122,114827,1,0
367,76,115006,2,0,B|320:60|292:100,1,70
344,144,115362,1,0
344,214,115541,2,0,B|344:256,1,35
344,316,115808,1,0
344,352,115897,2,2,B|256:352,1,70,2|10
276,280,116254,2,2,B|284:240|344:220,1,70,2|10
376,184,116611,6,0,B|384:128|328:128,1,70
352,56,116968,2,0,B|272:56,1,70
282,90,117235,1,0
282,124,117324,2,2,B|202:124,1,70,2|10
212,53,117681,2,2,B|172:53|148:77|148:109,1,70,2|10
144,152,118038,6,0,B|198:202,1,70
210,268,118395,2,0,B|182:285|164:269|141:247,1,70
124,230,118662,1,0
99,207,118751,2,2,B|48:183|80:125,1,70,2|10
40,216,119108,2,2,B|40:304,1,70,2|10
99,324,119465,5,0
164,348,119643,1,0
232,364,119822,1,0
232,364,119911,1,0
301,364,120089,1,0
301,364,120178,2,0,B|353:360|369:320,1,70,0|8
388,268,120535,1,0
460,256,120714,2,0,B|463:176,1,70,0|8
464,120,121070,6,0,B|464:80|424:64,1,70
328,96,121516,2,0,B|312:128|336:152,1,35
392,136,121784,2,2,B|400:184|360:200,1,70,10|2
312,240,122141,1,10
256,288,122319,6,0,B|192:344,1,70
136,356,122676,2,0,B|108:380|72:356,1,70
58,323,122943,1,0
24,320,123032,2,2,B|-8:280|32:248,1,70,2|10
64,200,123389,2,2,B|144:136,1,70,2|10
176,112,123746,6,0,B|200:136,15,35
240,136,125173,5,0
240,136,125262,1,0
289,185,125440,1,0
289,185,125530,1,0
239,234,125708,1,0
239,234,125797,1,0
189,184,125976,1,0
189,184,126065,1,0
120,184,126243,1,8
70,233,126421,1,8
40,104,126600,6,4,B|64:152|125:125,1,70,4|4
96,64,126957,2,0,B|176:32,1,70
176,72,127225,1,2
192,104,127314,2,2,B|296:96,1,70
304,152,127670,1,2
264,208,127849,6,0,B|248:248|208:264|184:248,2,70,2|4|6
332,228,128384,2,0,B|352:228|368:244,1,35
424,276,128652,2,2,B|388:312,1,35
344,344,128919,2,2,B|328:296|272:296,1,70
272,368,129276,1,2
296,299,129454,6,8,B|243:283|217:317|204:347|144:312,1,140
184,256,129989,2,0,B|184:176,1,70
192,112,130346,2,8,B|248:120|252:168,1,70
279,86,130703,2,0,B|335:102|359:54,1,70
359,144,131060,2,8,B|432:196,1,70
240,236,131505,5,2
240,236,131595,2,2,B|272:216|308:236,1,70
307,306,131951,2,2,B|275:326|239:306,1,70
176,276,132308,1,4
116,312,132487,1,4
57,275,132665,1,0
57,275,132754,1,0
57,206,132932,1,2
57,206,133022,1,2
118,171,133200,1,2
178,207,133378,1,2
180,136,133557,6,4,B|188:84|232:84,1,70,2|4
292,88,133914,1,4
252,144,134092,2,0,B|284:156,1,35
252,220,134359,2,2,B|288:232,1,35
256,296,134627,1,2
256,296,134805,2,2,B|328:320,1,70
354,248,135162,6,8,B|400:260|388:296|404:320|442:336|482:320,1,140
464,256,135697,2,0,B|488:224|491:195|477:172,1,70
413,200,136054,2,8,B|381:136,1,70
395,69,136411,1,0
459,98,136589,2,8,B|515:90|499:26,2,70
418,2,137213,2,2,B|458:26,1,35
394,69,137481,2,2,B|314:69,1,70
200,16,137838,5,0
200,16,138016,2,2,B|136:16|136:88,1,70
200,88,138373,1,0
200,88,138551,2,0,B|200:160,1,70
271,158,138908,2,4,B|273:75,1,70
328,40,139265,5,0
328,40,139443,2,2,B|332:80|368:100,1,70
328,156,139800,1,0
328,156,139978,2,2,B|344:184|388:184,1,70
352,244,140335,2,4,B|276:244,1,70
224,200,140692,5,0
224,200,140870,2,2,B|152:200,1,70
80,200,141227,2,0,B|72:248|128:264,3,70
168,288,141940,1,4
168,288,142119,1,4
136,352,142297,6,0,B|176:372|204:348,1,70
240,288,142654,1,0
240,288,142743,1,0
204,228,142921,1,2
204,228,143011,1,2
248,176,143189,2,2,B|276:152|312:168,1,70
376,200,143546,5,0
428,248,143724,2,2,B|436:288|416:328,1,70
352,336,144081,1,2
300,288,144259,2,2,B|288:248|308:212,1,70
312,148,144616,2,4,B|332:104|296:64,1,70
268,24,144972,5,0
196,24,145151,2,2,B|136:72,1,70
172,132,145508,1,0
100,128,145687,2,2,B|80:196,1,70
148,216,146043,2,4,B|148:288,1,70
304,304,146578,5,2
362,265,146756,1,2
420,226,146935,1,2
356,196,147113,1,2
298,234,147291,1,2
292,162,147470,2,4,B|208:44,1,140
168,348,148718,6,0,B|92:312,1,70
48,276,149075,2,0,B|56:236|98:233,1,70,0|0
164,252,149432,2,4,B|237:290,1,70,4|4
244,352,149788,2,0,B|284:352|292:312,1,70
298,276,150056,1,2
292,240,150145,2,2,B|224:204,1,70
162,188,150502,1,2
92,204,150681,6,0,B|48:204|32:232,2,70,2|4|4
68,140,151216,1,0
68,140,151305,1,0
68,72,151484,2,0,B|68:37,1,35
128,72,151751,2,2,B|148:27|207:48,1,70
192,112,152107,1,2
192,184,152286,6,8,B|263:185|280:114|256:80,1,140
328,88,152821,2,0,B|369:55|413:84,1,70
376,140,153178,2,8,B|424:148|448:204,1,70
372,208,153534,2,0,B|404:236|396:280,1,70
328,260,153891,2,8,B|334:292|289:320,1,70
224,256,154337,5,0
200,280,154426,2,0,B|144:336,1,70
88,364,154783,2,0,B|48:360|36:316,1,70,0|0
87,272,155140,5,4
37,222,155318,1,4
37,152,155496,1,0
37,152,155586,1,0
106,152,155764,1,2
106,152,155853,1,2
106,81,156032,1,2
56,31,156210,1,2
124,12,156388,6,0,B|168:24|176:64,1,70,0|4
176,128,156745,1,4
240,104,156923,1,0
240,104,157013,1,0
226,169,157191,2,2,B|208:200,1,35
280,216,157459,1,0
240,272,157637,2,0,B|312:312,1,70
352,248,157994,6,8,B|400:256|384:288|408:320|440:336|480:320,1,140
464,256,158529,2,0,B|437:229|440:192,1,70
368,184,158886,2,8,B|368:144|321:132,1,70
299,198,159242,1,0
256,144,159421,2,8,B|216:168|232:232,2,70
160,96,160045,2,2,B|200:120,1,35
160,176,160313,2,2,B|88:128,1,70
88,272,160669,5,0
88,272,160848,2,2,B|112:232|160:240,1,70
216,240,161204,1,0
216,240,161383,2,2,B|296:240,1,70
360,240,161740,2,4,B|440:192,1,70
392,136,162096,5,0
392,136,162275,2,2,B|368:176|320:168,1,70
264,168,162631,1,0
264,168,162810,2,2,B|184:168,1,70
120,168,163167,2,4,B|40:216,1,70
32,136,163523,5,0
32,136,163702,2,0,B|56:96|104:104,1,70
160,104,164058,2,0,B|232:104,3,70
304,104,164772,1,4
304,104,164951,1,4
368,136,165129,2,0,B|336:176|336:224|368:288,1,140
440,200,165753,1,2
440,200,165843,1,2
448,128,166021,2,2,B|472:88|416:40,1,70
328,56,166377,5,0
328,56,166556,2,2,B|240:56,1,70
280,120,166912,1,0
280,120,167091,2,2,B|216:160,1,70
280,200,167448,2,4,B|248:272,1,70
308,312,167804,5,0
308,312,167983,2,2,B|396:312,1,70
356,248,168339,1,0
356,248,168518,2,2,B|420:208,1,70
356,168,168875,2,4,B|388:96,1,70
200,40,169410,5,2
134,61,169588,1,2
183,110,169766,1,2
115,131,169945,1,2
164,180,170123,1,2
96,200,170302,2,4,B|16:236,2,70
320,192,171550,6,0,B|288:216|256:192,1,70
205,142,171907,2,0,B|173:118|137:142,2,70,0|0|4
262,102,172442,1,0
256,192,172620,12,0,174761
