osu file format v9

[General]
AudioFilename: La Luna - Take Me (Nightcore Mix).mp3
AudioLeadIn: 2000
PreviewTime: 57212
Countdown: 0
SampleSet: Soft
StackLeniency: 0.7
Mode: 0
LetterboxInBreaks: 0

[Editor]
Bookmarks: 143003
DistanceSpacing: 0.9
BeatDivisor: 4
GridSize: 8

[Metadata]
Title:Take Me (Nightcore Mix)
Artist:La Luna
Creator:akrolsmir
Version:Hard
Source:
Tags:Happy Hardcore Trance Electronic

[Difficulty]
HPDrainRate:5
CircleSize:4
OverallDifficulty:6
ApproachRate:7
SliderMultiplier:1.2
SliderTickRate:1

[Events]
//Background and Video events
0,0,"NormalBackground.jpg"
//Break Periods
2,81136,91452
2,103968,113570
//Storyboard Layer 0 (Background)
//Storyboard Layer 1 (Fail)
//Storyboard Layer 2 (Pass)
//Storyboard Layer 3 (Foreground)
//Storyboard Sound Samples
//Background Colour Transformations
3,100,163,162,255

[TimingPoints]
-402,356.748192627823,4,2,0,40,1,0
7446,-100,4,2,0,65,0,0
12262,-100,4,2,0,90,0,0
15651,-100,4,2,0,70,0,0
16543,-100,4,2,0,90,0,0
21002,-100,4,2,0,70,0,0
22429,-100,4,1,0,75,0,0
23856,-100,4,2,0,100,0,0
58104,-100,4,2,0,100,0,1
69342,-100,4,2,0,100,0,0
79509,-100,4,1,0,75,0,0
92352,-100,4,2,0,80,0,0
102341,-100,4,1,0,75,0,0
114470,-100,4,2,0,70,0,0
123746,-100,4,1,0,16,0,0
123835,-100,4,1,0,21,0,0
123924,-100,4,1,0,26,0,0
124013,-100,4,1,0,31,0,0
124103,-100,4,1,0,36,0,0
124192,-100,4,1,0,41,0,0
124281,-100,4,1,0,47,0,0
124370,-100,4,1,0,51,0,0
124459,-100,4,1,0,57,0,0
124549,-100,4,1,0,61,0,0
124638,-100,4,1,0,65,0,0
124727,-100,4,1,0,69,0,0
124816,-100,4,1,0,75,0,0
126600,-100,4,1,0,75,0,1
126778,-100,4,2,0,100,0,1
137837,-100,4,2,0,100,0,0
149432,-100,4,1,0,75,0,1
149610,-100,4,2,0,100,0,1
160580,-100,4,2,0,100,0,0
172620,-100,4,2,0,5,0,0

[Colours]
Combo1 : 147,255,160
Combo2 : 0,128,102
Combo3 : 0,198,50
Combo4 : 40,94,147

[HitObjects]
256,56,311,2,0,B|216:112|248:168,1,120
272,216,846,2,0,B|312:272|280:328,1,120
216,280,2273,6,0,B|192:352|96:368,1,120
128,264,3878,6,0,B|128:128,1,120
89,105,4414,2,0,B|23:111|5:178,2,120
256,328,6019,6,0,B|296:272|264:216,1,120
240,168,6554,2,0,B|200:112|232:56,1,120
296,104,7981,6,0,B|320:32|416:16,1,120
384,120,9586,6,0,B|384:256,1,120
423,279,10122,2,0,B|489:273|507:206,2,120
64,168,12262,6,0,B|64:104,1,60,0|8
152,48,12797,2,0,B|152:112,1,60
152,216,13332,1,0
248,256,13689,6,0,B|248:192,1,60,0|8
336,136,14224,2,0,B|336:200,1,60
336,304,14759,1,0
440,336,15116,6,0,B|440:272,1,60,0|8
440,168,15651,2,0,B|440:128|408:104,3,60
376,72,16365,1,4
376,72,16543,1,4
88,72,17970,6,0,B|112:56|144:72,1,60,0|8
248,96,18505,2,0,B|272:112|304:96,1,60
408,72,19040,1,0
408,180,19397,6,0,B|383:196|350:179,1,60,0|8
248,156,19932,2,0,B|223:139|190:156,1,60
88,184,20467,1,0
180,316,21002,6,0,B|204:352|240:352,1,60
260,308,21359,1,0
260,308,21538,1,0
288,353,21716,2,0,B|310:354|334:318,1,60
344,212,22251,1,4
256,192,22429,12,0,23500
136,88,23856,6,0,B|194:129|187:189,1,120,0|8
80,192,24570,1,0
72,244,24748,2,0,B|192:243,1,120,2|0
248,240,25283,6,0,B|304:224|312:184|304:144,1,120,0|8
216,96,25997,1,0
216,42,26175,2,0,B|337:42,1,120,2|0
368,88,26710,6,0,B|310:129|317:189,1,120,0|8
421,182,27424,1,0
429,238,27602,2,0,B|309:237,1,120,2|0
252,232,28137,6,0,B|196:216|188:176|196:136,1,120,0|8
284,88,28851,1,0
284,34,29029,2,0,B|163:34,1,120,2|0
144,104,29564,6,0,B|64:104,2,60
64,176,30278,2,2,B|64:208|104:220,1,60
152,220,30635,1,2
152,220,30813,1,2
204,220,30991,6,0,B|204:300,2,60
272,136,31705,1,2
272,136,31883,1,2
268,84,32062,2,2,B|328:84,1,60
380,84,32418,6,0,B|416:88|440:120,2,60
368,192,33132,2,2,B|368:264,1,60
368,306,33489,2,2,B|340:330|308:306,1,60
258,309,33845,6,0,B|194:309,2,60
181,232,34559,1,2
181,232,34737,1,2
132,212,34916,2,2,B|132:148,1,60
184,136,35272,1,4
64,248,35807,5,0
72,304,35986,1,0
120,336,36164,1,0
112,232,36521,2,0,B|176:256|168:336,1,120
392,336,37591,5,0
440,304,37769,1,0
448,248,37948,1,0
400,232,38127,2,0,B|336:256|344:336,1,120
296,224,38840,6,0,B|296:88,1,120
352,104,39375,1,0
408,104,39553,2,0,B|416:24|328:8,1,120
240,24,40267,2,0,B|240:160,1,120
184,144,40802,1,0
128,144,40980,2,0,B|120:224|208:240,1,120
240,256,41515,5,0
240,256,41694,1,0
293,256,41872,2,0,B|417:256,1,120
504,96,42942,5,0
504,96,43121,1,0
504,44,43299,2,0,B|436:44|436:44|364:44|344:108,1,180
312,196,44191,6,0,B|288:244|256:244|208:244,1,120
224,140,44905,2,0,B|104:140,1,120
0,100,45618,2,0,B|24:52|56:52|104:52,1,120
196,44,46688,5,4
196,44,46867,1,0
164,148,47223,2,2,B|212:188|300:156,1,120
372,216,47937,2,2,B|382:154|310:94,1,120
332,0,48650,2,2,B|273:21|257:113,1,120
88,80,49542,5,4
88,80,49721,1,0
104,184,50077,2,2,B|152:176|184:144|192:96,1,120
240,112,50612,1,0
240,112,50791,2,2,B|384:112,1,120
432,192,51504,2,2,B|272:192,1,120
364,288,52218,6,0,B|400:288|416:320,2,60,0|2|0
308,288,52753,1,2
256,288,52931,1,2
104,348,53466,2,0,B|72:332|72:284,1,60,2|0
72,244,53823,1,0
72,244,54002,2,0,B|88:164|176:148,1,120,2|0
296,88,55072,6,8,B|360:128,1,60
432,56,55607,2,8,B|392:120,1,60
464,192,56142,2,8,B|400:152,1,60
328,224,56677,2,4,B|224:376,1,180
176,352,57391,6,0,B|88:352,3,60
88,304,58104,1,4
88,304,58283,1,0
88,304,58461,1,0
124,204,58818,2,0,B|164:220|204:196,1,60
236,196,59174,1,0
224,144,59353,6,4,B|272:96|368:144,1,120
336,130,59888,1,0
444,112,60245,2,0,B|452:144|428:176,1,60
388,200,60601,1,0
388,200,60779,1,0
344,232,60958,6,8,B|280:248|288:336,1,120
240,344,61493,2,8,B|168:336|160:240,1,120
163,264,62028,1,0
152,212,62207,2,0,B|256:144,1,120,8|0
252,146,62742,1,8
188,60,63099,6,0,B|164:42|132:68,3,60
96,108,63812,1,4
96,108,63991,1,0
96,108,64169,1,0
120,216,64526,2,0,B|192:216,1,60
232,216,64882,1,0
240,272,65061,6,4,B|304:280|360:232,1,120
351,238,65596,1,0
356,132,65953,2,0,B|396:140|396:180,1,60
452,164,66309,2,0,B|468:204|420:228,1,60
404,260,66666,6,8,B|436:316|396:388,1,120
348,372,67201,2,0,B|268:372,1,60,8|0
300,316,67558,2,0,B|228:316,1,60,8|0
252,260,67915,2,0,B|180:260,1,60,8|0
137,260,68272,1,4
137,260,68450,1,4
68,340,68807,2,0,B|12:380,2,60
122,340,69342,5,0
122,340,69520,2,2,B|250:340,1,120
242,284,70055,2,2,B|306:268|338:204,1,120
442,236,70769,5,0
434,180,70947,2,2,B|406:125|342:109,1,120
290,108,71482,2,2,B|170:108,1,120
116,200,72196,5,0
116,200,72374,2,2,B|252:200,1,120
284,176,72909,2,2,B|304:148|340:152,2,60
288,232,73444,1,4
340,244,73623,1,4
104,80,75050,5,0
80,128,75228,2,2,B|48:184|104:240,1,120
152,216,75763,2,2,B|256:160,1,120
240,264,76477,5,0
288,240,76655,2,2,B|393:183,1,120
440,160,77190,2,2,B|488:224|448:288,1,120
424,320,77726,1,2
376,224,78082,6,0,B|320:192,1,60,8|0
324,136,78439,2,0,B|308:104|268:104,1,60,8|0
236,152,78796,2,8,B|220:184|164:176,1,60
80,144,79331,1,4
256,192,79509,12,4,80936
408,184,92352,5,4
408,184,92531,1,0
304,160,92887,2,2,B|256:120|168:152,1,120
268,220,93601,2,2,B|258:282|330:342,1,120
336,220,94314,2,2,B|395:199|411:107,1,120
424,304,95206,5,4
424,304,95385,1,0
408,200,95741,2,2,B|336:216|320:304,1,120
272,272,96276,1,0
272,272,96455,2,2,B|128:272,1,120
80,192,97168,2,2,B|240:192,1,120
120,120,97882,6,0,B|128:96|168:80,1,60
216,72,98238,2,0,B|280:72,1,60
328,80,98595,1,0
224,208,99130,2,0,B|288:248|352:200,1,120
391,209,99666,2,0,B|460:220|503:289,1,120
288,320,100736,6,8,B|264:352|224:344,1,60
184,256,101271,2,8,B|152:192,1,60
104,112,101806,2,8,B|64:104|48:144,1,60
88,232,102341,1,4
256,192,102430,12,4,103768
320,208,114470,5,0
304,152,114649,1,0
248,152,114827,1,0
264,208,115006,2,0,B|184:304,1,120
187,300,115541,1,0
56,224,115897,5,0
56,224,116075,2,8,B|32:192|32:136|64:104,1,120
104,88,116611,1,0
104,88,116789,2,0,B|176:88,1,60
272,112,117324,5,0
272,112,117502,2,8,B|296:144|296:200|264:232,1,120
320,248,118038,1,0
320,248,118216,2,0,B|392:248,1,60
408,168,118751,5,0
408,168,118929,2,8,B|408:96|480:72,1,120
416,56,119465,1,0
416,56,119643,2,0,B|320:56,1,60
248,48,120178,5,0
248,104,120357,1,0
248,160,120535,1,0
248,216,120714,2,8,B|216:248|216:296|248:328,1,120
244,324,121249,1,0
336,288,121605,6,0,B|352:328|400:328,1,60
424,296,121962,2,0,B|464:248,1,60
472,200,122319,1,8
448,152,122497,1,0
392,160,122676,1,8
284,160,123032,2,0,B|212:160,1,60
169,160,123389,2,0,B|137:168|113:136,1,60
103,87,123746,6,0,B|103:59,15,30
256,192,125173,12,4,126600
352,104,126956,5,0
352,104,127135,1,0
384,152,127313,2,0,B|392:180|380:216,1,60
356,260,127669,1,0
300,260,127848,6,4,B|176:260,1,120
124,260,128383,1,0
56,176,128740,2,0,B|40:144|56:112,1,60
53,117,129097,1,0
53,117,129275,1,0
84,72,129453,6,8,B|144:36|200:68,1,120
252,80,129989,2,8,B|248:116|284:156|332:152,1,120
352,56,130702,2,0,B|472:56,1,120,8|0
472,56,131237,1,8
472,56,131416,1,0
488,108,131594,6,0,B|500:140|488:172,3,60
472,220,132308,1,4
472,220,132486,1,0
472,220,132664,1,0
388,284,133021,2,0,B|348:300|308:276,1,60
288,248,133377,1,0
248,216,133556,6,4,B|248:72,1,120
249,96,134091,1,0
312,16,134448,2,0,B|384:16,1,60
425,16,134804,1,0
425,16,134983,1,0
480,32,135162,6,8,B|488:112|432:136,1,120
408,88,135697,2,8,B|348:58|292:90,1,120
264,192,136410,2,0,B|392:192,1,120,8|0
440,192,136945,1,8
416,296,137302,2,0,B|360:336|296:296,1,120
256,272,137837,5,0
220,232,138015,2,2,B|220:104,1,120
200,64,138550,2,2,B|184:24|144:16|96:24,1,120
88,128,139264,5,0
48,168,139442,2,2,B|48:296,1,120
72,336,139977,2,2,B|88:384|128:392|168:384,1,120
168,272,140691,5,0
200,232,140869,2,2,B|328:232,1,120
376,232,141404,2,2,B|416:216|408:168,1,60
408,132,141762,1,2
354,132,141940,2,4,B|292:132,1,60
384,56,143545,5,0
344,96,143723,2,2,B|216:96,1,120
224,152,144258,2,2,B|160:168|128:232,1,120
24,200,144972,5,0
32,256,145150,2,2,B|60:311|124:327,1,120
176,328,145685,2,2,B|296:328,1,120
416,216,146577,6,2,B|384:160,1,60
344,200,146935,2,2,B|280:184,1,60
288,240,147291,2,2,B|192:256,1,60
120,248,147826,1,4
256,192,148005,12,4,149432
272,248,149788,5,0
272,248,149967,1,0
324,248,150145,2,0,B|324:188,1,60
352,140,150501,1,0
304,112,150680,6,4,B|240:104|184:152,1,120
216,192,151215,1,0
160,288,151572,2,0,B|120:280|120:240,1,60
64,256,151928,2,0,B|48:216|96:192,1,60
112,160,152285,6,8,B|80:104|120:32,1,120
168,48,152820,2,0,B|248:48,1,60,8|0
216,104,153177,2,0,B|288:104,1,60,8|0
264,160,153534,2,0,B|336:160,1,60,8|0
368,192,153891,1,8
368,192,154069,1,8
460,248,154426,6,0,B|460:164,3,60
482,140,155140,1,4
482,140,155318,1,0
482,140,155496,1,0
448,40,155853,2,0,B|408:48|392:80,1,60
376,120,156209,1,0
368,176,156388,6,4,B|248:176,1,120
193,176,156923,1,0
104,112,157280,2,0,B|144:128|144:160,1,60
144,208,157636,2,0,B|144:248|88:256,1,60
112,304,157994,6,8,B|240:304,1,120
288,296,158529,2,8,B|288:216|200:216,1,120
216,108,159242,1,8
292,31,159599,1,0
292,31,159777,1,8
368,112,160134,2,0,B|305:111,2,60
408,80,160669,5,0
432,128,160847,2,2,B|464:184|408:240,1,120
360,216,161382,2,2,B|256:160,1,120
272,264,162096,5,0
224,240,162274,2,2,B|119:183,1,120
72,160,162809,2,2,B|24:224|64:288,1,120
160,288,163523,5,2
200,328,163701,2,2,B|256:296,1,60
232,248,164058,2,2,B|248:216|288:216,1,60
312,264,164415,2,2,B|328:296|384:288,1,60
360,232,164772,1,4
360,232,164950,1,4
88,72,166377,5,0
144,72,166555,2,2,B|144:200,1,120
152,248,167090,2,2,B|168:296|208:304|248:296,1,120
360,288,167804,5,0
304,288,167982,2,2,B|304:160,1,120
304,112,168517,2,2,B|288:64|248:56|208:64,1,120
168,232,169409,6,2,B|111:196|55:236,1,120
56,288,169945,1,2
56,344,170123,2,2,B|256:344,1,180,2|6
328,109,171550,6,0,B|280:149,1,60
227,147,171907,2,0,B|180:108,2,60,0|0|4
256,192,172442,1,0
256,192,172620,12,0,174761
