osu file format v9

[General]
AudioFilename: La Luna - Take Me (Nightcore Mix).mp3
AudioLeadIn: 0
PreviewTime: 57212
Countdown: 0
SampleSet: Normal
StackLeniency: 0.7
Mode: 0
LetterboxInBreaks: 0

[Editor]
DistanceSpacing: 0.8
BeatDivisor: 2
GridSize: 8

[Metadata]
Title:Take Me (Nightcore Mix)
Artist:La Luna
Creator:akrolsmir
Version:Easy
Source:
Tags:Happy Hardcore Trance Electronic

[Difficulty]
HPDrainRate:2
CircleSize:3
OverallDifficulty:2
ApproachRate:3
SliderMultiplier:0.9
SliderTickRate:1

[Events]
//Background and Video events
0,0,"EasyBackground.jpg"
//Break Periods
2,35472,45248
//Storyboard Layer 0 (Background)
//Storyboard Layer 1 (Fail)
//Storyboard Layer 2 (Pass)
//Storyboard Layer 3 (Foreground)
//Storyboard Sound Samples
//Background Colour Transformations
3,100,163,162,255

[TimingPoints]
-402,356.748192627823,4,2,0,50,1,0
23856,-100,4,2,0,100,0,0
46688,-100,4,2,0,80,0,0
56677,-100,4,1,0,65,0,0
58104,-100,4,1,0,65,0,1
58461,-100,4,2,0,100,0,1
69342,-100,4,2,0,100,0,0
79509,-100,4,1,0,75,0,0
81293,-100,4,2,0,100,0,0
92352,-100,4,2,0,80,0,0
102341,-100,4,1,0,75,0,0

[Colours]
Combo1 : 0,128,102
Combo2 : 102,255,251
Combo3 : 0,198,50
Combo4 : 40,94,147

[HitObjects]
376,248,23856,5,0
376,248,24213,2,0,B|192:248,1,180,2|8
120,248,25283,1,0
120,248,25640,2,0,B|48:168|120:88,1,180,2|8
192,80,26710,5,0
192,80,27067,1,2
248,128,27424,2,0,B|344:128,1,90,0|8
410,136,28137,2,0,B|474:200,1,90,0|2
473,271,28851,2,0,B|409:334,1,90,0|8
336,334,29564,5,0
336,334,29921,2,0,B|152:334,1,180,2|8
115,274,30991,1,0
115,274,31348,2,0,B|115:162|235:162,1,180,2|8
298,162,32418,6,0,B|386:162,1,90,0|2
458,162,33132,1,0
458,162,33489,1,8
456,88,33845,2,0,B|456:32|392:32,1,90,0|2
328,32,34559,2,0,B|224:32,1,90,0|8
192,88,35272,1,4
240,120,46688,5,4
184,168,47045,1,0
128,216,47402,2,0,B|128:280|176:336|240:336,2,180,0|2|8
264,264,49542,5,4
320,216,49899,1,0
376,168,50256,2,0,B|376:104|328:48|264:48,2,180,0|2|8
232,176,52396,6,0,B|184:176|152:216,2,90,0|2|0
304,176,53466,1,8
376,176,53823,2,0,B|424:176|456:136,2,90,0|2|0
256,192,55250,8,4,58104
184,96,58818,6,0,B|96:96,2,90,2|0|2
328,96,60245,2,0,B|416:96,2,90,2|0|2
328,168,61315,2,0,B|328:240|328:240|328:312|264:312,1,180,0|8
194,311,62385,1,4
192,168,63099,5,0
192,168,63455,2,0,B|112:168|112:56|192:56,1,180,0|8
264,56,64526,2,0,B|352:56,2,90,2|0|2
368,152,65953,6,0,B|392:200|360:248,2,90,2|0|2
304,192,67023,2,0,B|232:192|232:192|160:192|160:128,1,180,0|8
160,56,68093,1,4
440,120,69520,5,4
440,120,69877,2,0,B|440:320,1,180
368,304,70947,1,2
368,304,71304,2,0,B|304:304|304:256|304:208|232:208,1,180
160,208,72374,6,0,B|160:16,2,180,2|2|4
416,80,75228,5,2
416,80,75585,2,0,B|352:80|352:136|352:192|288:192,1,180
221,191,76655,1,2
221,191,77012,2,0,B|157:191|157:135|157:79|93:79,1,180
256,192,78082,12,4,80936
168,152,81650,6,0,B|256:104|344:152,1,180,2|0
408,176,82720,1,0
392,320,83433,2,0,B|304:320,1,90,2|0
232,312,84147,6,0,B|128:288|136:176,1,180,2|8
136,112,85217,1,0
136,112,85574,2,0,B|224:72|328:112,1,180,2|8
384,112,86644,1,4
392,256,87358,6,0,B|288:280|224:208,1,180,2|0
216,72,88785,1,0
216,72,89141,2,0,B|128:72,1,90,2|0
56,72,89855,6,0,B|56:232|120:232,1,180,2|8
176,192,90925,1,0
240,152,91282,2,0,B|295:151|295:311,1,180,2|8
368,312,92352,6,0,B|456:312,1,90,4|0
458,239,93066,2,0,B|466:119|386:87,2,180,0|2|4
312,216,95206,6,0,B|312:320,1,90,4|0
240,312,95920,2,0,B|136:304|120:192,2,180,0|2|4
256,168,98060,6,0,B|256:72,2,90,0|2|0
256,240,99130,1,8
216,296,99487,2,0,B|200:344|144:352,2,90,0|2|0
256,192,100914,12,4,103768
