osu file format v12

[General]
AudioFilename: Helical(remix).mp3
AudioLeadIn: 0
PreviewTime: 102857
Countdown: 0
SampleSet: Normal
StackLeniency: 0.7
Mode: 0
LetterboxInBreaks: 1

[Editor]
Bookmarks: 95571,164134,180849
DistanceSpacing: 0.9
BeatDivisor: 4
GridSize: 8

[Metadata]
Title:Helical (remix)
TitleUnicode:Helical (remix)
Artist:La Cataline
ArtistUnicode:La Cataline
Creator:La Cataline
Version:Insane
Source:
Tags:dubstep
BeatmapID:256892
BeatmapSetID:95716

[Difficulty]
HPDrainRate:7
CircleSize:4
OverallDifficulty:7
ApproachRate:9
SliderMultiplier:1.6
SliderTickRate:1

[Events]
//Background and Video events
0,0,"Helices_by_niarch.jpg",0,0
//Break Periods
2,61890,74804
//Storyboard Layer 0 (Background)
//Storyboard Layer 1 (Fail)
//Storyboard Layer 2 (Pass)
//Storyboard Layer 3 (Foreground)
//Storyboard Sound Samples
//Background Colour Transformations
3,100,0,0,0

[TimingPoints]
-24,428.571428571429,4,2,1,15,1,0
6833,-200,4,2,1,15,0,0
14868,-79.9999999999999,4,2,1,15,0,0
15404,-200,4,2,1,15,0,0
33190,-200,4,2,1,25,0,0
33690,-200,4,3,1,60,0,0
34261,-200,4,1,1,70,0,1
35118,-133.333333333333,4,1,1,70,0,1
35976,-80,4,1,1,70,0,0
37690,-200,4,1,1,70,0,1
38404,-133.333333333333,4,1,1,70,0,1
39404,-80,4,1,1,70,0,0
40261,-133.333333333333,4,1,1,70,0,0
41118,-100,4,1,1,70,0,0
47976,-200,4,1,1,70,0,1
48511,-133.333333333333,4,1,1,70,0,1
49690,-80,4,1,1,70,0,0
51404,-200,4,1,1,70,0,1
52118,-133.333333333333,4,1,1,70,0,1
53118,-79.9999999999999,4,1,1,70,0,0
53976,-133.333333333333,4,1,1,70,0,0
54833,-100,4,1,1,70,0,0
75297,-133.333333333333,4,2,1,20,0,0
88154,-133.333333333333,4,1,1,20,0,0
88368,-133.333333333333,4,1,1,30,0,0
88583,-133.333333333333,4,1,1,40,0,0
88797,-133.333333333333,4,1,1,50,0,0
89011,-100,4,2,1,60,0,0
89261,-100,4,2,1,50,0,0
102261,-100,4,3,1,60,0,0
102833,-100,4,1,1,90,0,0
103690,-200,4,1,1,90,0,1
104547,-74.0740740740741,4,1,1,90,0,0
106154,-100,4,1,1,90,0,0
107118,-200,4,1,1,90,0,1
107976,-74.0740740740741,4,1,1,90,0,0
109690,-100,4,1,1,90,0,0
117404,-200,4,1,1,90,0,1
118261,-76.9230769230769,4,1,1,90,0,0
119976,-100,4,1,1,90,0,0
120833,-200,4,1,1,90,0,1
121690,-76.9230769230769,4,1,1,90,0,0
123404,-100,4,1,1,90,0,0
124690,-100,4,2,1,5,0,0
124904,-100,4,1,1,90,0,0
128547,-76.9230769230769,4,1,1,90,0,0
129404,-100,4,1,1,90,0,0
131118,-200,4,1,1,90,0,1
131976,-76.9230769230769,4,1,1,90,0,0
133690,-100,4,1,1,90,0,0
134547,-200,4,1,1,90,0,1
135404,-76.9230769230769,4,1,1,90,0,0
137118,-100,4,1,1,90,0,0
144833,-200,4,1,1,90,0,1
145690,-76.9230769230769,4,1,1,90,0,0
147404,-100,4,1,1,90,0,0
148261,-200,4,1,1,90,0,1
149118,-76.9230769230769,4,1,1,90,0,0
150833,-100,4,1,1,90,0,0
155976,-76.9230769230769,4,1,1,90,0,0
156833,-100,4,1,1,90,0,0
157690,-100,4,1,1,90,0,0
157797,-100,4,2,1,30,0,0
171404,-100,4,1,1,60,0,1
181261,-133.333333333333,4,1,1,60,0,1
181690,-100,4,1,1,60,0,1
184583,-100,4,1,1,50,0,1
184797,-100,4,1,1,40,0,1
184904,-100,4,1,1,30,0,1
185011,-100,4,1,1,40,0,1
185118,-100,4,1,1,40,0,0

[Colours]
Combo1 : 0,128,64
Combo2 : 46,207,142
Combo3 : 3,188,156
Combo4 : 0,128,128

[HitObjects]
176,184,6833,1,0,1:0:0:0:
176,184,7047,2,0,P|184:136|184:88,1,80,2|0,0:0|0:0,0:0:0:0:
184,104,7690,2,0,P|142:106|88:104,1,80,2|0,0:0|0:0,0:0:0:0:
16,168,8333,2,0,L|0:168,4,10
104,216,8761,1,0,0:0:0:0:
104,216,9404,6,2,P|107:245|112:272,1,40,0|0,1:0|0:0,0:0:0:0:
192,312,9833,2,0,L|192:280,2,20
232,208,10261,5,0,1:0:0:0:
288,288,10476,1,0,0:0:0:0:
320,192,10690,2,0,L|320:160,2,20,0|0|0,0:0|0:0|0:1,1:0:0:0:
384,272,11118,2,0,P|444:280|520:288,1,120,0|0,1:0|0:0,0:0:0:0:
456,160,11976,5,0,1:0:0:0:
384,272,12190,2,0,L|392:320,1,40,2|0,0:0|0:0,0:0:0:0:
352,144,12618,2,0,L|358:104,1,40,0|2,0:0|0:0,0:0:0:0:
240,184,13047,1,2,0:0:0:0:
240,184,13261,2,0,L|248:232,1,40,0|2,0:0|0:0,0:0:0:0:
168,272,13690,6,0,P|110:265|48:264,1,120,0|0,1:0|0:0,0:0:0:0:
160,128,14547,2,0,P|140:140|112:152,1,40,8|0,0:1|0:0,0:0:0:0:
280,192,14976,1,0,0:0:0:0:
280,168,15083,1,0,0:0:0:0:
280,144,15190,2,0,P|288:128|312:112,3,25
312,112,15404,6,0,P|376:104|440:112,1,120,2|0,1:2|0:0,0:0:0:0:
480,40,16261,2,2,L|440:34,1,40,0|0,1:0|0:0,0:0:0:0:
432,192,16690,2,2,L|472:187,1,40,2|0,0:0|0:0,0:0:0:0:
344,328,17118,2,0,P|288:328|224:320,1,120,2|0,1:2|0:0,0:0:0:0:
112,264,17975,2,2,P|90:267|72:270,1,40,8|0,1:0|0:0,0:0:0:0:
216,184,18404,2,0,P|219:169|216:152,3,20,0|0|0|0,0:0|0:0|0:0|1:0,0:0:0:0:
120,48,18833,6,0,L|112:88,1,40,0|0,1:0|0:0,0:0:0:0:
0,168,19261,2,0,L|5:149,3,20,0|8|8|8,0:0|0:2|0:1|0:0,0:0:0:0:
112,264,19690,6,0,L|120:320,1,40,8|0,1:0|0:0,0:0:0:0:
240,152,20118,2,0,L|235:113,1,40,8|0,1:0|0:0,0:0:0:0:
144,120,20547,5,0,1:0:0:0:
248,176,20761,1,0,0:0:0:0:
304,72,20976,1,2,0:0:0:0:
200,16,21190,1,2,0:0:0:0:
144,120,21404,1,0,0:0:0:0:
248,176,21618,1,0,0:0:0:0:
304,72,21833,2,0,L|400:72,1,80,2|0,0:0|1:0,0:0:0:0:
392,184,22476,6,0,P|396:225|392:272,1,80,2|0,0:0|0:0,0:0:0:0:
232,272,23118,2,2,L|208:272|176:272,1,40,2|0,0:0|0:0,0:0:0:0:
312,264,23547,1,0,0:0:0:0:
320,232,23654,1,0,0:0:0:0:
320,192,23761,1,0,0:0:0:0:
288,176,23868,1,0,0:0:0:0:
248,176,23976,6,0,P|220:178|192:176,1,40,0|0,1:0|0:0,0:0:0:0:
128,112,24404,2,0,L|128:80,2,20,0|0|8,0:0|0:0|0:0,0:0:0:0:
112,216,24833,2,0,P|106:266|112:304,2,80,0|0|0,1:0|0:0|1:0,0:0:0:0:
192,144,25904,1,2,0:0:0:0:
104,88,26118,1,0,0:0:0:0:
104,192,26333,1,0,0:0:0:0:
192,144,26547,2,0,L|240:144,1,40,2|0,0:0|0:0,0:0:0:0:
120,88,26976,2,0,L|64:88,1,40,2|2,0:0|0:0,0:0:0:0:
192,368,27404,6,0,P|197:318|192:248,1,120,0|0,1:0|0:0,0:0:0:0:
272,168,28261,1,8,0:1:0:0:
208,88,28476,1,0,0:0:0:0:
128,160,28690,2,0,L|64:160,1,60,2|2,0:0|0:0,0:0:0:0:
200,64,29118,6,0,P|256:56|328:64,1,120,0|0,1:0|0:0,0:0:0:0:
384,160,29975,1,0,1:0:0:0:
312,72,30190,1,0,0:0:0:0:
232,144,30404,1,2,0:0:0:0:
304,232,30619,1,2,0:0:0:0:
384,160,30833,6,0,L|392:240,1,80,0|2,1:0|0:0,0:0:0:0:
272,344,31476,1,0,0:0:0:0:
272,344,31690,2,0,L|264:288,1,40,8|0,1:0|0:0,0:0:0:0:
120,272,32118,2,0,L|128:328,1,40,2|2,0:0|0:0,0:0:0:0:
16,216,32547,1,0,1:0:0:0:
16,216,33404,1,2,2:0:0:0:
16,216,33833,5,8,0:0:0:0:
160,176,33976,1,8,0:0:0:0:
48,64,34118,1,4,0:0:0:0:
160,176,34261,6,0,B|200:184|200:184|240:176,1,80,4|0,0:0|0:0,0:0:0:0:
352,120,34904,1,0,0:0:0:0:
328,248,35118,2,0,P|346:252|376:256,2,40.000001525879,4|0|0,0:2|0:0|0:0,0:0:0:0:
368,112,35547,2,0,P|388:109|407:104,2,40.000001525879
248,32,35976,6,0,L|160:32,1,66.6666666666667,4|0,0:0|0:0,0:0:0:0:
64,72,36261,1,0,0:0:0:0:
160,168,36404,2,0,L|248:160,1,66.6666666666667,8|0,0:3|0:0,0:0:0:0:
368,112,36689,1,8,0:3:0:0:
432,248,36833,2,0,P|440:288|440:336,1,66.6666666666667,8|0,0:0|0:0,0:0:0:0:
328,208,37118,1,0,0:0:0:0:
208,216,37261,2,0,P|199:176|200:128,1,66.6666666666667
232,48,37546,1,8,0:0:0:0:
352,32,37690,6,0,B|368:64|368:64|368:120,1,80,4|0,0:0|0:0,0:0:0:0:
328,208,38333,1,0,0:0:0:0:
432,248,38547,2,0,P|446:267|456:288,2,40.000001525879,4|0|0,0:2|0:0|0:0,0:0:0:0:
288,328,38976,2,0,P|294:341|309:361,2,40.000001525879
328,208,39404,6,0,P|311:178|280:128,1,66.6666666666667,4|0,0:0|0:0,0:0:0:0:
224,80,39690,1,0,0:0:0:0:
224,80,39833,2,0,P|192:88|136:88,1,66.6666666666667,8|0,0:3|0:0,0:0:0:0:
40,104,40118,1,8,0:3:0:0:
112,208,40261,6,0,P|136:224|152:232,2,40.000001525879,8|0|0,0:0|0:0|0:0,0:0:0:0:
24,312,40690,1,0,0:0:0:0:
24,312,40833,2,0,P|0:348|-8:368,1,40.000001525879,0|8,0:0|0:0,0:0:0:0:
136,344,41118,5,4,0:0:0:0:
232,288,41333,1,0,2:0:0:0:
232,288,41440,1,0,0:0:0:0:
232,288,41547,2,2,L|320:296,1,80
256,48,41976,2,0,L|168:56,1,80,8|2,0:0|0:0,0:0:0:0:
352,152,42404,2,2,L|528:168,1,160,0|6,0:0|0:0,0:0:0:0:
248,200,43047,5,0,2:0:0:0:
248,200,43154,1,2,0:0:0:0:
248,200,43261,2,2,L|160:208,1,80
136,24,43690,2,0,P|130:65|128:103,1,80,8|2,0:0|0:0,0:0:0:0:
48,312,44118,2,2,P|43:230|34:153,1,160,0|6,0:0|0:0,0:0:0:0:
152,312,44761,5,0,2:0:0:0:
152,312,44868,1,0,0:0:0:0:
152,312,44975,2,2,P|192:304|231:303,1,80
248,64,45404,2,0,P|254:106|256:143,1,80,8|2,0:0|0:0,0:0:0:0:
367,327,45833,2,2,P|369:290|376:248,1,80,0|0,0:0|0:0,0:0:0:0:
400,96,46261,5,6,0:0:0:0:
272,216,46476,1,2,0:2:0:0:
264,40,46690,1,2,0:2:0:0:
144,168,46904,1,0,0:0:0:0:
144,168,47011,2,0,L|96:176,1,40,0|4,0:0|2:2,0:0:0:0:
0,280,47333,1,2,0:2:0:0:
128,336,47547,1,2,0:2:0:0:
160,320,47654,1,0,0:0:0:0:
192,312,47761,1,2,0:2:0:0:
224,312,47868,1,0,0:0:0:0:
256,320,47976,6,0,B|296:304|296:304|336:304,1,80,4|0,0:0|0:0,0:0:0:0:
400,168,48619,1,0,0:0:0:0:
360,296,48833,2,0,P|378:300|408:304,2,40.000001525879,4|0|0,0:2|0:0|0:0,0:0:0:0:
424,176,49262,2,0,P|444:173|463:168,2,40.000001525879
312,96,49691,6,0,P|280:96|232:88,1,66.6666666666667,4|0,0:0|0:0,0:0:0:0:
152,56,49976,1,0,0:0:0:0:
128,168,50118,2,0,P|160:168|194:163,1,66.6666666666667,8|0,0:3|0:0,0:0:0:0:
40,104,50404,1,8,0:3:0:0:
32,216,50547,2,0,P|32:256|40:288,1,66.6666666666667,8|0,0:0|0:0,0:0:0:0:
144,272,50833,1,0,0:0:0:0:
248,256,50976,2,0,P|260:295|264:336,1,66.6666666666667,0|0,0:0|0:2,0:0:0:0:
392,336,51261,1,8,0:0:0:0:
400,232,51405,6,0,B|384:192|384:192|384:144,1,80,4|0,0:0|0:0,0:0:0:0:
408,40,52048,1,0,0:0:0:0:
309,30,52262,2,0,P|302:45|288:64,2,40.000001525879,4|0|0,0:2|0:0|0:0,0:0:0:0:
277,201,52691,2,0,P|271:188|256:168,2,40.000001525879
128,136,53119,6,0,P|158:119|192:88,1,66.6666666666667,4|0,0:0|0:0,0:0:0:0:
24,48,53405,1,0,0:0:0:0:
16,192,53548,2,0,P|8:224|5:257,1,66.6666666666667,8|0,0:3|0:0,0:0:0:0:
144,296,53833,1,8,0:3:0:0:
240,320,53976,6,0,P|272:336|304:344,2,40.000001525879,8|0|0,0:0|0:0|0:0,0:0:0:0:
48,352,54404,1,0,0:0:0:0:
48,352,54547,2,0,P|8:344|-16:344,1,40.000001525879
160,256,54833,5,6,0:0:0:0:
304,176,55048,1,0,2:0:0:0:
312,160,55155,1,0,0:0:0:0:
320,144,55262,2,2,P|326:103|328:56,1,80
80,184,55691,2,0,L|168:176,1,80,8|2,0:0|0:0,0:0:0:0:
192,40,56119,2,2,L|32:48,1,160,2|6,0:0|0:0,0:0:0:0:
224,120,56762,5,0,2:0:0:0:
240,128,56869,1,2,0:0:0:0:
256,136,56976,2,2,P|304:136|360:128,1,80
504,80,57405,2,0,P|463:74|425:72,1,80,8|2,0:0|0:0,0:0:0:0:
408,336,57833,2,2,P|419:250|424:176,1,160,2|6,0:0|0:0,0:0:0:0:
296,96,58476,5,0,2:0:0:0:
296,96,58583,1,2,0:0:0:0:
296,96,58690,1,2,0:0:0:0:
184,160,58904,1,2,0:0:0:0:
296,112,59119,2,0,P|302:154|304:191,1,80,8|2,0:0|0:0,0:0:0:0:
88,312,59548,2,2,P|81:270|80:232,1,80,0|2,0:0|0:0,0:0:0:0:
104,64,59976,5,6,0:0:0:0:
248,88,60191,1,2,0:2:0:0:
368,232,60404,5,6,0:2:0:0:
224,208,60619,1,2,0:2:0:0:
224,224,60726,2,0,P|226:256|232:272,1,40,0|4,0:0|0:2,0:0:0:0:
512,128,61047,5,2,0:2:0:0:
368,104,61262,1,6,0:2:0:0:
360,96,61368,1,0,0:0:0:0:
352,88,61476,1,0,0:0:0:0:
344,80,61583,1,0,0:0:0:0:
336,72,61690,5,4,2:0:0:0:
160,72,75404,6,0,P|168:112|168:144,1,60.0000022888184,0|0,1:0|0:0,0:0:0:0:
168,232,75833,1,0,1:0:0:0:
168,232,76261,1,0,1:0:0:0:
56,192,76476,1,0,1:0:0:0:
192,224,76690,2,0,L|264:216,1,60.0000022888184,0|0,0:0|1:0,0:0:0:0:
392,200,77118,2,0,P|402:270|392:320,2,120.000004577637,0|0|0,1:0|1:0|1:0,1:0:0:0:
264,184,78190,1,0,1:0:0:0:
392,168,78404,1,0,0:0:0:0:
264,184,78618,1,0,1:0:0:0:
384,144,78833,6,0,P|376:104|376:72,1,60.0000022888184,0|0,1:0|0:0,0:0:0:0:
480,24,79261,2,0,P|488:64|488:96,1,60.0000022888184,0|0,1:0|0:0,0:0:0:0:
376,48,79690,1,0,1:0:0:0:
272,64,79905,1,0,1:0:0:0:
384,144,80119,2,0,L|456:136,1,60.0000022888184,0|0,0:0|1:0,0:0:0:0:
280,168,80547,2,0,P|270:214|280:285,2,120.000004577637,0|0|0,1:0|1:0|1:0,1:0:0:0:
288,304,81619,1,0,1:0:0:0:
120,232,81833,1,0,0:0:0:0:
288,304,82047,1,0,1:0:0:0:
120,232,82261,6,0,P|94:229|56:232,1,60.0000022888184,0|0,1:0|0:0,0:0:0:0:
288,304,82690,1,0,1:0:0:0:
288,304,83118,1,0,1:0:0:0:
352,144,83333,2,0,L|488:136,1,120.000004577637,0|0,1:0|1:0,0:0:0:0:
432,240,83976,2,0,L|296:248,1,120.000004577637,0|0,1:0|1:0,0:0:0:0:
312,247,84833,5,0,1:0:0:0:
120,160,85047,2,0,P|184:152|240:168,1,120.000004577637,0|0,1:0|1:0,0:0:0:0:
23,343,85690,2,0,L|16:224,1,120.000004577637,0|0,1:0|1:0,0:0:0:0:
16,224,86547,5,0,1:0:0:0:
128,248,86761,2,0,P|192:240|256:240,1,120.000004577637,0|0,1:0|1:0,0:0:0:0:
424,160,87404,2,0,P|352:168|304:168,1,120.000004577637,0|0,1:0|1:0,0:0:0:0:
304,168,88261,5,0,0:0:0:0:
296,160,88476,1,0,0:0:0:0:
288,152,88690,1,0,0:0:0:0:
280,144,88904,1,0,0:0:0:0:
272,136,89118,6,0,L|208:136|112:136,2,160,4|2|0,1:0|1:3|1:0,0:0:0:0:
392,328,90190,2,0,P|376:289|368:251,1,80,0|2,1:0|0:0,0:0:0:0:
184,296,90618,1,0,1:0:0:0:
184,296,90833,2,0,P|222:288|260:272,1,80,2|0,1:3|0:0,0:0:0:0:
152,120,91261,2,0,P|113:127|75:143,1,80,2|8,1:3|3:0,0:0:0:0:
296,136,91690,1,8,1:0:0:0:
296,136,91904,2,0,L|312:56,1,80,0|2,1:0|0:0,0:0:0:0:
408,280,92333,1,0,1:0:0:0:
408,280,92547,6,0,L|416:192,1,80,2|0,1:3|0:0,0:0:0:0:
160,176,92976,2,0,L|152:256,1,80,2|0,1:3|0:0,0:0:0:0:
48,304,93404,1,8,1:0:0:0:
152,264,93618,2,0,P|167:302|175:340,1,80,0|2,1:0|0:0,0:0:0:0:
48,304,94046,1,0,1:0:0:0:
240,224,94261,2,0,P|320:256|400:264,1,160,2|2,1:3|0:0,0:0:0:0:
472,192,94904,1,2,1:3:0:0:
400,272,95118,2,0,P|436:291|498:300,1,80,8|0,1:0|1:0,0:0:0:0:
360,56,95547,2,0,P|368:112|360:160,1,80,2|0,0:0|1:0,0:0:0:0:
136,48,95976,5,2,1:2:0:0:
136,48,96405,2,0,P|175:33|216:24,1,80,2|0,1:3|0:0,0:0:0:0:
232,272,96834,1,8,1:0:0:0:
232,272,97048,2,0,P|216:233|208:195,1,80,0|2,1:0|0:0,0:0:0:0:
0,160,97476,1,0,1:0:0:0:
0,160,97691,2,0,P|38:168|76:184,1,80,2|0,1:3|0:0,0:0:0:0:
224,352,98119,2,0,L|232:272,1,80,2|8,1:3|3:0,0:0:0:0:
272,88,98548,1,8,1:0:0:0:
272,88,98761,2,0,L|264:168,1,80,0|2,1:0|0:0,0:0:0:0:
104,264,99191,1,0,1:0:0:0:
104,264,99404,5,2,1:3:0:0:
104,264,99833,2,0,P|149:264|208:272,1,80,2|2,1:3|1:2,0:0:0:0:
40,136,100262,1,8,1:0:0:0:
40,136,100476,2,0,P|124:146|200:152,1,160,0|0,1:0|1:0,0:0:0:0:
424,176,101118,1,4,2:0:0:0:
424,176,102404,5,8,0:0:0:0:
288,136,102547,1,8,0:0:0:0:
384,32,102689,1,4,0:0:0:0:
424,176,102833,6,0,P|440:232|432:296,2,120,4|2|0,0:0|0:3|0:0,0:0:0:0:
208,176,103690,2,2,B|160:176|160:176|127:178|127:178|56:176,1,140,4|2,0:0|2:0,0:0:0:0:
184,72,104547,6,0,L|80:64,1,72.0000002746582,4|0,0:0|0:0,0:0:0:0:
160,336,104833,1,0,0:0:0:0:
160,336,104976,2,0,L|168:256,1,72.0000002746582,8|0,0:3|0:0,0:0:0:0:
16,152,105261,1,8,0:3:0:0:
16,152,105404,2,0,L|8:224,1,72.0000002746582,8|0,0:0|0:0,0:0:0:0:
264,160,105690,1,0,0:0:0:0:
304,240,105833,5,0,0:0:0:0:
176,152,105976,1,0,0:0:0:0:
320,80,106118,1,8,0:0:0:0:
304,240,106261,6,0,P|320:296|312:360,2,120,4|2|0,0:0|0:3|0:0,0:0:0:0:
182,72,107118,2,2,B|248:80|248:80|282:74|282:74|320:80,1,140,4|2,0:0|2:0,0:0:0:0:
248,192,107976,6,0,P|216:184|152:184,1,72.0000002746582,4|0,0:0|0:0,0:0:0:0:
56,192,108261,1,0,0:0:0:0:
72,312,108404,2,0,P|107:318|152:320,1,72.0000002746582,8|0,0:3|0:0,0:0:0:0:
288,288,108689,1,8,0:3:0:0:
408,200,108833,2,0,P|418:168|416:128,1,72.0000002746582,8|0,0:0|0:0,0:0:0:0:
288,288,109154,1,0,0:0:0:0:
288,288,109261,2,0,P|280:320|288:368,1,72.0000002746582
392,360,109547,1,8,0:0:0:0:
392,360,109690,6,0,L|512:360,2,120,4|4|0,0:0|0:2|0:0,0:0:0:0:
168,320,110547,2,0,L|88:320,1,80,4|0,0:2|0:0,0:0:0:0:
288,288,110976,1,8,0:2:0:0:
192,200,111190,1,8,0:2:0:0:
168,320,111404,5,4,0:0:0:0:
104,128,111618,1,2,2:0:0:0:
304,184,111833,1,0,0:0:0:0:
104,128,112047,1,0,0:0:0:0:
104,128,112154,1,0,0:0:0:0:
104,128,112261,2,0,P|96:88|104:48,1,80,4|0,0:2|0:0,0:0:0:0:
304,104,112690,2,0,P|312:144|304:184,1,80,0|2,0:0|2:0,0:0:0:0:
296,216,113011,1,0,0:0:0:0:
288,248,113118,6,0,L|168:248,2,120,4|2|0,0:0|0:3|0:0,0:0:0:0:
448,257,113975,2,0,P|456:293|448:336,1,80,8|0,0:0|0:0,0:0:0:0:
288,288,114404,1,0,0:0:0:0:
440,224,114618,1,2,2:0:0:0:
288,288,114832,5,4,0:0:0:0:
224,128,115046,1,0,0:0:0:0:
384,48,115261,1,0,0:0:0:0:
440,224,115475,1,0,0:0:0:0:
448,200,115582,1,0,0:0:0:0:
456,176,115690,2,0,L|360:176,1,80,8|0,0:0|0:0,0:0:0:0:
144,288,116118,2,0,L|224:288,1,80,0|2,0:0|2:0,0:0:0:0:
256,288,116440,1,0,2:0:0:0:
288,288,116547,6,0,L|424:288,2,120,4|2|0,0:0|0:3|0:0,0:0:0:0:
48,168,117404,2,2,B|101:168|101:168|125:160|125:160|197:160,1,140,4|0,0:0|2:0,0:0:0:0:
368,152,118261,6,0,B|384:184|384:184|384:240,1,69.3333301595054,4|0,0:0|0:0,0:0:0:0:
248,256,118547,1,0,0:0:0:0:
184,152,118690,2,0,B|168:120|168:120|168:86,1,69.3333301595054,8|0,0:3|0:0,0:0:0:0:
296,48,118976,1,8,0:3:0:0:
368,152,119118,5,8,0:0:0:0:
352,248,119261,1,0,0:0:0:0:
280,184,119404,1,0,0:0:0:0:
312,360,119547,5,0,0:0:0:0:
240,304,119690,1,0,0:0:0:0:
168,240,119833,1,8,0:0:0:0:
168,240,119976,6,0,L|16:240,2,120,4|2|0,0:0|0:3|0:0,0:0:0:0:
280,184,120833,2,2,B|341:184|341:184|365:176|365:176|418:176,1,140,4|0,0:0|2:0,0:0:0:0:
408,272,121690,6,0,B|400:344,1,69.3333301595054,4|0,0:0|0:0,0:0:0:0:
272,312,121976,1,0,0:0:0:0:
360,112,122118,2,0,B|352:184,1,69.3333301595054,8|0,0:3|0:0,0:0:0:0:
272,312,122404,1,8,0:3:0:0:
168,328,122547,6,0,B|80:344,1,69.3333301595054,8|0,0:0|0:0,0:0:0:0:
232,208,122833,1,0,0:0:0:0:
232,208,122976,2,0,B|248:176|224:120,2,69.3333301595054,0|0|8,0:0|0:0|0:0,0:0:0:0:
120,120,123404,6,0,L|40:108,1,80,4|0,0:0|2:0,0:0:0:0:
24,140,123726,2,0,P|14:192|46:248,1,120,4|0,0:2|0:0,0:0:0:0:
272,136,124261,1,4,0:2:0:0:
272,136,124476,2,2,B|352:144|432:120,1,160,0|8,0:0|0:2,0:0:0:0:
432,120,125118,5,4,0:0:0:0:
328,248,125333,1,0,0:0:0:0:
328,248,125440,1,0,0:0:0:0:
328,248,125547,1,0,0:0:0:0:
184,256,125761,1,0,0:0:0:0:
32,288,125976,5,8,0:0:0:0:
184,272,126190,1,2,2:0:0:0:
328,248,126404,2,2,P|360:176|336:88,1,160,2|4,0:0|0:0,0:0:0:0:
104,136,127047,5,2,2:0:0:0:
104,136,127154,2,0,L|232:120,1,120
256,256,127690,1,8,0:0:0:0:
256,256,127904,2,2,L|424:232,1,160,0|0,0:0|0:0,0:0:0:0:
320,112,128547,6,0,L|304:56,1,51.999997619629,4|0,0:0|0:0,0:0:0:0:
184,152,128761,2,0,L|200:208,1,51.999997619629,2|0,0:2|0:0,0:0:0:0:
72,80,128976,2,0,L|88:24,1,51.999997619629
0,192,129190,2,0,L|16:248,1,51.999997619629,0|2,0:2|0:2,0:2:0:0:
64,328,129404,2,0,L|216:328,1,133.333333333333,12|0,0:0|0:0,0:0:0:0:
208,296,129833,2,0,L|216:264,5,26.6666666666667
224,240,130261,6,0,P|312:168|264:64,1,240,4|2,0:0|0:3,0:0:0:0:
88,160,131118,2,2,B|136:160|136:160|176:144|176:144|240:144,1,140,4|0,0:0|2:0,0:0:0:0:
322,112,131976,6,0,L|392:120,1,69.3333301595054,4|0,0:0|0:0,0:0:0:0:
104,40,132261,1,0,0:0:0:0:
104,40,132404,2,0,L|256:56,1,138.666660319011,8|8,0:3|0:3,0:0:0:0:
0,112,132833,5,8,0:0:0:0:
168,160,132976,1,0,0:0:0:0:
64,240,133118,1,8,0:0:0:0:
320,176,133261,5,0,0:0:0:0:
176,184,133404,1,0,0:0:0:0:
312,192,133546,1,8,0:0:0:0:
184,216,133690,6,0,P|168:272|200:344,2,120,4|2|0,0:0|0:3|0:0,0:0:0:0:
336,328,134547,2,2,B|384:336|384:336|408:326|424:320|424:320|472:328,1,133.333333333333,4|2,0:0|2:0,0:0:0:0:
272,216,135404,6,0,L|360:232,1,69.3333301595054,4|0,0:0|0:0,0:0:0:0:
232,104,135689,1,0,0:0:0:0:
232,104,135832,2,0,L|80:80,1,138.666660319011,8|8,0:3|0:3,0:0:0:0:
0,160,136261,1,8,0:0:0:0:
112,192,136404,1,0,0:0:0:0:
32,248,136547,1,8,0:0:0:0:
80,104,136690,1,0,0:0:0:0:
136,192,136833,1,0,0:0:0:0:
112,328,136975,1,8,0:0:0:0:
240,280,137118,6,0,L|384:304,2,120,4|4|0,0:0|0:2|0:0,0:0:0:0:
448,184,137976,2,0,L|432:88,1,80,0|4,0:0|0:2,0:0:0:0:
272,48,138404,1,8,0:2:0:0:
432,80,138618,1,8,0:2:0:0:
272,64,138832,5,4,0:0:0:0:
112,168,139046,1,2,2:0:0:0:
152,32,139261,1,0,0:0:0:0:
232,200,139475,1,0,0:0:0:0:
232,200,139582,1,0,0:0:0:0:
232,200,139690,2,0,L|328:216,1,80,4|0,0:2|0:0,0:0:0:0:
440,232,140118,1,0,0:0:0:0:
447,237,140226,1,0,0:0:0:0:
453,243,140333,1,2,2:0:0:0:
458,251,140439,1,0,2:0:0:0:
463,257,140547,6,0,P|479:321|466:382,2,120,4|2|0,0:0|0:3|0:0,0:0:0:0:
384,40,141404,2,0,P|376:76|384:119,1,80,8|4,0:0|0:2,0:0:0:0:
256,144,141832,1,0,0:0:0:0:
440,224,142046,1,2,2:0:0:0:
256,144,142260,5,4,0:0:0:0:
88,88,142476,1,0,0:0:0:0:
128,264,142689,1,0,0:0:0:0:
256,144,142903,1,0,0:0:0:0:
264,120,143010,1,0,0:0:0:0:
272,96,143118,2,0,L|176:96,1,80,8|0,0:0|0:0,0:0:0:0:
144,272,143546,2,0,L|224:272,1,80,0|2,0:0|2:0,0:0:0:0:
248,264,143868,1,0,2:0:0:0:
272,248,143975,6,0,P|288:304|272:376,2,120,4|2|0,0:0|0:3|0:0,0:0:0:0:
232,32,144833,2,2,B|240:80|240:80|216:104|216:136|216:136|224:181,1,140,4|0,0:0|2:0,0:0:0:0:
136,280,145690,6,0,B|104:296|48:296,1,69.3333301595054,4|0,0:0|0:0,0:0:0:0:
40,184,145975,1,0,0:0:0:0:
8,80,146118,2,0,B|64:48|152:56,1,138.666660319011,8|8,0:3|0:3,0:0:0:0:
280,112,146546,5,8,0:0:0:0:
368,160,146689,1,0,0:0:0:0:
368,56,146832,1,8,0:0:0:0:
288,144,146975,5,0,0:0:0:0:
448,104,147118,1,0,0:0:0:0:
392,256,147261,1,8,0:0:0:0:
392,256,147404,6,0,L|240:256,2,120,4|0|0,0:0|0:0|0:0,0:0:0:0:
48,208,148261,2,2,B|80:224|80:224|200:224,1,140,4|0,0:0|2:0,0:0:0:0:
111,108,149118,6,0,B|48:80,1,69.3333301595054,4|0,0:0|0:0,0:0:0:0:
216,72,149404,1,0,0:0:0:0:
216,72,149547,2,0,B|352:128,1,138.666660319011,8|8,0:3|0:3,0:0:0:0:
432,208,149975,6,0,B|520:208,1,69.3333301595054,8|0,0:0|0:0,0:0:0:0:
344,304,150261,1,8,0:0:0:0:
184,320,150404,2,0,B|114:320,1,69.3333301595054
256,216,150690,1,8,0:0:0:0:
256,216,150833,6,0,P|264:168|256:128,1,80,4|0,0:0|2:0,0:0:0:0:
224,144,151154,2,0,L|88:152,1,120,4|0,0:2|0:0,0:0:0:0:
312,40,151689,1,4,0:2:0:0:
344,304,151904,2,2,L|512:296,1,160,0|0,0:0|0:0,0:0:0:0:
248,336,152546,5,4,0:0:0:0:
344,200,152761,1,2,2:0:0:0:
344,200,152868,1,0,0:0:0:0:
344,200,152975,1,0,0:0:0:0:
192,248,153189,1,0,0:0:0:0:
344,304,153404,1,4,0:2:0:0:
248,168,153618,1,0,0:0:0:0:
248,336,153833,2,2,L|80:344,1,160,0|4,0:0|0:0,0:0:0:0:
40,104,154476,5,0,2:0:0:0:
40,104,154582,2,0,P|24:160|56:232,1,120
376,232,155118,1,8,0:0:0:0:
304,160,155333,2,2,P|232:136|144:176,1,160,2|0,0:0|0:0,0:0:0:0:
176,48,155976,6,0,P|192:48|224:32,1,51.999997619629
231,210,156189,2,0,P|217:245|208:256,1,51.999997619629
379,72,156404,2,0,P|407:52|424:48,1,51.999997619629
434,229,156618,2,0,P|440:248|448:280,1,51.999997619629
248,344,156832,2,0,P|168:336|88:352,1,155.999992858887,8|0,0:0|2:0,0:0:0:0:
56,344,157261,2,0,L|32:352,6,20
48,304,157690,5,4,0:0:0:0:
48,304,158118,1,2,1:2:0:0:
48,304,158547,1,0,1:2:0:0:
176,296,158761,2,0,L|336:289,1,160,0|0,1:0|1:0,0:2:0:0:
40,288,159404,2,0,P|8:232|40:136,1,160,0|0,1:0|1:2,0:2:0:0:
112,48,160047,1,0,2:0:0:0:
31,144,160261,2,0,L|127:135,1,80,0|0,1:0|1:0,0:2:0:0:
248,96,160690,2,0,L|296:96,3,40,0|0|0|0,1:0|0:0|1:0|1:0,0:2:0:0:
288,96,161118,6,0,L|456:88,2,160,0|0|0,1:0|1:0|1:0,0:2:0:0:
216,176,162190,2,0,P|200:256|232:336,1,160,0|0,1:0|1:0,0:2:0:0:
96,384,162833,2,0,P|112:304|80:224,1,160,0|0,1:0|1:0,0:2:0:0:
120,128,163476,1,0,2:0:0:0:
216,176,163690,2,0,L|295:164,1,80,0|0,1:0|1:0,0:2:0:0:
415,228,164118,2,0,L|336:240,1,80,0|0,0:0|1:0,0:2:0:0:
256,328,164547,6,0,L|335:339,1,80,0|0,1:0|2:2,0:2:0:0:
256,328,164976,2,0,L|176:339,1,80,0|0,1:0|2:0,0:2:0:0:
96,228,165404,1,0,1:2:0:0:
96,228,165618,38,0,L|176:240,1,80,0|0,1:0|2:0,0:2:0:0:
176,128,166047,1,0,1:2:0:0:
176,128,166261,2,0,L|-8:104,2,160,0|0|0,1:0|1:0|1:0,0:2:0:0:
272,64,167333,2,0,P|312:48|368:56,1,80,0|0,1:0|2:0,0:2:0:0:
400,168,167761,1,0,1:2:0:0:
400,168,167976,6,0,P|360:184|304:176,1,80,0|0,1:0|2:0,0:2:0:0:
323,182,168404,2,0,L|304:272,1,80,0|0,1:0|2:0,0:2:0:0:
160,352,168833,1,0,1:2:0:0:
160,352,169047,2,0,L|200:192,1,160,0|0,1:0|1:0,0:2:0:0:
88,72,169690,2,0,P|89:108|105:148,1,80,0|0,1:0|2:0,0:2:0:0:
256,96,170118,2,0,P|254:59|238:19,1,80,0|0,1:0|2:0,0:2:0:0:
105,148,170547,2,0,L|192:160,1,80,0|0,1:0|1:0,0:2:0:0:
384,256,170976,2,0,L|288:248,1,80,0|0,2:0|1:0,0:2:0:0:
24,224,171404,6,0,P|16:288|24:352,1,120,4|0,0:0|0:0,0:0:0:0:
21,342,171833,1,0,0:0:0:0:
192,328,172047,1,0,0:0:0:0:
21,342,172261,1,8,0:0:0:0:
192,328,172476,2,2,B|256:328|256:328|288:336|288:336|352:336,1,160,0|0,0:0|0:0,0:0:0:0:
368,96,173118,6,0,L|360:184,1,80,4|0,0:0|2:0,0:0:0:0:
360,192,173440,1,0,0:0:0:0:
360,208,173547,1,4,0:0:0:0:
144,144,173761,1,0,0:0:0:0:
144,144,173976,2,0,L|152:40,1,80,8|4,0:0|2:0,0:0:0:0:
448,208,174404,1,2,2:0:0:0:
457,243,174511,1,0,2:0:0:0:
455,278,174618,1,0,2:0:0:0:
447,313,174726,1,0,2:0:0:0:
420,335,174833,6,0,L|296:320,1,120,4|0,0:0|0:0,0:0:0:0:
287,305,175261,1,0,0:0:0:0:
48,224,175476,1,0,0:0:0:0:
48,224,175690,2,2,B|80:200|80:200|200:208,1,160,8|0,0:0|0:0,0:0:0:0:
320,184,176333,1,0,0:0:0:0:
440,144,176547,6,0,P|447:109|448:64,1,80,4|0,0:0|2:0,0:0:0:0:
424,64,176869,1,0,0:0:0:0:
400,64,176976,1,0,0:0:0:0:
192,104,177190,1,4,0:0:0:0:
192,104,177404,2,0,P|184:138|184:184,1,80,8|0,0:0|2:0,0:0:0:0:
56,288,177833,1,2,2:0:0:0:
92,283,177941,1,0,2:0:0:0:
128,286,178048,1,2,2:0:0:0:
163,297,178155,1,0,2:0:0:0:
192,320,178261,6,0,L|320:328,1,120,4|0,0:0|0:0,0:0:0:0:
344,328,178690,1,0,0:0:0:0:
512,328,178904,1,0,0:0:0:0:
344,328,179118,5,8,0:0:0:0:
344,328,179547,1,0,0:0:0:0:
424,224,179761,1,0,0:0:0:0:
416,96,179976,6,0,P|368:72|280:88,1,120,4|0,0:0|0:0,0:0:0:0:
175,110,180404,2,0,L|96:104,1,80,4|0,0:0|0:0,0:0:0:0:
224,235,180833,2,0,L|344:224,1,120,4|2,0:2|2:0,0:0:0:0:
472,336,181261,2,0,B|467:339|467:339|464:334|464:334|459:338|459:338|456:333|456:333|451:337|451:337|448:332|448:332|443:336|443:336|440:331|440:331|435:334|435:334|432:330|432:330|427:333|427:333|424:329|424:329|419:332|419:332|416:328|416:328|412:331|412:331|408:327|408:327|404:330|404:330|400:325|400:325|396:329|396:329|392:324|392:324|388:328|388:328|384:323,1,120.000004577637,0|0,0:0|0:0,0:0:0:0:
72,208,182011,5,0,0:0:0:0:
72,208,182118,2,0,P|56:248|64:288,1,80
208,120,182547,1,8,0:0:0:0:
64,40,182761,1,4,2:0:0:0:
208,120,182976,2,0,L|296:128,1,80
459,151,183404,6,0,P|475:209|456:264,1,120,4|0,0:0|0:0,0:0:0:0:
456,264,183833,1,0,0:0:0:0:
240,288,184047,1,4,0:0:0:0:
240,288,184261,2,0,L|320:280,1,80,8|0,0:0|0:0,0:0:0:0:
112,304,184690,1,2,2:0:0:0:
91,275,184797,1,2,2:0:0:0:
85,239,184904,1,0,2:0:0:0:
90,203,185011,1,0,2:0:0:0:
103,169,185118,5,4,2:0:0:0:
