osu file format v9

[General]
AudioFilename: Helical.mp3
AudioLeadIn: 0
PreviewTime: 112520
Countdown: 0
SampleSet: Soft
StackLeniency: 0.7
Mode: 0
LetterboxInBreaks: 1

[Editor]
DistanceSpacing: 1
BeatDivisor: 4
GridSize: 8

[Metadata]
Title:Helical
Artist:La Cataline
Creator:La Cataline
Version:Light
Source:
Tags:

[Difficulty]
HPDrainRate:5
CircleSize:4
OverallDifficulty:5
ApproachRate:6
SliderMultiplier:1
SliderTickRate:1

[Events]
//Background and Video events
0,0,"Helical____by_Gurly.jpg"
//Break Periods
2,67732,81482
//Storyboard Layer 0 (Background)
//Storyboard Layer 1 (Fail)
//Storyboard Layer 2 (Pass)
//Storyboard Layer 3 (Foreground)
//Storyboard Sound Samples
//Background Colour Transformations
3,100,192,192,192

[TimingPoints]
15032,468.75,4,2,1,62,1,0
30032,-100,4,1,1,62,0,0
30149,-100,4,2,1,62,0,0
31907,-100,4,1,1,62,0,0
32024,-100,4,2,1,62,0,0
33782,-100,4,1,1,62,0,0
33899,-100,4,2,1,62,0,0
35657,-100,4,1,1,62,0,0
35774,-100,4,2,1,62,0,0
37532,-100,4,1,0,62,0,0
82532,-100,4,2,0,62,0,0
97532,-100,4,1,0,62,0,0
98000,-100,4,2,0,62,0,0
112520,-76.9230769230769,4,1,1,62,0,0
172532,-100,4,2,1,62,0,1
180032,-100,4,2,1,62,0,1
187532,-100,4,1,1,62,0,0
201594,-200,4,2,1,0,0,0
201711,-200,4,2,1,0,0,0

[Colours]
Combo1 : 255,128,255
Combo2 : 0,128,128
Combo3 : 128,255,255

[HitObjects]
256,88,15032,1,4
256,288,15969,1,0
168,240,16438,2,2,B|152:190|168:128,1,100,2|0
256,184,17375,5,2
344,240,17844,1,0
344,240,18313,2,2,B|359:190|344:128,1,100,0|0
256,184,19250,5,2
208,96,19719,2,0,B|264:64|312:104,2,100,0|0|0
256,184,21125,5,2
256,288,21594,2,0,B|256:344,4,50,0|0|0|0|4
152,256,23000,6,0,B|88:232|88:120|168:96,1,200,2|0
192,176,24407,1,0
192,176,24875,2,0,B|240:152|288:176,1,100,2|0
240,256,25813,2,0,B|288:280|336:256,1,100,2|0
383,330,26750,5,2
383,330,27219,2,0,B|447:306|447:194|367:170,1,200,0|0
328,256,28625,1,2
248,304,29094,2,0,B|208:256|248:216,2,100
272,168,30735,6,0,B|300:151|311:128,2,50
239,201,31438,2,2,B|193:223|165:274,1,100,2|0
239,167,32610,2,0,B|210:150|199:127,2,50
272,200,33313,2,2,B|317:222|345:273,1,100,2|0
256,296,34485,6,0,B|256:352,2,50
256,248,35188,2,2,B|256:128,1,100,2|0
336,288,36594,1,0
176,288,37532,1,0
176,288,38000,6,2,B|224:312|272:288,2,100,0|2|8
112,224,39407,1,2
176,160,39875,2,2,B|224:136|280:160,1,100,0|2
224,224,40813,2,0,B|272:248|320:224,1,100,8|2
360,152,41750,5,0
360,152,42219,2,2,B|288:152|288:152|246:152|246:152|241:157|241:157|235:152|235:152|229:157|229:157|224:152|224:152|218:157|218:157|212:152|212:152|207:157|207:157|201:152|201:152|195:157|195:157|190:152|190:152|176:152|176:152,1,200
168,248,43625,2,2,B|224:248|264:288,1,100,0|2
344,248,44563,2,0,B|288:248|248:288,1,100,8|2
256,184,45500,6,2,B|256:384,1,200,0|10
344,336,46907,2,0,B|344:236,1,100,2|0
432,180,47844,2,0,B|432:280,2,100,0|10|2
432,80,49250,6,2,B|344:8|224:120|144:56,1,300,0|2
120,136,51125,1,8
200,152,51594,1,2
280,144,52063,1,8
312,216,52532,6,2,B|360:224,2,50,0|0|2
248,288,53469,2,2,B|256:336,2,50,0|2|2
176,224,54407,2,2,B|120:240,2,50,0|0|2
224,152,55344,2,2,B|208:88,2,50,0|2|10
312,192,56282,6,0,B|384:120,2,100,2|0|8
288,288,57688,1,2
208,232,58157,2,0,B|136:304,2,100,2|0|8
224,136,59563,1,2
224,136,60032,6,2,B|120:96|32:176,1,200,0|2
64,248,61438,1,8
152,248,61907,2,2,B|200:160|152:56,1,200,0|2
240,72,63313,1,8
248,160,63782,2,2,B|160:112|56:160,2,200,0|2|6
256,192,65891,12,4,67532
112,120,82532,6,0,B|256:32|400:128,1,300,4|2
336,192,84407,1,0
256,152,84875,1,2
176,192,85344,1,0
304,312,86282,6,0,B|192:312,2,100,2|0|2
205,161,88157,2,0,B|317:161,2,100,0|2|0
368,240,90032,6,0,B|488:208|456:80,1,200,2|0
376,56,91438,1,2
376,144,91907,2,0,B|256:176|288:304,1,200,2|0
144,240,93782,6,0,B|24:208|56:80,1,200,2|0
136,56,95188,1,2
136,144,95657,2,0,B|256:176|224:304,1,200,2|2
344,184,97532,5,4
368,112,98000,5,0
424,168,98469,1,2
400,240,98938,1,0
288,128,99875,1,0
263,207,100344,1,2
320,264,100813,1,0
184,192,101750,6,0,B|129:212|81:188,2,100,0|2|0
328,192,103625,2,0,B|382:172|431:196,2,100,0|2|0
224,320,105500,6,0,B|152:288|256:168|176:136,1,200,0|2
288,56,107375,2,0,B|360:88|256:208|336:240,1,200,2|2
256,192,108782,12,0,111594
32,88,112532,5,4
32,88,113000,2,2,B|41:178|142:174,1,129.999997675419,0|2
155,78,113938,1,8
249,120,114407,1,0
207,214,114875,2,2,B|216:304|317:300,2,129.999997675419,0|0|10
384,104,116750,6,2,B|432:168|376:232,1,129.999997675419,0|2
304,288,117688,2,8,B|256:224|312:160,1,129.999997675419,8|0
384,224,118625,2,2,B|432:288|376:352,2,129.999997675419,0|0|10
176,240,120500,5,0
176,240,120969,2,2,B|256:232|264:144,2,129.999997675419,2|8|2
160,136,122375,1,2
144,32,122844,2,0,B|64:40|56:128,2,129.999997675419,0|10|4
248,32,124250,6,2,B|328:16|360:96,1,129.999997675419,0|2
264,128,125188,2,2,B|192:240,1,129.999997675419,0|2
224,336,126125,2,2,B|304:224,2,129.999997675419,2|0|2
328,352,127532,5,4
432,328,128000,2,0,B|312:240|344:80,1,259.999995350838,0|8
248,152,129407,1,8
272,256,129875,2,0,B|360:136|520:168,1,259.999995350838,0|8
328,48,131750,6,0,B|272:88|192:64,1,129.999997675419
256,160,132688,2,0,B|312:120|392:144,2,129.999997675419,8|0|8
152,176,134094,2,0,B|96:216|16:192,1,129.999997675419,0|8
192,320,135500,6,0,B|240:256|360:360|448:280,1,259.999995350838,0|8
344,104,137375,2,0,B|296:40|176:144|88:64,1,259.999995350838,0|8
144,168,138782,6,0,B|224:192|272:144,1,129.999997675419
248,248,139719,2,0,B|248:112,1,129.999997675419,0|8
352,168,140657,2,0,B|272:192|224:144,1,129.999997675419,0|8
128,144,141594,2,0,B|208:120|256:168,1,129.999997675419,0|8
256,56,142532,5,4
256,56,143000,2,2,B|256:208,2,129.999997675419,0|2|8
344,120,144407,1,0
344,224,144875,1,2
344,328,145344,2,0,B|416:328,2,64.9999988377094,0|8|0
256,328,146282,5,0
256,328,146750,2,2,B|256:176,2,129.999997675419,0|2|8
168,264,148157,1,0
168,160,148625,1,2
168,56,149094,2,0,B|96:56,2,64.9999988377094,0|8|0
256,56,150032,5,0
329,129,150500,2,2,B|425:225,1,129.999997675419,0|2
401,321,151438,1,8
327,247,151907,1,0
296,344,152375,2,0,B|199:247,1,129.999997675419,10|0
232,152,153313,6,0,B|288:208,2,64.9999988377094,0|0|2
256,256,154250,2,2,B|200:312,2,64.9999988377094,0|2|2
328,184,155188,2,0,B|384:128,2,64.9999988377094,2|0|2
352,288,156125,1,8
352,288,156594,1,2
352,288,157063,1,8
352,288,157532,5,6
208,144,158469,5,0
136,88,158938,1,8
64,144,159407,1,4
256,200,160344,1,0
328,248,160813,1,8
400,200,161282,1,4
400,200,162219,6,0,B|424:368|264:376,1,259.999995350838,0|4
104,248,164094,2,0,B|80:80|240:72,1,259.999995350838,0|6
248,224,165735,6,2,B|208:224|160:200,2,64.9999988377094,0|2|0
296,232,166438,2,0,B|360:248|440:216,1,129.999997675419,2|4
296,136,167610,2,2,B|336:136|384:112,2,64.9999988377094,0|2|0
248,144,168313,2,0,B|184:160|104:128,1,129.999997675419,2|4
232,240,169485,6,2,B|200:248|160:240,2,64.9999988377094,0|2|0
280,216,170188,2,0,B|312:208|352:216,2,64.9999988377094,2|8|4
72,216,171594,1,0
200,312,172532,5,0
296,312,173000,2,0,B|352:152|184:48,1,300
128,104,174875,1,2
136,184,175344,1,0
88,248,175813,1,2
96,328,176282,6,2,B|256:384|360:216,1,300,2|0
352,228,178157,2,0,B|376:112|312:32,1,200
316,37,179563,1,2
256,104,180032,6,0,B|200:88|160:144,1,100,0|2
232,176,180969,2,2,B|288:192|320:144,1,100,2|8
392,184,181907,2,0,B|376:240|432:280,1,100,0|2
464,208,182844,2,2,B|480:152|432:120,1,100,2|8
432,40,183782,6,0,B|320:216,1,200,0|2
324,208,185188,1,8
240,216,185657,2,0,B|256:304|352:288,2,150,4|4|4
224,136,187532,6,0,B|296:128,2,50,0|0|8
248,56,188469,2,0,B|368:40,1,100,0|8
392,112,189407,2,0,B|320:120,2,50,0|0|8
368,192,190344,2,0,B|248:208,1,100,0|8
192,208,191282,6,0,B|136:200|96:240,1,100,0|8
80,160,192219,2,0,B|72:104|112:64,1,100,0|8
182,96,193157,2,0,B|230:112|286:96,1,100,0|8
360,72,194094,2,0,B|396:108|388:164,2,100,0|8|4
296,192,195735,6,2,B|232:192,2,50,0|10|0
336,192,196438,2,0,B|392:224|440:176,1,100,2|4
336,112,197610,2,2,B|400:112,2,50,0|10|0
296,112,198313,2,0,B|240:80|192:128,1,100,2|4
232,232,199485,6,2,B|176:232,2,50,0|10|0
272,232,200188,2,0,B|336:232,2,50,2|8|4
256,80,201594,6,0,B|256:184,1,100,2|0
