osu file format v9

[General]
AudioFilename: Helical.mp3
AudioLeadIn: 0
PreviewTime: 112520
Countdown: 0
SampleSet: Normal
StackLeniency: 0.7
Mode: 0
LetterboxInBreaks: 1

[Editor]
DistanceSpacing: 0.1
BeatDivisor: 4
GridSize: 8

[Metadata]
Title:Helical
Artist:La Cataline
Creator:La Cataline
Version:Hard
Source:
Tags:

[Difficulty]
HPDrainRate:5
CircleSize:4
OverallDifficulty:7
ApproachRate:7
SliderMultiplier:1.6
SliderTickRate:1

[Events]
//Background and Video events
0,0,"Helical____by_Gurly.jpg"
//Break Periods
2,67732,81632
//Storyboard Layer 0 (Background)
//Storyboard Layer 1 (Fail)
//Storyboard Layer 2 (Pass)
//Storyboard Layer 3 (Foreground)
//Storyboard Sound Samples
//Background Colour Transformations
3,100,192,192,192

[TimingPoints]
15032,468.75,4,2,1,62,1,0
30032,-100,4,1,1,62,0,0
30149,-100,4,2,1,62,0,0
31907,-100,4,1,1,62,0,0
32024,-100,4,2,1,62,0,0
33782,-100,4,1,1,62,0,0
33899,-100,4,2,1,62,0,0
35657,-100,4,1,1,62,0,0
35774,-100,4,2,1,62,0,0
37532,-100,4,1,0,62,0,0
82532,-100,4,2,0,62,0,0
97532,-100,4,1,0,62,0,0
98000,-100,4,2,0,62,0,0
112520,-76.9230769230769,4,1,1,62,0,0
172532,-100,4,2,1,62,0,1
180032,-100,4,2,1,62,0,1
187532,-100,4,1,1,62,0,0
201594,-100,4,2,1,0,0,0
201711,-100,4,2,1,0,0,0

[Colours]
Combo1 : 255,128,255
Combo2 : 0,128,128
Combo3 : 128,255,255

[HitObjects]
80,200,14797,2,2,B|56:160|72:104,1,80,0|4
224,96,15500,1,2
224,96,15969,2,0,B|248:136|232:192,1,80,0|0
176,280,16438,2,0,B|160:232,2,40,2|0|0
136,144,16907,5,0
432,184,17375,2,0,B|456:264|432:344,1,160,2|0
344,328,18078,1,0
256,304,18313,1,2
168,328,18547,1,0
168,328,18782,5,0
256,216,19250,1,2
368,224,19719,2,0,B|392:184|376:128,1,80,0|0
152,112,20188,2,0,B|128:152|144:208,1,80,2|0
264,160,20657,5,0
264,160,21125,1,2
224,272,21594,1,0
224,272,21828,2,0,B|264:288|312:272,1,80,0|2
304,64,22297,2,2,B|264:48|216:64,1,80,0|4
144,136,22766,5,0
128,192,23000,1,2
184,176,23235,1,0
136,96,23469,1,0
96,232,23703,1,0
232,192,23938,1,2
184,280,24172,6,0,B|200:328,2,40
296,264,24641,2,0,B|384:256|416:144,1,160,0|2
424,64,25344,2,0,B|336:72|304:184,1,160
310,163,26047,1,2
200,160,26282,6,0,B|112:160|72:248,1,160,0|2
176,256,26985,1,0
256,287,27219,1,0
344,256,27453,1,0
368,176,27688,1,2
368,176,27805,1,0
368,176,27922,1,2
264,184,28157,6,0,B|264:96|352:56,1,160,0|2
488,176,28860,2,0,B|488:264|400:304,1,160,0|0
368,176,29563,1,2
368,176,29797,1,0
224,200,30032,5,0
120,272,30266,2,0,B|144:312|184:320,1,80,0|2
320,128,30735,2,0,B|296:88|256:80,1,80,2|0
288,296,31203,2,0,B|328:272|336:232,1,80,0|2
160,72,31672,1,0
120,104,31789,1,0
104,152,31907,1,0
105,235,32141,6,0,B|144:312|224:336,1,160,2|2
398,156,32844,2,0,B|360:80|280:56,1,160,0|2
272,216,33547,2,0,B|192:144,1,80
136,88,34016,5,0
136,88,34250,1,2
131,148,34485,1,0
188,87,34719,1,2
135,34,34953,1,0
82,87,35188,1,2
136,88,35422,1,0
136,88,35657,5,0
256,192,35891,8,4,37532
176,56,38000,6,2,B|104:104|104:200,1,160,0|10
328,328,38703,2,2,B|400:280|400:184,1,160,0|2
256,184,39407,1,2
256,184,39641,1,0
160,336,39875,6,2,B|208:264,1,80,0|2
352,48,40344,2,0,B|304:120,1,80,8|2
256,184,40813,1,0
344,184,41047,1,2
344,96,41282,1,2
256,96,41516,1,0
301,139,41750,5,2
304,224,41985,1,0
216,224,42219,1,10
216,136,42453,1,0
256,176,42688,1,0
256,176,42805,1,0
256,176,42922,1,2
256,176,43157,5,2
128,288,43391,2,2,B|224:232,1,80,0|2
384,288,43860,2,2,B|288:232,1,80,2|8
256,64,44328,2,0,B|256:144,1,80,2|0
256,224,44797,1,2
256,224,45032,5,2
448,104,45266,2,0,B|432:152|392:184,1,80,0|0
320,296,45735,2,0,B|336:248|376:216,1,80,2|8
296,136,46203,2,0,B|344:152|376:192,1,80,2|0
384,200,46555,1,0
416,224,46672,2,2,B|448:264|496:280,1,80,10|2
64,280,47141,6,0,B|80:232|120:200,1,80,0|0
192,88,47610,2,0,B|176:136|136:168,1,80,2|8
216,248,48078,2,0,B|168:232|136:192,1,80,2|0
128,184,48430,1,0
96,160,48547,2,2,B|64:120|16:104,1,80,10|2
400,320,49250,6,2,B|456:264|448:160,1,160,0|10
112,320,49953,2,2,B|56:264|64:160,1,160,0|10
256,104,50657,5,2
168,272,50891,1,0
344,272,51125,1,0
256,152,51360,5,0
208,240,51594,1,10
304,240,51828,1,0
256,200,52063,5,0
256,200,52532,1,2
80,280,53000,6,2,B|88:192,1,80,0|2
152,64,53469,2,0,B|144:152,1,80,10|0
168,296,53938,2,2,B|176:208,1,80,0|2
240,80,54407,2,0,B|232:168,1,80,0|2
256,312,54875,2,2,B|264:224,1,80,0|2
328,96,55344,2,0,B|320:184,1,80,10|0
352,328,55813,2,0,B|360:240,1,80,0|2
416,104,56282,2,0,B|408:192,1,80,0|2
472,288,56750,6,2,B|392:272|320:200,1,160,0|10
272,144,57453,1,0
333,212,57688,1,0
256,232,57922,1,2
272,144,58157,1,0
333,212,58391,1,2
192,168,58625,6,2,B|112:152|40:80,1,160,0|10
80,216,59328,2,2,B|96:136|168:64,1,160,0|2
155,77,60032,1,0
155,77,60266,1,2
184,176,60500,6,2,B|216:240|288:224,1,120,0|0
299,221,60969,2,0,B|331:205|387:181,1,80,10|0
403,261,61438,1,0
371,187,61672,1,2
403,261,61907,1,0
371,187,62141,1,2
448,192,62375,6,2,B|472:128|448:64,1,120,0|0
451,74,62844,2,0,B|360:64,1,80,10|0
288,56,63313,1,8
256,64,63430,1,0
224,56,63547,1,10
192,64,63664,1,0
160,48,63782,6,2,B|112:40|64:56,1,80,0|2
160,160,64250,2,0,B|208:168|256:152,1,80
352,224,64719,2,0,B|304:216|256:232,1,80,2|0
352,336,65188,2,2,B|400:344|448:328,1,80,8|10
256,192,65657,1,0
264,104,65891,5,2
160,208,66125,1,0
352,184,66360,1,0
248,288,66594,1,2
256,192,66828,1,0
256,192,67063,1,8
256,192,67532,5,4
32,152,82532,6,2,B|32:56|128:48,1,160
120,136,83235,2,0,B|120:232|216:240,1,160
208,144,83938,2,2,B|280:80|360:152,1,160
280,216,84641,2,0,B|304:256|376:256,1,80
176,248,85110,2,0,B|130:259|79:208,1,80,0|2
208,152,85578,2,0,B|196:106|247:55,1,80,0|2
384,296,86282,6,2,B|280:368|160:272|72:344,1,320
48,256,87453,1,0
75,341,87688,1,0
48,256,87922,1,2
128,240,88157,2,0,B|152:208|152:144,1,80
216,72,88625,2,0,B|192:104|192:168,1,80,2|0
264,200,89094,2,0,B|224:194|179:149,1,80,2|0
82,143,89563,2,0,B|121:148|166:193,1,80,0|2
200,240,90032,5,0
288,272,90266,1,0
344,192,90500,1,2
256,160,90735,1,0
296,304,90969,5,2
384,176,91203,1,0
248,128,91438,1,0
168,248,91672,1,2
104,176,91907,5,0
168,248,92141,1,0
80,272,92375,1,2
168,248,92610,1,0
152,336,92844,1,2
168,248,93078,1,0
240,304,93313,1,0
168,248,93547,1,2
232,192,93782,5,0
232,104,94016,1,0
320,104,94250,1,2
320,192,94485,1,0
256,208,94719,5,2
256,120,94953,1,0
344,120,95188,1,0
344,208,95422,1,2
280,224,95657,5,0
280,136,95891,1,0
368,136,96125,1,2
368,224,96360,1,0
432,304,96594,1,0
437,309,96828,1,0
442,314,97063,1,2
447,319,97297,1,0
452,324,97532,5,4
128,272,98000,2,0,B|112:88,1,160,0|2
384,112,98938,2,2,B|400:296,1,160,2|8
176,64,99875,2,0,B|360:48,1,160,0|2
336,320,100813,2,2,B|152:336,1,160,2|8
328,232,101750,6,0,B|320:152,1,80
184,152,102219,2,0,B|192:232,1,80,2|0
296,120,102688,2,2,B|216:128,1,80,2|0
216,264,103157,2,0,B|296:256,1,80,8|0
320,64,103625,2,0,B|370:126,1,80
184,320,104094,2,0,B|133:257,1,80
368,272,104563,2,2,B|305:322,1,80,2|0
144,104,105032,2,0,B|206:53,1,80,8|0
432,296,105500,6,0,B|464:104,1,160,0|2
80,88,106438,2,2,B|48:280,1,160,2|8
352,112,107375,2,0,B|256:96,1,80
160,160,107844,2,0,B|256:176,1,80,2|0
352,256,108313,2,2,B|256:240,1,80,0|0
200,312,108782,2,0,B|296:328,1,80,8|0
255,101,109250,6,0,B|159:125|143:213|151:277|231:325|303:325|367:269|375:197|343:141|287:141|255:189|247:205,1,480,0|8
256,192,110774,8,0,112532
400,128,113000,6,2,B|381:77|317:69,1,103.999998140335,8|0
208,80,113469,2,0,B|230:134|302:142,1,103.999998140335,2|0
408,264,113938,2,0,B|354:242|346:170,1,103.999998140335,8|0
256,224,114407,1,0
168,272,114642,1,0
216,352,114876,1,8
304,304,115111,1,0
240,288,115345,5,0
136,352,115579,1,8
80,264,115814,1,0
184,192,116048,1,2
88,160,116282,6,0,B|64:96|112:48,1,103.999998140335,0|0
424,224,116750,2,2,B|448:288|400:336,1,103.999998140335,8|0
128,224,117219,2,2,B|104:160|152:112,1,103.999998140335,2|0
384,160,117687,2,0,B|408:224|360:272,1,103.999998140335,8|0
336,144,118157,2,0,B|307:81|239:81,1,103.999998140335,0|0
328,232,118625,2,0,B|299:294|231:294,1,103.999998140335,8|0
176,144,119094,2,0,B|204:81|272:81,1,103.999998140335,0|8
184,232,119562,2,0,B|212:294|280:294,1,103.999998140335,0|2
256,192,120032,5,0
96,320,120500,2,2,B|80:216|56:112,1,207.99999628067,8|2
136,96,121203,1,0
56,115,121438,1,8
168,168,121672,2,0,B|216:144|272:136,1,103.999998140335
392,176,122141,2,0,B|344:200|288:208,1,103.999998140335,0|8
280,288,122610,2,0,B|256:240|248:184,2,103.999998140335,0|0|8
288,64,123313,2,0,B|312:112|320:168,2,103.999998140335,0|2|0
104,208,124016,5,8
304,192,124250,2,2,B|326:313|462:305,1,207.99999628067,0|2
408,208,124953,1,8
208,192,125188,2,2,B|186:313|50:305,1,207.99999628067,0|2
256,104,125891,1,8
160,336,126125,2,2,B|256:280|368:344,1,207.99999628067,0|2
256,192,126828,1,8
304,48,127063,2,2,B|256:32|200:48,1,103.999998140335,0|8
144,272,127532,6,2,B|96:208|120:104,1,155.999997210503,4|0
116,123,128001,2,2,B|240:128,1,103.999998140335,0|2
296,128,128470,1,8
220,127,128704,1,2
256,200,128939,2,0,B|288:312|416:336,1,207.99999628067,0|2
352,184,129642,2,0,B|320:72|192:48,1,207.99999628067,0|2
206,51,130345,1,8
206,51,130579,1,2
40,136,130814,6,0,B|80:248,1,103.999998140335,0|0
184,304,131282,2,2,B|144:192,1,103.999998140335,0|0
24,160,131750,2,2,B|64:272,1,103.999998140335,0|2
208,280,132218,2,0,B|168:168,1,103.999998140335,8|2
152,64,132689,6,0,B|224:40|296:104|264:184,1,207.99999628067,0|2
360,320,133392,2,0,B|288:344|216:280|248:200,1,207.99999628067,0|2
328,240,134095,1,8
192,136,134328,1,2
288,144,134564,5,0
224,224,134798,1,0
192,136,135032,1,2
192,136,135267,2,2,B|88:176|96:304,1,207.99999628067,0|2
48,184,135970,2,0,B|136:288|248:272,1,207.99999628067,8|2
320,272,136673,5,0
227,273,136907,1,2
320,272,137142,2,2,B|376:288|440:272,1,103.999998140335,0|0
344,176,137610,2,0,B|288:160|224:176,2,103.999998140335,2|8|2
104,208,138314,5,2
104,208,138548,2,2,B|40:208|8:144,1,103.999998140335,0|2
224,256,139017,2,2,B|288:264|312:328,1,103.999998140335,0|0
176,200,139485,2,0,B|208:136|152:112,1,103.999998140335,2|8
144,272,139953,2,0,B|112:336|176:360,2,103.999998140335,2|2|0
448,320,140657,6,0,B|400:248|392:120,1,207.99999628067,6|0
64,320,141360,2,4,B|112:248|120:120,1,207.99999628067,2|6
256,288,142063,2,0,B|256:184,1,103.999998140335,10|0
376,176,142532,6,0,B|384:72|496:48,1,155.999997210503,4|0
462,58,143000,1,8
464,152,143235,1,0
464,232,143469,2,0,B|456:336|344:360,1,155.999997210503,8|0
377,351,143938,1,8
376,264,144171,1,0
288,264,144407,2,0,B|241:171|128:191,1,155.999997210503,0|0
162,188,144875,5,2
187,271,145110,1,0
104,248,145344,1,8
176,152,145578,1,2
224,304,145813,1,0
56,256,146047,1,8
56,160,146282,6,0,B|64:56|176:32,1,155.999997210503,0|0
142,42,146750,1,8
144,136,146985,1,0
312,304,147219,2,0,B|208:296|184:184,1,155.999997210503,8|0
193,217,147688,1,8
144,136,147921,1,0
368,208,148157,2,0,B|321:115|208:135,1,155.999997210503
242,132,148625,5,2
128,144,148860,1,0
144,248,149094,1,8
248,232,149328,1,2
242,132,149563,1,0
192,184,149797,1,8
304,288,150032,6,2,B|424:272|448:144,1,207.99999628067,0|8
464,320,150735,2,0,B|440:264|400:240,1,103.999998140335,2|0
336,176,151204,1,8
256,144,151439,1,0
168,144,151673,1,8
168,144,151907,6,2,B|48:160|24:288,1,207.99999628067,0|8
104,296,152610,1,2
27,277,152845,1,0
104,296,153079,1,8
192,288,153314,1,0
288,296,153548,1,8
392,272,153782,6,2,B|392:340|331:369,1,103.999998140335,0|0
120,112,154250,2,2,B|119:43|180:14,1,103.999998140335,8|2
376,200,154719,2,2,B|400:264|352:312,1,103.999998140335,0|2
144,184,155187,2,2,B|120:120|168:72,1,103.999998140335,10|0
176,240,155657,2,0,B|204:303|272:303,1,103.999998140335,2|8
336,240,156126,2,2,B|307:303|239:303,1,103.999998140335,0|2
184,152,156594,2,2,B|212:90|280:90,1,103.999998140335,0|2
328,152,157062,2,0,B|299:90|231:90,1,103.999998140335,10|0
256,200,157532,5,6
232,352,157766,2,0,B|208:232|88:224,1,207.99999628067,0|8
90,224,158469,1,0
280,40,158703,2,0,B|304:160|424:168,1,207.99999628067,0|8
422,168,159406,1,0
80,136,159641,6,0,B|134:136|174:90,1,103.999998140335,0|2
432,248,160110,2,0,B|378:248|338:294,1,103.999998140335,8|2
80,248,160578,2,0,B|134:248|174:294,1,103.999998140335,8|2
432,136,161047,2,0,B|378:136|338:90,1,103.999998140335,8|6
256,192,161516,5,0
256,192,161750,1,0
269,145,161985,1,8
309,207,162219,1,0
242,238,162453,1,0
202,176,162688,1,0
280,107,162922,5,8
355,220,163157,1,0
229,284,163391,1,0
156,163,163625,1,2
303,172,163860,5,0
206,219,164094,1,2
226,150,164328,1,0
283,241,164563,1,2
120,320,165032,6,0,B|120:200|56:112,1,207.99999628067,6|0
136,88,165735,1,0
63,122,165969,1,0
136,88,166203,1,0
216,80,166438,1,2
256,72,166555,1,0
288,80,166672,1,0
320,72,166789,1,2
360,80,166907,6,0,B|360:200|424:288,1,207.99999628067,4|2
344,320,167610,1,0
416,277,167844,1,2
344,320,168078,1,2
256,320,168313,1,0
256,192,168547,1,2
256,320,168782,1,6
144,224,169016,6,0,B|152:104|272:80,1,207.99999628067,0|0
368,160,169719,2,0,B|360:280|240:304,1,207.99999628067,2|0
256,192,170422,1,2
256,192,170657,1,6
184,280,170891,5,0
176,288,171125,1,8
328,104,171360,5,0
336,96,171594,1,4
328,248,171828,21,0
336,256,172063,1,8
120,88,172532,5,4
128,208,173000,2,2,B|80:296,1,80,2|0
192,336,173469,2,8,B|256:288,1,80,8|0
256,288,173938,2,0,B|320:336,1,80,2|8
384,208,174407,2,0,B|432:296,1,80
320,96,174875,2,0,B|256:48,1,80,2|0
256,48,175344,2,0,B|192:96,1,80,8|0
216,192,175813,2,0,B|320:192,1,80,0|2
424,112,176282,6,0,B|448:224|368:328,1,200
385,302,176985,2,0,B|304:344|176:336,1,200,4|0
190,336,177688,1,2
190,336,177922,1,2
88,272,178157,2,0,B|64:160|144:56,1,200
126,81,178860,2,0,B|208:40|336:48,1,200,4|0
321,47,179563,1,2
312,248,180032,5,2
376,200,180266,1,8
376,120,180501,1,2
184,168,180969,1,2
120,216,181203,1,8
120,296,181439,1,2
280,168,181907,5,2
232,232,182141,1,8
200,160,182375,2,0,B|136:104|40:120,1,160,0|2
50,118,183078,1,8
50,118,183313,2,0,B|80:208|48:288,1,160,0|2
52,275,184016,6,0,B|96:272|144:288,1,80,8|2
131,284,184485,2,0,B|176:304|216:280,1,80,0|2
208,284,184953,2,0,B|248:272|288:288,1,80,8|0
286,287,185305,1,0
286,287,185422,1,2
286,287,185539,1,0
286,287,185657,2,0,B|320:200|272:192|296:128,1,160,4|0
295,130,186360,2,0,B|336:112|384:136,1,80,4|0
372,130,186828,2,0,B|432:128|464:160,1,80,8|4
432,256,187297,5,0
432,256,187414,1,0
432,256,187532,1,4
344,240,187766,1,10
344,328,188000,1,0
256,352,188235,1,0
168,328,188469,1,8
168,240,188703,1,0
80,256,188938,1,10
256,248,189172,1,0
256,248,189407,6,0,B|280:192|232:136|256:80,2,160,0|0|8
256,248,190578,1,0
192,48,190813,1,10
224,40,190930,1,0
256,48,191047,1,0
288,40,191164,1,0
320,48,191282,1,0
200,200,191516,6,0,B|144:224|176:320|240:304,1,160,10|0
320,280,192219,2,0,B|376:256|344:160|280:176,1,160,8|2
281,175,192805,1,0
281,175,192922,1,8
281,175,193039,1,0
281,175,193157,1,0
144,144,193391,6,0,B|208:80|312:104,1,160,10|0
368,240,194094,2,0,B|304:304|200:280,1,160,8|2
256,192,194797,1,8
368,56,195032,6,2,B|384:144|328:216,1,160,0|2
432,192,195735,1,8
400,280,195970,2,0,B|312:296|240:240,1,160,0|4
240,336,196673,1,8
160,280,196907,6,2,B|144:192|200:120,1,160,0|2
96,144,197610,1,8
128,56,197845,2,0,B|216:40|288:96,1,160,0|4
279,89,198547,1,8
368,64,198782,6,2,B|352:152|408:224,1,160,0|2
304,200,199485,5,8
256,280,199719,1,0
160,280,199953,1,0
304,168,200188,1,4
176,152,200422,1,8
128,272,200657,1,4
176,152,201594,5,0
256,192,201711,8,0,202532
