osu file format v5

[General]
AudioFilename: La_Bruja_Novata___La_Locomoción_Sustitutiva.mp3
AudioLeadIn: 0
PreviewTime: -1
Countdown: 0
SampleSet: Normal
StackLeniency: 0.7
Mode: 0
LetterboxInBreaks: 1

[Metadata]
Title:Los zapatos bailan
Artist:La Bruja Novata
Creator:Krys
Version:Normal
Source:
Tags:

[Difficulty]
HPDrainRate:5
CircleSize:5
OverallDifficulty:5
SliderMultiplier:0.4
SliderTickRate:0.5

[Events]
//Background and Video events
0,0,"bedknobs-16.jpg"
//Break Periods
2,7700,32050
2,59950,62050
2,69950,73050
//Storyboard Layer 0 (Background)
//Storyboard Layer 1 (Failing)
//Storyboard Layer 2 (Passing)
//Storyboard Layer 3 (Foreground)
//Storyboard Sound Samples
//Background Colour Transformations
3,100,0,0,0

[TimingPoints]
0,750,4,1,0,100,1

[Colours]
Combo1 : 0,0,0
Combo2 : 128,0,128
Combo3 : 0,0,0
Combo4 : 128,0,128

[HitObjects]
64,64,7500,1,0
416,64,33250,5,0
416,160,34250,1,0
288,192,35000,1,0
160,192,35500,1,0
160,96,36000,1,0
416,64,37000,5,0
288,64,38250,1,0
160,64,39250,1,0
160,160,39750,1,0
160,256,40250,1,0
288,192,41250,6,0,B|320:160,1,40,0|0
316,163,42250,5,0
404,66,43500,1,0
298,67,44000,1,0
201,67,44500,1,0
355,162,45500,1,0
256,162,46500,1,0
161,163,47500,1,0
160,96,48000,1,0
256,97,48500,1,0
354,164,49750,5,0
384,129,50750,1,0
323,127,51750,2,0,B|388:127,1,53.3333333333333
320,128,53750,2,0,B,1,53.3333333333333
320,128,54750,1,0
378,127,55750,1,0
378,129,56250,1,0
378,128,56750,1,0
256,192,58000,12,0,59750
384,96,63250,5,0
224,96,65500,1,0
64,96,68000,1,0
64,256,69000,1,0
224,256,69750,1,0
256,192,74250,12,0,74500
416,64,76750,5,0
288,64,77500,1,0
288,64,77750,1,0
128,64,78750,1,0
128,160,79250,1,0
128,256,79750,1,0
256,192,80500,6,0,B|288:192,1,26.6666666666667
288,192,81750,5,0
288,192,82000,1,0
416,192,83000,1,0
320,192,83500,1,0
192,192,84000,1,0
224,96,85000,1,0
128,96,86000,1,0
64,96,87000,1,0
64,160,87500,1,0
64,192,88000,1,0
352,128,89250,6,0,B|320:160,1,40
323,156,90250,1,0
256,160,91250,1,0
192,160,91750,1,0
128,160,92250,1,0
416,96,93250,1,0
416,96,93500,1,0
416,96,93750,1,0
352,96,94000,1,0
288,96,94250,1,0
288,96,94500,1,0
288,96,94750,1,0
224,96,95000,1,0
224,96,95250,1,0
224,96,95500,1,0
224,96,95750,1,0
224,96,96000,1,0
224,96,96250,1,0
