osu file format v14

[General]
AudioFilename: 20 ANATATO.mp3
AudioLeadIn: 0
PreviewTime: -1
Countdown: 0
SampleSet: Soft
StackLeniency: 0.7
Mode: 0
LetterboxInBreaks: 0
WidescreenStoryboard: 0

[Editor]
Bookmarks: -23,20302,39962,57623
DistanceSpacing: 0.8
BeatDivisor: 4
GridSize: 32
TimelineZoom: 1

[Metadata]
Title:ANATATO
TitleUnicode:ANATATO
Artist:LUVRAW
ArtistUnicode:LUVRAW
Creator:MachoNachoMan
Version:Cruisin', Baby
Source:Space Dandy
Tags:Space Dandy, LUVRAW, OST, Anime, QT
BeatmapID:870134
BeatmapSetID:399803

[Difficulty]
HPDrainRate:6
CircleSize:4.5
OverallDifficulty:5
ApproachRate:6
SliderMultiplier:1.2
SliderTickRate:2

[Events]
//Background and Video events
0,0,"vacuum16.jpg",0,0
//Break Periods
2,37139,41890
2,56473,57890
//Storyboard Layer 0 (Background)
//Storyboard Layer 1 (Fail)
//Storyboard Layer 2 (Pass)
//Storyboard Layer 3 (Foreground)
//Storyboard Sound Samples

[TimingPoints]
274,666.666666666667,4,2,0,100,1,0
64082,-100,4,2,0,100,0,1

[HitObjects]
128,96,274,6,2,B|224:160|384:96|384:96|384:96,1,240,2|8,0:0|0:0,0:0:0:0:
384,160,2274,1,0,0:0:0:0:
384,160,2607,2,2,B|288:224|128:160|128:160|128:160,1,240,2|6,0:0|0:0,0:0:0:0:
432,335,5607,2,2,B|400:271|336:207|272:271|238:287|205:252,1,240,2|8,0:0|0:0,0:0:0:0:
96,96,7940,2,2,B|96:128|128:192|160:224|224:224|192:224|256:224|288:224,2,240,2|2|4,0:0|0:0|0:0,0:0:0:0:
96,96,10940,6,2,B|160:64|224:96|255:128|255:192|288:192,1,240,2|8,0:0|0:0,0:0:0:0:
96,256,12940,1,0,0:0:0:0:
96,256,13274,2,2,B|160:288|224:256|256:224|256:128|288:160,1,240,2|6,0:0|0:0,0:0:0:0:
448,192,16273,2,2,B|449:256|430:315|378:357|298:353,1,240,0|8,0:0|0:0,0:0:0:0:
192,160,18273,1,2,0:0:0:0:
192,160,18607,2,2,B|230:149|273:183|270:251|355:239,1,180
288,192,19940,2,2,B|265:235|237:205|203:222|163:255,1,120,2|10,0:0|0:0,0:0:0:0:
180,246,20940,1,4,0:0:0:0:
64,224,21607,5,0,0:0:0:0:
160,96,22607,1,0,0:0:0:0:
224,64,22940,1,8,0:0:0:0:
320,128,23940,2,2,B|256:128|192:160|160:160|128:192,1,180
160,256,25273,2,2,B|224:256|288:288|320:288|352:320|352:320,1,180,2|4,0:0|0:0,0:0:0:0:
160,192,26940,2,2,B|192:256|256:288|320:256|352:192,1,240,2|10,0:0|0:0,0:0:0:0:
256,224,29273,1,0,0:0:0:0:
256,128,29940,2,0,L|256:160|256:192,2,60
224,64,30940,2,0,P|192:96|192:128,1,60,0|4,0:0|0:0,0:0:0:0:
288,64,31607,2,0,P|320:96|320:128,1,60,0|4,0:0|0:0,0:0:0:0:
448,224,32273,5,0,0:0:0:0:
352,96,33274,1,0,0:0:0:0:
288,64,33607,1,8,0:0:0:0:
176,126,34607,2,0,B|240:126|304:158|336:158|368:190|368:190,1,180
339,263,35940,2,0,B|275:263|211:295|179:295|147:327,1,180,0|4,0:0|0:0,0:0:0:0:
63,139,42940,6,2,B|61:100|86:64|128:64|164:83,1,120,2|10,0:0|0:0,0:0:0:0:
133,143,43940,1,0,0:0:0:0:
133,143,44162,1,0,0:0:0:0:
256,192,44940,1,4,0:0:0:0:
392,295,45607,6,2,B|434:310|469:292|483:262|481:215,1,120,2|10,0:0|0:0,0:0:0:0:
417,232,46607,1,0,0:0:0:0:
417,232,46829,1,0,0:0:0:0:
256,192,47607,1,4,0:0:0:0:
386,66,48274,6,2,B|424:52|460:66|480:106|477:139,1,120,2|10,0:0|0:0,0:0:0:0:
411,132,49274,1,0,0:0:0:0:
411,132,49496,1,0,0:0:0:0:
256,192,50274,1,4,0:0:0:0:
164,305,50940,6,2,B|134:323|100:324|67:296|64:258,1,120,2|10,0:0|0:0,0:0:0:0:
132,251,51940,1,0,0:0:0:0:
132,251,52162,1,0,0:0:0:0:
256,192,52940,1,4,0:0:0:0:
256,192,53607,12,0,56273,0:0:0:0:
256,96,58940,5,0,0:0:0:0:
352,192,59607,1,8,0:0:0:0:
160,192,60274,1,0,0:0:0:0:
256,288,60940,1,8,0:0:0:0:
352,128,61274,1,4,0:0:0:0:
352,128,61607,2,2,B|320:128|288:160|256:224|192:224|160:192|128:160|160:128|192:96|256:96|320:224|352:256|359:262,1,420
416,256,64274,6,6,B|416:288|384:320|352:352|320:352|288:352|256:320|224:288|192:224|160:192|96:160|64:160|32:192,2,480,6|2|6,0:0|0:0|0:0,0:0:0:0:
431,191,69940,6,0,P|431:161|416:128,1,60,0|8,0:0|0:0,0:0:0:0:
380,86,70607,1,0,0:0:0:0:
357,149,71273,2,0,P|325:149|293:117,1,60,0|8,0:0|0:0,0:0:0:0:
255,91,71940,1,0,0:0:0:0:
321,92,72607,2,0,P|303:123|297:160,1,60,0|8,0:0|0:0,0:0:0:0:
283,208,73273,1,0,0:0:0:0:
256,288,73607,2,0,P|225:275|205:241,1,60
177,193,74273,2,0,P|150:210|129:242,1,60,8|0,0:0|0:0,0:0:0:0:
119,293,74940,5,0,0:0:0:0:
256,224,75607,2,0,B|256:192|448:192|480:160|448:128|256:128|256:66,1,360,8|0,0:0|0:0,0:0:0:0:
258,77,78273,2,0,B|255:118|64:128|32:160|64:192|278:216|264:230,1,360,8|0,0:0|0:0,0:0:0:0:
345,236,80940,1,12,0:0:0:0:
403,182,81607,2,0,L|341:162,1,60
399,65,82273,2,0,L|335:97,1,60,12|0,0:0|0:0,0:0:0:0:
288,128,82940,1,0,0:0:0:0:
224,288,83273,1,0,0:0:0:0:
160,128,83607,1,12,0:0:0:0:
320,288,83940,2,0,B|400:269|425:207|424:158,1,180,0|12,0:0|0:0,0:0:0:0:
256,192,85607,12,0,87606,0:0:0:0:
256,192,88273,12,0,90273,0:0:0:0:
256,192,90940,6,2,B|224:160|192:128|192:96|224:64|256:64|288:64|320:96|320:128|288:160|288:160|256:224|288:288|320:288|352:320|384:288|416:256|416:224|384:192|384:160|416:160|448:128|480:160|501:196|480:256,1,720,2|4,0:0|0:0,0:0:0:0:
352,96,95607,1,4,0:0:0:0:
320,288,96273,2,0,P|256:288|192:256,1,120,4|8,0:0|0:0,0:0:0:0:
153,225,97273,1,0,0:0:0:0:
151,155,97607,2,0,P|100:180|95:262,1,120,0|8,0:0|0:0,0:0:0:0:
153,225,98607,1,0,0:0:0:0:
32,128,98940,1,0,0:0:0:0:
96,32,99607,2,0,B|96:64|117:87|142:99,1,60,8|0,0:0|0:0,0:0:0:0:
190,160,100273,2,0,B|130:139|102:166|87:192|87:218|87:218,1,120,0|8,0:0|0:0,0:0:0:0:
160,224,101274,1,0,0:0:0:0:
160,224,101607,2,4,B|213:264|254:261|246:211|269:197|291:207|287:262|336:262|385:214,1,240
329,175,103273,5,4,0:0:0:0:
210,175,103774,1,4,0:0:0:0:
256,256,104273,2,2,B|216:355|148:360|44:373,2,240,4|0|4,0:0|0:0|0:0,0:0:0:0:
