osu file format v13

[General]
AudioFilename: 100604319.mp3.mp3
AudioLeadIn: 0
PreviewTime: -1
Countdown: 0
SampleSet: None
StackLeniency: 0.6
Mode: 2
LetterboxInBreaks: 1
WidescreenStoryboard: 1

[Editor]
DistanceSpacing: 1
BeatDivisor: 8
GridSize: 4
TimelineZoom: 1

[Metadata]
Title:BILIBILI DOUGA-MO DI DA BIAO KE
TitleUnicode:哔哩哔哩动画-摩的大飚客
Artist:LUO TIAN YI
ArtistUnicode:洛天依
Creator:-_-WwolowW-_-
Version:bicycle(Hard+)
Source:VOCALOID
Tags:VOCALOID 洛天依 LUO TIAN YI luotianyi
BeatmapID:474764
BeatmapSetID:200279

[Difficulty]
HPDrainRate:4
CircleSize:3
OverallDifficulty:4
ApproachRate:5
SliderMultiplier:1.4
SliderTickRate:1

[Events]
//Background and Video events
0,0,"107.jpg",0,0
Video,-250,"luotianyi-modidabiaoke.avi"
//Break Periods
2,24462,30742
2,101022,107542
2,147342,151702
//Storyboard Layer 0 (Background)
//Storyboard Layer 1 (Fail)
//Storyboard Layer 2 (Pass)
//Storyboard Layer 3 (Foreground)
//Storyboard Sound Samples
//Background Colour Transformations
3,100,163,162,255

[TimingPoints]
8902.22539590515,480,4,2,0,44,1,0

[Colours]
Combo1 : 255,0,255
Combo2 : 0,255,255
Combo3 : 255,255,0
Combo4 : 255,128,0

[HitObjects]
256,192,1222,12,0,8422,0:0:0:0:
51,305,8902,6,8,B|51:155|51:155|325:155|324:154,1,420
442,84,10822,6,8,B|441:232|441:232|161:231,1,420
215,149,12742,5,8,0:0:0:0:
299,151,13222,1,4,0:0:0:0:
213,235,13702,1,8,0:0:0:0:
297,234,14182,1,4,0:0:0:0:
382,234,14662,6,12,L|382:85|382:83,3,140,8|4|8|4,0:0|0:0|0:0|0:0,0:0:0:0:
256,192,16582,12,6,18022,0:0:0:0:
109,301,18502,5,4,0:0:0:0:
114,217,18982,1,4,0:0:0:0:
127,136,19462,1,4,0:0:0:0:
159,60,19942,1,4,0:0:0:0:
311,61,20422,2,8,B|396:183|396:183|173:352,1,420,8|4,0:0|0:0,0:0:0:0:
256,192,22342,12,4,24262,0:0:0:0:
403,198,31942,6,12,P|286:334|213:325,1,262.5,0|0,0:0|0:0,0:0:0:0:
257,192,33382,1,4,0:0:0:0:
105,193,33862,6,0,P|210:52|304:69,1,280
256,192,35302,1,4,0:0:0:0:
101,195,35842,5,4,0:0:0:0:
101,281,36142,1,8,0:0:0:0:
184,281,36502,1,4,0:0:0:0:
416,77,37702,2,4,B|155:183|155:183|421:283,1,560,0|0,0:0|0:0,0:0:0:0:
101,193,40102,1,8,0:0:0:0:
184,194,40582,1,4,0:0:0:0:
261,194,41062,1,8,0:0:0:0:
260,109,41542,1,4,0:0:0:0:
336,189,42022,1,8,0:0:0:0:
422,189,42502,1,4,0:0:0:0:
422,107,42982,1,8,0:0:0:0:
256,189,43462,5,8,0:0:0:0:
256,270,43702,1,8,0:0:0:0:
175,270,43942,1,4,0:0:0:0:
119,218,44182,1,8,0:0:0:0:
91,145,44422,1,4,0:0:0:0:
131,82,44662,1,4,0:0:0:0:
192,38,44902,1,8,0:0:0:0:
276,36,45382,6,8,B|278:114|278:114|351:112,1,140
410,120,46102,1,4,0:0:0:0:
412,208,46342,6,4,B|346:240|346:240|308:182,1,140
254,192,47062,1,4,0:0:0:0:
256,90,47302,2,0,B|47:90|47:90|47:313,1,420
218,152,49222,1,4,0:0:0:0:
127,152,49462,5,4,0:0:0:0:
216,239,49702,5,8,0:0:0:0:
303,242,49942,5,4,0:0:0:0:
302,150,50182,5,8,0:0:0:0:
389,151,50422,1,12,0:0:0:0:
50,62,51142,2,0,L|480:63,1,420
144,143,53062,2,8,L|143:287,3,140,0|4|4|12,0:0|0:0|0:0|0:0,0:0:0:0:
134,113,54982,5,8,0:0:0:0:
134,203,55462,1,8,0:0:0:0:
222,203,55942,1,8,0:0:0:0:
222,117,56422,1,8,0:0:0:0:
314,117,56902,1,8,0:0:0:0:
314,203,57382,1,8,0:0:0:0:
406,118,57862,6,8,L|406:272,1,140,8|12,0:0|0:0,0:0:0:0:
314,203,58582,1,0,0:0:0:0:
170,122,58822,2,4,L|317:122,1,140,4|12,0:0|0:0,0:0:0:0:
407,118,59542,1,0,0:0:0:0:
405,203,59782,6,0,L|406:352,1,140,4|4,0:0|0:0,0:0:0:0:
297,343,60502,1,8,0:0:0:0:
296,250,60742,6,4,L|296:102|296:100,2,140,0|8|4,0:0|0:0|0:0,0:0:0:0:
422,251,62182,1,14,0:0:0:0:
422,135,62662,5,4,0:0:0:0:
422,48,62902,1,4,0:0:0:0:
325,136,63142,2,0,L|324:44,5,70,8|4|8|4|8|4,0:0|0:0|0:0|0:0|0:0|0:0,0:0:0:0:
178,140,64582,5,4,0:0:0:0:
178,53,64822,1,4,0:0:0:0:
81,141,65062,2,8,L|80:49,5,70,8|4|8|4|8|12,0:0|0:0|0:0|0:0|0:0|0:0,0:0:0:0:
170,143,66502,2,0,B|171:257|171:257|363:257,1,280,0|8,0:0|0:0,0:0:0:0:
338,257,67942,1,8,0:0:0:0:
171,143,68662,5,8,0:0:0:0:
171,231,68902,1,4,0:0:0:0:
255,234,69142,1,4,0:0:0:0:
255,143,69382,2,8,B|332:144|254:143|419:271,1,210,8|8,0:0|0:0,0:0:0:0:
422,135,70342,5,0,0:0:0:0:
422,48,70582,1,0,0:0:0:0:
325,136,70822,2,0,L|324:44,5,70,0|0|0|0|0|0,0:0|0:0|0:0|0:0|0:0|0:0,0:0:0:0:
178,140,72262,5,0,0:0:0:0:
178,53,72502,1,0,0:0:0:0:
81,141,72742,2,0,L|80:49,5,70,0|0|0|0|0|0,0:0|0:0|0:0|0:0|0:0|0:0,0:0:0:0:
170,143,74182,2,0,B|171:257|171:257|363:257,1,280
338,257,75622,1,0,0:0:0:0:
171,143,76342,5,0,0:0:0:0:
171,231,76582,1,0,0:0:0:0:
255,234,76822,1,0,0:0:0:0:
255,143,77062,2,0,B|332:144|254:143|419:271,1,210,0|12,0:0|0:0,0:0:0:0:
288,296,78022,6,0,B|124:125|124:126,2,210,0|0|0,0:0|0:0|0:0,0:0:0:0:
304,196,79942,2,0,L|303:37,1,140
410,54,80902,2,0,L|410:219,1,140
276,191,81862,6,0,L|275:38,1,140
356,53,82822,2,0,L|356:208,1,140
256,191,83782,1,0,0:0:0:0:
169,190,84262,5,0,0:0:0:0:
256,103,84742,2,8,B|305:104|304:104,8,35,8|4|8|4|8|4|8|4|8,0:0|0:0|0:0|0:0|0:0|0:0|0:0|0:0|0:0,0:0:0:0:
110,293,86182,1,8,0:0:0:0:
197,293,86422,1,4,0:0:0:0:
195,205,86662,5,8,0:0:0:0:
278,208,86902,1,4,0:0:0:0:
281,122,87142,5,8,0:0:0:0:
365,122,87382,1,4,0:0:0:0:
281,122,87622,5,8,0:0:0:0:
278,208,87862,1,4,0:0:0:0:
186,206,88102,5,8,0:0:0:0:
281,294,88342,1,4,0:0:0:0:
186,297,88582,5,8,0:0:0:0:
101,297,88822,1,4,0:0:0:0:
101,206,89062,5,8,0:0:0:0:
186,206,89302,1,4,0:0:0:0:
110,293,89542,1,8,0:0:0:0:
197,293,89782,1,4,0:0:0:0:
195,205,90022,5,8,0:0:0:0:
278,208,90262,1,4,0:0:0:0:
281,122,90502,5,8,0:0:0:0:
365,123,90742,1,4,0:0:0:0:
281,122,90982,5,8,0:0:0:0:
278,208,91222,1,4,0:0:0:0:
186,206,91462,5,8,0:0:0:0:
281,294,91702,1,4,0:0:0:0:
186,297,91942,5,8,0:0:0:0:
101,297,92182,1,4,0:0:0:0:
256,192,92422,12,12,93862,0:0:0:0:
110,293,94342,5,8,0:0:0:0:
197,293,94582,1,4,0:0:0:0:
195,205,94822,5,4,0:0:0:0:
278,208,95062,1,8,0:0:0:0:
281,122,95302,5,4,0:0:0:0:
365,123,95542,1,8,0:0:0:0:
281,122,95782,5,4,0:0:0:0:
278,208,96022,1,4,0:0:0:0:
186,206,96262,5,8,0:0:0:0:
281,294,96502,1,4,0:0:0:0:
186,297,96742,5,12,0:0:0:0:
101,297,96982,1,0,0:0:0:0:
101,206,97222,5,12,0:0:0:0:
186,206,97462,1,0,0:0:0:0:
110,293,97702,1,4,0:0:0:0:
197,293,97942,1,12,0:0:0:0:
195,205,98182,5,0,0:0:0:0:
278,208,98422,1,4,0:0:0:0:
281,122,98662,5,12,0:0:0:0:
365,123,98902,1,0,0:0:0:0:
281,122,99142,5,12,0:0:0:0:
278,208,99382,1,0,0:0:0:0:
186,206,99622,5,4,0:0:0:0:
281,294,99862,1,0,0:0:0:0:
186,297,100102,5,8,0:0:0:0:
101,297,100342,1,8,0:0:0:0:
101,206,100582,5,12,0:0:0:0:
186,206,100822,1,12,0:0:0:0:
403,198,108742,6,0,P|286:334|213:325,1,262.5,8|4,0:0|0:0,0:0:0:0:
257,192,110182,1,4,0:0:0:0:
105,193,110662,6,8,P|210:52|304:69,1,280,8|12,0:0|0:0,0:0:0:0:
256,192,112102,1,8,0:0:0:0:
101,195,112642,5,8,0:0:0:0:
101,281,112942,1,4,0:0:0:0:
184,281,113362,1,4,0:0:0:0:
416,77,114502,2,4,B|155:183|155:183|421:283,1,560
101,193,116902,1,8,0:0:0:0:
184,194,117382,1,8,0:0:0:0:
261,194,117862,1,8,0:0:0:0:
260,109,118342,1,4,0:0:0:0:
336,189,118822,1,4,0:0:0:0:
422,189,119302,1,4,0:0:0:0:
422,107,119782,1,4,0:0:0:0:
256,189,120262,5,8,0:0:0:0:
256,270,120502,1,8,0:0:0:0:
175,270,120742,1,4,0:0:0:0:
119,218,120982,1,8,0:0:0:0:
91,145,121222,1,4,0:0:0:0:
131,82,121462,1,4,0:0:0:0:
192,38,121702,1,8,0:0:0:0:
276,36,122182,6,0,B|278:114|278:114|351:112,1,140,8|4,0:0|0:0,0:0:0:0:
410,120,122902,1,4,0:0:0:0:
412,208,123142,6,0,B|346:240|346:240|308:182,1,140,4|8,0:0|0:0,0:0:0:0:
254,192,123862,1,4,0:0:0:0:
256,90,124102,2,8,B|47:90|47:90|47:313,1,420,8|4,0:0|0:0,0:0:0:0:
218,152,126022,1,8,0:0:0:0:
127,152,126262,5,8,0:0:0:0:
216,239,126502,5,8,0:0:0:0:
303,242,126742,5,8,0:0:0:0:
302,150,126982,5,4,0:0:0:0:
389,151,127222,1,4,0:0:0:0:
50,62,127942,2,8,L|480:63,1,420,8|12,0:0|0:0,0:0:0:0:
143,143,129862,2,8,L|142:287,3,140,0|4|0|4,0:0|0:0|0:0|0:0,0:0:0:0:
96,311,131782,6,0,L|172:312,1,70,8|4,0:0|0:0,0:0:0:0:
98,221,132262,2,0,L|193:224,1,70,4|8,0:0|0:0,0:0:0:0:
100,136,132742,2,0,L|187:138,1,70,4|4,0:0|0:0,0:0:0:0:
101,57,133222,2,0,L|190:57,1,70,4|8,0:0|0:0,0:0:0:0:
274,58,133702,5,8,0:0:0:0:
272,142,133942,1,8,0:0:0:0:
270,223,134182,1,8,0:0:0:0:
266,306,134422,1,8,0:0:0:0:
100,136,134662,2,0,L|187:138,1,70,8|4,0:0|0:0,0:0:0:0:
101,57,135142,2,0,L|190:57,1,70,4|8,0:0|0:0,0:0:0:0:
274,58,135622,5,4,0:0:0:0:
272,142,135862,1,8,0:0:0:0:
270,223,136102,1,4,0:0:0:0:
266,306,136342,1,8,0:0:0:0:
100,136,136582,2,0,L|187:138,1,70,8|8,0:0|0:0,0:0:0:0:
101,57,137062,2,0,L|190:57,1,70,4|0,0:0|0:0,0:0:0:0:
274,58,137542,5,8,0:0:0:0:
272,142,137782,1,4,0:0:0:0:
270,223,138022,1,8,0:0:0:0:
266,306,138262,1,4,0:0:0:0:
100,136,138502,2,0,L|187:138,1,70,8|8,0:0|0:0,0:0:0:0:
101,57,138982,2,0,L|190:57,1,70,12|0,0:0|0:0,0:0:0:0:
96,311,139462,6,0,L|172:312,1,70,8|4,0:0|0:0,0:0:0:0:
98,221,139942,2,0,L|193:224,1,70,8|4,0:0|0:0,0:0:0:0:
100,136,140422,2,0,L|187:138,1,70,0|8,0:0|0:0,0:0:0:0:
101,57,140902,2,0,L|190:57,1,70,4|0,0:0|0:0,0:0:0:0:
274,58,141382,5,8,0:0:0:0:
272,142,141622,1,4,0:0:0:0:
270,223,141862,1,8,0:0:0:0:
266,306,142102,1,4,0:0:0:0:
100,136,142342,2,8,L|187:138,2,70,8|4|8,0:0|0:0|0:0,0:0:0:0:
256,192,143302,12,14,147142,0:0:0:0:
321,204,152902,6,0,L|377:202,7,35,8|8|8|8|8|8|8|8,0:0|0:0|0:0|0:0|0:0|0:0|0:0|0:0,0:0:0:0:
255,201,153862,6,0,L|214:201,7,35,4|4|4|4|4|4|4|4,0:0|0:0|0:0|0:0|0:0|0:0|0:0|0:0,0:0:0:0:
257,203,154822,6,12,L|216:203,8,35,12|0|12|0|12|0|12|0|12,0:0|0:0|0:0|0:0|0:0|0:0|0:0|0:0|0:0,0:0:0:0:
224,128,156262,5,12,0:0:0:0:
301,124,156742,6,0,L|301:77,8,35,0|0|0|0|0|0|0|0|0,0:0|0:0|0:0|0:0|0:0|0:0|0:0|0:0|0:0,0:0:0:0:
257,54,157942,5,0,0:0:0:0:
356,204,158422,2,8,L|356:159,1,35
292,137,158662,6,8,L|251:137,8,35,4|12|4|12|4|12|4|12|4,0:0|0:0|0:0|0:0|0:0|0:0|0:0|0:0|0:0,0:0:0:0:
226,207,160342,2,12,L|226:162,1,35
331,215,160582,6,0,P|380:216|390:242,7,70,4|8|4|8|4|8|4|8,0:0|0:0|0:0|0:0|0:0|0:0|0:0|0:0,0:0:0:0:
256,192,162502,12,12,168262,0:0:0:0:
356,256,168742,6,0,L|355:176,1,70,8|4,0:0|0:0,0:0:0:0:
271,256,169462,2,0,L|271:177,1,70,4|8,0:0|0:0,0:0:0:0:
255,190,170002,5,0,0:0:0:0:
255,190,170122,5,0,0:0:0:0:
255,190,170242,5,0,0:0:0:0:
255,190,170362,5,12,0:0:0:0:
