osu file format v13

[General]
AudioFilename: 100604319.mp3.mp3
AudioLeadIn: 0
PreviewTime: -1
Countdown: 0
SampleSet: Soft
StackLeniency: 0.6
Mode: 2
LetterboxInBreaks: 1
WidescreenStoryboard: 1

[Editor]
DistanceSpacing: 1
BeatDivisor: 8
GridSize: 4
TimelineZoom: 1

[Metadata]
Title:BILIBILI DOUGA-MO DI DA BIAO KE
TitleUnicode:哔哩哔哩动画-摩的大飚客
Artist:LUO TIAN YI
ArtistUnicode:洛天依
Creator:-_-WwolowW-_-
Version:Motocycle(Insane+)
Source:VOCALOID
Tags:VOCALOID 洛天依 LUO TIAN YI luotianyi
BeatmapID:474852
BeatmapSetID:200279

[Difficulty]
HPDrainRate:4
CircleSize:3
OverallDifficulty:5
ApproachRate:8
SliderMultiplier:1.4
SliderTickRate:1

[Events]
//Background and Video events
0,0,"107.jpg",0,0
Video,-250,"luotianyi-modidabiaoke.avi"
//Break Periods
//Storyboard Layer 0 (Background)
//Storyboard Layer 1 (Fail)
//Storyboard Layer 2 (Pass)
//Storyboard Layer 3 (Foreground)
//Storyboard Sound Samples
//Background Colour Transformations
3,100,163,162,255

[TimingPoints]
8902.22539590515,480,4,2,0,44,1,0

[Colours]
Combo1 : 255,0,255
Combo2 : 0,255,255
Combo3 : 255,255,0
Combo4 : 255,128,0

[HitObjects]
256,192,1222,12,4,8422,0:0:0:0:
396,192,8902,6,4,B|396:272|396:272|296:340|296:340|296:248,1,280
420,124,10342,1,4,0:0:0:0:
376,124,10462,5,0,0:0:0:0:
332,124,10582,5,4,0:0:0:0:
288,124,10702,1,4,0:0:0:0:
288,176,10822,6,4,B|288:324|288:324|152:324,1,280
128,316,12262,5,4,0:0:0:0:
128,276,12382,1,4,0:0:0:0:
128,232,12502,1,4,0:0:0:0:
128,192,12622,1,4,0:0:0:0:
160,144,12802,5,0,0:0:0:0:
236,112,13042,1,0,0:0:0:0:
320,140,13282,1,0,0:0:0:0:
384,192,13522,5,0,0:0:0:0:
252,224,13642,5,0,0:0:0:0:
328,292,13762,1,0,0:0:0:0:
284,304,13882,5,0,0:0:0:0:
164,240,14182,1,0,0:0:0:0:
56,88,14662,2,0,B|104:88|104:88|108:72,4,35,4|8|4|8|4,0:0|0:0|0:0|0:0|0:0,0:0:0:0:
176,88,15262,2,0,L|176:52,5,35,8|4|8|4|8|4,0:0|0:0|0:0|0:0|0:0|0:0,0:0:0:0:
260,92,16102,2,4,L|296:92,3,35,0|0|0|0,0:0|0:0|0:0|0:0,0:0:0:0:
212,176,16582,6,4,B|212:272|212:272|408:272,1,280
432,140,18022,5,4,0:0:0:0:
392,120,18142,5,4,0:0:0:0:
340,120,18262,5,4,0:0:0:0:
308,140,18382,5,8,0:0:0:0:
256,40,18502,6,10,L|256:328,1,280,6|14,0:0|0:0,0:0:0:0:
188,280,19942,6,0,L|188:224,1,35,8|4,0:0|0:0,0:0:0:0:
192,128,20182,2,0,L|192:168,1,35,8|8,0:0|0:0,0:0:0:0:
192,200,20422,2,0,B|348:200|348:200|348:64|344:64,1,280,4|8,0:0|0:0,0:0:0:0:
304,76,21622,6,0,L|264:76,1,35,8|8,0:0|0:0,0:0:0:0:
68,304,21862,6,0,L|104:304,3,35,8|4|8|4,0:0|0:0|0:0|0:0,0:0:0:0:
96,260,22342,6,0,L|132:260,3,35,8|4|8|4,0:0|0:0|0:0|0:0,0:0:0:0:
120,220,22822,6,0,L|156:220,3,35,8|4|8|4,0:0|0:0|0:0|0:0,0:0:0:0:
152,184,23302,6,8,L|188:184,3,35,0|8|0|8,0:0|0:0|0:0|0:0,0:0:0:0:
188,136,23782,2,0,L|224:136,3,35,12|8|12|8,0:0|0:0|0:0|0:0,0:0:0:0:
420,192,24262,2,0,B|420:336|420:336|284:336,1,280,0|6,0:0|0:0,0:0:0:0:
256,192,25702,5,0,0:0:0:0:
84,192,26182,2,4,B|84:52|84:52|236:52,1,280
256,192,27622,1,0,0:0:0:0:
72,328,28102,2,4,B|184:232|184:232|80:144|80:144|176:48|176:48|284:144,1,560
308,196,30262,6,0,L|344:196,1,35,4|8,0:0|0:0,0:0:0:0:
308,148,30502,1,4,0:0:0:0:
308,116,30622,1,4,0:0:0:0:
308,84,30742,1,8,0:0:0:0:
192,196,30982,1,4,0:0:0:0:
256,192,31462,5,4,0:0:0:0:
112,312,31942,6,4,B|112:32|112:32|392:32|392:308|392:28,1,700
152,188,34582,2,0,L|144:152,1,35,8|0,0:0|0:0,0:0:0:0:
256,188,35062,2,0,L|256:148,1,35,8|0,0:0|0:0,0:0:0:0:
356,192,35302,1,12,0:0:0:0:
376,288,35782,6,10,B|476:188|476:188|364:92,1,280,12|12,0:0|0:0,0:0:0:0:
356,192,37222,1,8,0:0:0:0:
152,192,37462,1,8,0:0:0:0:
100,300,37702,5,4,0:0:0:0:
256,192,38062,1,8,0:0:0:0:
412,300,38422,1,4,0:0:0:0:
100,80,38662,1,0,0:0:0:0:
256,192,38902,1,8,0:0:0:0:
412,84,39142,1,4,0:0:0:0:
96,300,39622,5,4,0:0:0:0:
144,216,39862,5,8,0:0:0:0:
144,188,39982,1,8,0:0:0:0:
144,152,40102,1,8,0:0:0:0:
144,112,40282,1,4,0:0:0:0:
60,108,40582,1,4,0:0:0:0:
60,148,40822,1,4,0:0:0:0:
60,196,41062,1,8,0:0:0:0:
60,228,41302,1,12,0:0:0:0:
152,328,41542,6,0,B|248:328|156:328|276:260,2,140,8|8|8,0:0|0:0|0:0,0:0:0:0:
360,332,42982,5,4,0:0:0:0:
392,124,43462,5,8,0:0:0:0:
296,64,43582,1,8,0:0:0:0:
196,64,43702,1,8,0:0:0:0:
112,128,43822,1,8,0:0:0:0:
392,232,43942,5,4,0:0:0:0:
324,324,44062,1,4,0:0:0:0:
204,324,44182,1,4,0:0:0:0:
116,248,44302,1,4,0:0:0:0:
392,124,44422,5,4,0:0:0:0:
296,64,44542,1,8,0:0:0:0:
196,64,44662,1,4,0:0:0:0:
112,128,44782,1,8,0:0:0:0:
116,248,44902,5,4,0:0:0:0:
204,324,45022,1,4,0:0:0:0:
324,324,45142,1,4,0:0:0:0:
404,232,45262,1,4,0:0:0:0:
192,192,45382,5,8,0:0:0:0:
320,192,45622,1,8,0:0:0:0:
320,92,45862,1,4,0:0:0:0:
192,92,46102,1,8,0:0:0:0:
320,296,46342,1,4,0:0:0:0:
188,296,46582,1,4,0:0:0:0:
432,196,46822,1,4,0:0:0:0:
84,196,47062,1,12,0:0:0:0:
180,304,47302,6,0,B|76:196|76:196|180:104|180:104,2,280,8|8|8,0:0|0:0|0:0,0:0:0:0:
264,304,49462,1,8,0:0:0:0:
260,192,49702,6,0,L|332:192,4,70,8|4|8|4|12,0:0|0:0|0:0|0:0|0:0,0:0:0:0:
264,340,51142,2,12,B|480:72|484:-40|236:88|236:88|88:40|88:40|64:228|192:320,1,980,12|12,0:0|0:0,0:0:0:0:
360,72,54982,5,10,0:0:0:0:
360,160,55102,1,0,0:0:0:0:
360,248,55222,1,8,0:0:0:0:
360,336,55342,1,0,0:0:0:0:
272,336,55462,1,4,0:0:0:0:
272,248,55582,1,8,0:0:0:0:
276,160,55702,5,4,0:0:0:0:
276,72,55822,1,8,0:0:0:0:
188,72,55942,1,4,0:0:0:0:
188,160,56062,1,4,0:0:0:0:
188,248,56182,1,4,0:0:0:0:
24,336,56302,1,4,0:0:0:0:
108,336,56422,1,4,0:0:0:0:
108,248,56542,1,0,0:0:0:0:
108,160,56662,1,8,0:0:0:0:
108,72,56782,1,8,0:0:0:0:
28,72,56902,1,8,0:0:0:0:
28,160,57022,1,8,0:0:0:0:
28,248,57142,5,4,0:0:0:0:
28,336,57262,1,12,0:0:0:0:
108,336,57382,5,4,0:0:0:0:
108,248,57502,1,4,0:0:0:0:
108,160,57622,1,4,0:0:0:0:
108,72,57742,1,4,0:0:0:0:
188,72,57862,1,8,0:0:0:0:
188,156,57982,1,8,0:0:0:0:
188,248,58102,5,4,0:0:0:0:
188,336,58222,1,4,0:0:0:0:
272,336,58342,1,8,0:0:0:0:
272,248,58462,1,4,0:0:0:0:
272,156,58582,1,8,0:0:0:0:
272,72,58702,1,4,0:0:0:0:
356,72,58822,5,12,0:0:0:0:
356,156,58942,1,0,0:0:0:0:
356,248,59062,5,12,0:0:0:0:
356,336,59182,1,0,0:0:0:0:
436,336,59302,5,12,0:0:0:0:
456,192,59782,1,0,0:0:0:0:
256,192,60262,5,0,0:0:0:0:
56,192,60742,1,0,0:0:0:0:
152,320,61222,5,0,0:0:0:0:
360,320,61702,5,0,0:0:0:0:
144,48,62182,5,0,0:0:0:0:
360,48,62662,6,12,L|360:124,1,70
144,308,63382,2,8,L|144:232,1,70
144,68,63862,2,8,L|144:140,1,70
324,192,64342,5,12,0:0:0:0:
144,308,64582,2,8,L|144:232,1,70
372,308,65302,2,8,L|320:252,1,70
144,64,65782,2,0,L|200:128,1,70,8|4,0:0|0:0,0:0:0:0:
256,192,66262,5,4,0:0:0:0:
108,300,66502,6,8,L|120:264,1,35
248,316,66742,2,8,L|248:268,1,35
384,308,66982,2,8,L|376:272,1,35
244,72,67222,2,4,L|244:108,1,35,4|4,0:0|0:0,0:0:0:0:
168,180,67822,5,8,0:0:0:0:
320,176,67942,1,4,0:0:0:0:
320,176,68662,5,8,0:0:0:0:
168,180,68782,1,4,0:0:0:0:
60,180,68902,5,4,0:0:0:0:
164,80,69022,1,8,0:0:0:0:
60,76,69262,1,8,0:0:0:0:
56,300,69382,6,4,B|204:300|204:300|204:164,1,280,4|12,0:0|0:0,0:0:0:0:
328,88,70582,5,14,0:0:0:0:
144,308,71062,2,8,L|144:232,1,70
144,68,71542,2,8,L|144:140,1,70
336,180,72022,5,12,0:0:0:0:
144,308,72262,2,8,L|144:232,1,70
372,308,72982,2,8,L|320:252,1,70
144,64,73462,2,0,L|200:128,1,70,4|4,0:0|0:0,0:0:0:0:
336,180,73942,5,4,0:0:0:0:
108,300,74182,6,0,L|120:264,1,35
248,316,74422,2,0,L|248:268,1,35
368,320,74662,2,0,L|344:268,1,52.5
240,180,75142,5,8,0:0:0:0:
144,180,75502,5,8,0:0:0:0:
336,180,75622,1,8,0:0:0:0:
432,180,75862,5,4,0:0:0:0:
336,180,76342,5,8,0:0:0:0:
144,180,76462,1,4,0:0:0:0:
40,180,76582,5,4,0:0:0:0:
164,80,76702,1,8,0:0:0:0:
324,80,76822,1,8,0:0:0:0:
240,184,76942,1,0,0:0:0:0:
328,288,77062,6,4,L|468:288,2,140,4|4|4,0:0|0:0|0:0,0:0:0:0:
96,196,78742,1,8,0:0:0:0:
352,92,79222,5,8,0:0:0:0:
448,192,79342,1,8,0:0:0:0:
256,192,79462,1,8,0:0:0:0:
352,228,79702,5,4,0:0:0:0:
196,328,79942,5,8,0:0:0:0:
196,224,80062,5,8,0:0:0:0:
80,128,80182,5,8,0:0:0:0:
196,52,80302,5,8,0:0:0:0:
352,52,80422,5,8,0:0:0:0:
476,136,80542,5,8,0:0:0:0:
352,228,80662,5,8,0:0:0:0:
356,328,80782,5,8,0:0:0:0:
256,192,80902,5,8,0:0:0:0:
256,100,81382,5,4,0:0:0:0:
256,280,81862,5,4,0:0:0:0:
96,192,82342,6,0,L|120:192,21,17.5,8|8|8|8|8|8|8|8|8|8|8|8|8|8|8|8|8|8|8|8|8|8,0:0|0:0|0:0|0:0|0:0|0:0|0:0|0:0|0:0|0:0|0:0|0:0|0:0|0:0|0:0|0:0|0:0|0:0|0:0|0:0|0:0|0:0,0:0:0:0:
160,120,83782,6,8,L|184:120,32,17.5,4|4|4|4|4|4|4|4|4|4|4|8|4|4|4|4|4|4|4|4|4|4|4|4|8|8|8|8|8|8|8|4|4,0:0|0:0|0:0|0:0|0:0|0:0|0:0|0:0|0:0|0:0|0:0|0:0|0:0|0:0|0:0|0:0|0:0|0:0|0:0|0:0|0:0|0:0|0:0|0:0|0:0|0:0|0:0|0:0|0:0|0:0|0:0|0:0|0:0,0:0:0:0:
108,284,86182,2,8,B|108:204|108:204|176:204,1,140
196,204,86902,5,4,0:0:0:0:
412,84,87142,2,8,L|340:84,1,70,0|0,0:0|0:0,0:0:0:0:
412,184,87622,2,8,L|340:184,1,70
412,288,88102,2,8,L|340:288,1,70
72,84,88582,6,8,L|144:84,1,70
72,184,89062,2,8,L|148:184,1,70
72,284,89542,6,8,L|144:284,1,70
400,296,90022,5,4,0:0:0:0:
256,192,90262,1,4,0:0:0:0:
100,296,90502,1,4,0:0:0:0:
100,80,90742,5,0,0:0:0:0:
256,192,90982,1,4,0:0:0:0:
400,80,91222,1,4,0:0:0:0:
400,192,91462,6,0,L|400:228,8,35,8|4|8|4|8|4|8|4|8,0:0|0:0|0:0|0:0|0:0|0:0|0:0|0:0|0:0,0:0:0:0:
128,128,92902,6,0,L|128:204,1,70,4|4,0:0|0:0,0:0:0:0:
256,192,93382,1,8,0:0:0:0:
128,128,93862,6,4,L|128:208,1,70
40,128,94342,6,8,L|112:128,1,70
40,212,94822,2,8,L|116:212,1,70
40,292,95302,2,8,L|112:292,1,70
256,192,96022,5,4,0:0:0:0:
296,292,96262,2,8,L|220:292,1,70
296,292,96742,2,8,L|220:292,1,70
296,292,97222,2,8,L|220:292,1,70
360,272,97702,5,8,0:0:0:0:
296,208,97942,1,8,0:0:0:0:
236,140,98182,1,8,0:0:0:0:
184,208,98422,1,4,0:0:0:0:
128,268,98662,1,4,0:0:0:0:
360,272,99142,5,12,0:0:0:0:
360,192,99622,1,12,0:0:0:0:
276,192,100102,6,0,L|276:172,15,17.5,8|4|8|4|8|4|8|4|8|4|8|4|8|4|8|4,0:0|0:0|0:0|0:0|0:0|0:0|0:0|0:0|0:0|0:0|0:0|0:0|0:0|0:0|0:0|0:0,0:0:0:0:
256,104,101542,5,4,0:0:0:0:
168,192,101782,1,4,0:0:0:0:
168,104,102022,1,8,0:0:0:0:
256,192,102262,1,8,0:0:0:0:
256,276,102502,1,4,0:0:0:0:
168,276,102742,1,4,0:0:0:0:
256,192,102982,12,8,104422,0:0:0:0:
144,320,104902,6,0,L|24:224,1,140,8|4,0:0|0:0,0:0:0:0:
240,196,105622,5,8,0:0:0:0:
364,320,105862,6,0,L|484:224,1,140,8|4,0:0|0:0,0:0:0:0:
240,196,106582,5,8,0:0:0:0:
128,116,106822,2,8,L|12:32,1,140,8|4,0:0|0:0,0:0:0:0:
240,196,107542,5,12,0:0:0:0:
240,196,107782,2,0,L|420:64,1,210,4|12,0:0|0:0,0:0:0:0:
112,312,108742,6,4,B|112:32|112:32|392:32|392:308|392:28,1,700
152,188,111382,2,0,L|144:152,1,35,8|0,0:0|0:0,0:0:0:0:
256,188,111862,2,0,L|256:148,1,35,8|0,0:0|0:0,0:0:0:0:
356,192,112102,1,12,0:0:0:0:
376,288,112582,6,10,B|476:188|476:188|364:92,1,280,12|12,0:0|0:0,0:0:0:0:
356,192,114022,1,0,0:0:0:0:
152,192,114262,1,0,0:0:0:0:
100,300,114502,5,4,0:0:0:0:
256,192,114862,1,8,0:0:0:0:
412,300,115222,1,4,0:0:0:0:
100,80,115462,1,4,0:0:0:0:
256,192,115702,1,8,0:0:0:0:
412,84,115942,1,4,0:0:0:0:
96,300,116422,5,4,0:0:0:0:
144,216,116662,5,8,0:0:0:0:
144,188,116782,1,8,0:0:0:0:
144,152,116902,1,8,0:0:0:0:
144,112,117082,1,4,0:0:0:0:
60,108,117382,1,12,0:0:0:0:
60,148,117622,1,8,0:0:0:0:
60,196,117862,1,8,0:0:0:0:
60,228,118102,1,4,0:0:0:0:
152,328,118342,6,0,B|248:328|156:328|276:260,2,140,4|8|12,0:0|0:0|0:0,0:0:0:0:
360,332,119782,5,8,0:0:0:0:
392,124,120262,5,12,0:0:0:0:
296,64,120382,1,12,0:0:0:0:
196,64,120502,1,12,0:0:0:0:
112,128,120622,1,12,0:0:0:0:
392,232,120742,5,8,0:0:0:0:
324,324,120862,1,8,0:0:0:0:
204,324,120982,1,8,0:0:0:0:
116,248,121102,1,8,0:0:0:0:
392,124,121222,5,8,0:0:0:0:
296,64,121342,1,4,0:0:0:0:
196,64,121462,1,8,0:0:0:0:
112,128,121582,1,4,0:0:0:0:
116,248,121702,5,8,0:0:0:0:
204,324,121822,1,4,0:0:0:0:
324,324,121942,1,4,0:0:0:0:
404,232,122062,1,4,0:0:0:0:
192,192,122182,5,8,0:0:0:0:
320,192,122422,1,8,0:0:0:0:
320,92,122662,1,4,0:0:0:0:
192,92,122902,1,8,0:0:0:0:
320,296,123142,1,4,0:0:0:0:
188,296,123382,1,4,0:0:0:0:
432,196,123622,1,4,0:0:0:0:
84,196,123862,1,4,0:0:0:0:
184,304,124102,6,8,B|80:196|80:196|184:104|184:104,2,280,8|8|8,0:0|0:0|0:0,0:0:0:0:
260,296,126262,1,8,0:0:0:0:
260,192,126502,6,0,L|332:192,4,70,8|4|8|4|8,0:0|0:0|0:0|0:0|0:0,0:0:0:0:
264,340,127942,2,0,B|480:72|484:-40|236:88|236:88|88:40|88:40|64:228|192:320,1,980,0|14,0:0|0:0,0:0:0:0:
76,200,131782,6,0,L|132:140,1,70,8|4,0:0|0:0,0:0:0:0:
156,200,132262,1,4,0:0:0:0:
240,200,132502,5,8,0:0:0:0:
240,116,132742,5,4,0:0:0:0:
240,288,132982,5,4,0:0:0:0:
324,196,133222,2,0,L|324:124,1,70,4|8,0:0|0:0,0:0:0:0:
76,200,133702,6,0,L|132:140,1,70,4|4,0:0|0:0,0:0:0:0:
156,200,134182,1,4,0:0:0:0:
240,200,134422,5,4,0:0:0:0:
240,116,134662,5,4,0:0:0:0:
240,288,134902,5,4,0:0:0:0:
324,196,135142,2,0,L|324:124,1,70,4|8,0:0|0:0,0:0:0:0:
76,200,135622,6,0,L|132:140,1,70,4|4,0:0|0:0,0:0:0:0:
156,200,136102,1,4,0:0:0:0:
240,200,136342,5,4,0:0:0:0:
240,116,136582,5,4,0:0:0:0:
240,288,136822,5,4,0:0:0:0:
324,200,137062,2,4,L|324:128,1,70,4|8,0:0|0:0,0:0:0:0:
240,200,137542,5,8,0:0:0:0:
240,116,137842,1,8,0:0:0:0:
156,116,137962,1,8,0:0:0:0:
156,200,138202,1,8,0:0:0:0:
324,200,138322,1,4,0:0:0:0:
324,116,138562,5,8,0:0:0:0:
240,116,138682,1,8,0:0:0:0:
156,116,138802,1,0,0:0:0:0:
240,200,138982,1,12,0:0:0:0:
76,200,139522,5,8,0:0:0:0:
156,200,139762,2,0,L|156:248,1,35,4|8,0:0|0:0,0:0:0:0:
240,204,140122,2,0,L|244:168,1,35,4|8,0:0|0:0,0:0:0:0:
324,200,140782,5,8,0:0:0:0:
324,116,140842,1,8,0:0:0:0:
240,116,140962,1,4,0:0:0:0:
240,200,141262,1,8,0:0:0:0:
156,200,141322,1,8,0:0:0:0:
156,116,141442,1,8,0:0:0:0:
156,116,141652,5,4,0:0:0:0:
240,116,141922,5,8,0:0:0:0:
244,196,142042,1,4,0:0:0:0:
156,192,142162,1,8,0:0:0:0:
336,112,142642,5,8,0:0:0:0:
332,200,142762,1,4,0:0:0:0:
416,200,142942,1,8,0:0:0:0:
256,304,143362,5,8,0:0:0:0:
256,88,143482,1,4,0:0:0:0:
252,196,144082,1,4,0:0:0:0:
416,192,144322,1,4,0:0:0:0:
96,192,144562,1,4,0:0:0:0:
256,192,144802,1,4,0:0:0:0:
256,328,144922,1,4,0:0:0:0:
256,68,145042,5,12,0:0:0:0:
256,192,145282,5,4,0:0:0:0:
416,192,145642,1,4,0:0:0:0:
96,192,146002,1,8,0:0:0:0:
256,328,146242,1,8,0:0:0:0:
256,68,146452,1,4,0:0:0:0:
256,192,146662,1,8,0:0:0:0:
96,192,147142,5,8,0:0:0:0:
408,192,147622,1,8,0:0:0:0:
96,192,148102,1,8,0:0:0:0:
408,192,148582,1,8,0:0:0:0:
96,192,149062,5,8,0:0:0:0:
408,192,149542,1,4,0:0:0:0:
408,192,149782,5,4,0:0:0:0:
96,192,150022,1,8,0:0:0:0:
408,192,150502,1,12,0:0:0:0:
408,104,150982,2,0,B|368:104|368:104|368:72,1,70,4|8,0:0|0:0,0:0:0:0:
316,76,151462,2,0,B|280:76|280:76|280:116,1,70,8|4,0:0|0:0,0:0:0:0:
228,112,151942,5,8,0:0:0:0:
172,112,152242,2,4,P|172:76|168:72,2,35,4|4|4,0:0|0:0|0:0,0:0:0:0:
172,200,152722,5,0,0:0:0:0:
360,204,152902,2,12,L|360:180,14,17.5,10|10|10|10|10|10|10|10|10|10|10|10|10|10|10,0:0|0:0|0:0|0:0|0:0|0:0|0:0|0:0|0:0|0:0|0:0|0:0|0:0|0:0|0:0,0:0:0:0:
136,208,153862,2,12,L|136:184,14,17.5,2|2|2|2|2|2|2|2|2|2|2|2|2|2|2,0:0|0:0|0:0|0:0|0:0|0:0|0:0|0:0|0:0|0:0|0:0|0:0|0:0|0:0|0:0,0:0:0:0:
96,192,154822,5,8,0:0:0:0:
408,192,155302,1,8,0:0:0:0:
96,192,155782,1,8,0:0:0:0:
408,192,156262,1,8,0:0:0:0:
96,192,156742,5,8,0:0:0:0:
408,192,157222,1,8,0:0:0:0:
408,192,157462,5,4,0:0:0:0:
96,192,157702,1,8,0:0:0:0:
408,192,158182,1,4,0:0:0:0:
408,104,158662,2,0,B|368:104|368:104|368:72,1,70,4|8,0:0|0:0,0:0:0:0:
316,76,159142,2,0,B|280:76|280:76|280:116,1,70,8|4,0:0|0:0,0:0:0:0:
228,112,159622,5,8,0:0:0:0:
172,112,159922,2,0,P|172:76|168:72,2,35,4|8|8,0:0|0:0|0:0,0:0:0:0:
172,200,160402,5,8,0:0:0:0:
360,204,160582,2,0,L|360:180,14,17.5,2|2|2|2|2|2|2|2|2|2|2|2|2|2|2,0:0|0:0|0:0|0:0|0:0|0:0|0:0|0:0|0:0|0:0|0:0|0:0|0:0|0:0|0:0,0:0:0:0:
140,208,161542,2,0,L|140:184,14,17.5,6|6|6|6|6|6|6|6|6|6|6|6|6|6|6,0:0|0:0|0:0|0:0|0:0|0:0|0:0|0:0|0:0|0:0|0:0|0:0|0:0|0:0|0:0,0:0:0:0:
256,192,162502,12,14,168262,0:0:0:0:
388,188,168622,5,8,0:0:0:0:
104,192,168922,1,4,0:0:0:0:
104,108,169462,1,4,0:0:0:0:
188,196,170002,1,4,0:0:0:0:
272,196,170272,5,10,0:0:0:0:
272,108,170362,1,10,0:0:0:0:
364,156,170902,5,14,0:0:0:0:
