osu file format v6

[General]
AudioFilename: LGQR - Omg.mp3
AudioLeadIn: 3000
PreviewTime: -1
Countdown: 0
SampleSet: Soft
StackLeniency: 1
Mode: 0
LetterboxInBreaks: 1

[Editor]
DistanceSpacing: 0.800000011920929
BeatDivisor: 8
GridSize: 8

[Metadata]
Title:OMG
Artist:LQGR
Creator:Ph0X
Version:PI
Source:
Tags:lgqr omg song oh my god

[Difficulty]
HPDrainRate:0
CircleSize:7
OverallDifficulty:0
SliderMultiplier:2.6
SliderTickRate:0.5

[Events]
//Background and Video events
0,0,"The_Biting_Pear_of_Salamanca_by_ursulav.jpg"
//Break Periods
2,4951,13952
//Storyboard Layer 0 (Background)
//Storyboard Layer 1 (Fail)
//Storyboard Layer 2 (Pass)
//Storyboard Layer 3 (Foreground)
//Storyboard Sound Samples
//Background Colour Transformations
3,100,163,162,255

[TimingPoints]
3381,400.106695118698,4,2,0,70,1,0
3549,400.106695118698,4,2,0,70,1,0
18374,-50,4,2,0,70,0,0
28277,-100,4,2,0,70,0,0

[Colours]
Combo1 : 0,0,0
Combo2 : 255,255,255

[HitObjects]
256,192,30,1,0
256,192,30,1,0
0,0,3544,1,0
0,0,3556,5,0
0,0,3557,5,0
32,0,3558,5,0
0,0,3559,1,0
0,0,3560,1,0
64,0,3561,1,0
64,0,3562,5,0
96,0,3563,5,0
0,0,3564,1,0
0,0,3565,1,0
0,0,3566,1,0
128,0,3567,1,0
128,0,3568,5,0
0,0,3569,1,0
0,0,3570,1,0
0,0,3571,1,0
0,0,3572,1,0
0,0,3573,1,0
0,0,3574,1,0
0,0,3575,1,0
160,0,3576,1,0
160,0,3577,5,0
192,0,3578,1,0
192,0,3579,5,0
0,0,3580,1,0
0,0,3581,1,0
0,0,3582,1,0
0,0,3583,1,0
224,0,3584,1,0
224,0,3585,5,0
0,0,3586,1,0
0,0,3587,1,0
0,0,3588,1,0
256,0,3589,1,0
256,0,3590,5,0
0,0,3591,1,0
288,0,3592,1,0
288,0,3593,5,0
0,0,3594,1,0
0,0,3595,1,0
0,0,3596,1,0
320,0,3597,1,0
320,0,3598,5,0
0,0,3599,1,0
0,0,3600,1,0
0,0,3601,1,0
0,0,3602,1,0
0,0,3603,1,0
0,0,3604,1,0
352,0,3605,1,0
352,0,3606,5,0
0,0,3607,1,0
0,0,3608,1,0
0,0,3609,1,0
0,0,3610,1,0
0,0,3611,1,0
0,0,3612,1,0
0,0,3613,1,0
384,0,3614,1,0
384,0,3615,5,0
0,0,3616,1,0
0,0,3617,1,0
0,0,3618,1,0
0,0,3619,1,0
0,0,3620,1,0
416,0,3621,1,0
416,0,3622,5,0
0,0,3623,1,0
0,0,3624,1,0
0,0,3625,1,0
0,0,3626,1,0
0,0,3627,1,0
0,0,3628,1,0
0,0,3629,1,0
448,0,3630,1,0
448,0,3631,5,0
0,0,3632,1,0
480,0,3633,1,0
480,0,3634,5,0
512,0,3635,1,0
512,0,3636,5,0
0,0,3637,1,0
0,32,3638,1,0
0,32,3639,5,0
0,0,3640,1,0
0,0,3641,1,0
0,0,3642,1,0
0,0,3643,1,0
0,0,3644,1,0
0,0,3645,1,0
32,32,3646,1,0
32,32,3647,5,0
0,0,3648,1,0
0,0,3649,1,0
64,32,3650,1,0
64,32,3651,5,0
0,0,3652,1,0
0,0,3653,1,0
0,0,3654,1,0
0,0,3655,1,0
96,32,3656,1,0
96,32,3657,5,0
128,32,3658,1,0
128,32,3659,5,0
0,0,3660,1,0
0,0,3661,1,0
0,0,3662,1,0
0,0,3663,1,0
160,32,3664,1,0
160,32,3665,5,0
0,0,3666,1,0
0,0,3667,1,0
192,32,3668,1,0
192,32,3669,5,0
0,0,3670,1,0
224,32,3671,1,0
224,32,3672,5,0
0,0,3673,1,0
256,32,3674,1,0
256,32,3675,5,0
0,0,3676,1,0
0,0,3677,1,0
0,0,3678,1,0
0,0,3679,1,0
0,0,3680,1,0
0,0,3681,1,0
288,32,3682,1,0
288,32,3683,5,0
0,0,3684,1,0
320,32,3685,1,0
320,32,3686,5,0
352,32,3687,1,0
352,32,3688,5,0
0,0,3689,1,0
0,0,3690,1,0
0,0,3691,1,0
0,0,3692,1,0
0,0,3693,1,0
384,32,3694,1,0
384,32,3695,5,0
0,0,3696,1,0
0,0,3697,1,0
0,0,3698,1,0
0,0,3699,1,0
0,0,3700,1,0
0,0,3701,1,0
0,0,3702,1,0
416,32,3703,1,0
416,32,3704,5,0
0,0,3705,1,0
0,0,3706,1,0
0,0,3707,1,0
448,32,3708,1,0
448,32,3709,5,0
0,0,3710,1,0
0,0,3711,1,0
0,0,3712,1,0
0,0,3713,1,0
0,0,3714,1,0
0,0,3715,1,0
0,0,3716,1,0
0,0,3717,1,0
480,32,3718,1,0
480,32,3719,5,0
512,32,3720,1,0
512,32,3721,5,0
0,0,3722,1,0
0,0,3723,1,0
0,0,3724,1,0
0,0,3725,1,0
0,0,3726,1,0
0,0,3727,1,0
0,64,3728,1,0
0,64,3729,5,0
0,0,3730,1,0
0,0,3731,1,0
0,0,3732,1,0
0,0,3733,1,0
0,0,3734,1,0
0,0,3735,1,0
32,64,3736,1,0
32,64,3737,5,0
0,0,3738,1,0
0,0,3739,1,0
64,64,3740,1,0
64,64,3741,5,0
96,64,3742,5,0
0,0,3743,1,0
0,0,3744,1,0
0,0,3745,1,0
0,0,3746,1,0
0,0,3747,1,0
0,0,3748,1,0
0,0,3749,1,0
128,64,3750,1,0
128,64,3751,5,0
0,0,3752,1,0
0,0,3753,1,0
0,0,3754,1,0
0,0,3755,1,0
0,0,3756,1,0
160,64,3757,1,0
160,64,3758,5,0
192,64,3759,5,0
0,0,3760,1,0
0,0,3761,1,0
0,0,3762,1,0
0,0,3763,1,0
224,64,3764,1,0
224,64,3765,5,0
0,0,3766,1,0
0,0,3767,1,0
0,0,3768,1,0
0,0,3769,1,0
0,0,3770,1,0
0,0,3771,1,0
0,0,3772,1,0
256,64,3773,1,0
256,64,3774,5,0
0,0,3775,1,0
288,64,3776,1,0
288,64,3777,5,0
0,0,3778,1,0
0,0,3779,1,0
0,0,3780,1,0
0,0,3781,1,0
0,0,3782,1,0
0,0,3783,1,0
0,0,3784,1,0
320,64,3785,1,0
320,64,3786,5,0
0,0,3787,1,0
0,0,3788,1,0
0,0,3789,1,0
0,0,3790,1,0
0,0,3791,1,0
0,0,3792,1,0
0,0,3793,1,0
352,64,3794,1,0
352,64,3795,5,0
0,0,3796,1,0
384,64,3797,1,0
384,64,3798,5,0
0,0,3799,1,0
0,0,3800,1,0
0,0,3801,1,0
0,0,3802,1,0
0,0,3803,1,0
416,64,3804,1,0
416,64,3805,5,0
0,0,3806,1,0
0,0,3807,1,0
0,0,3808,1,0
448,64,3809,1,0
448,64,3810,5,0
480,64,3811,5,0
0,0,3812,1,0
0,0,3813,1,0
0,0,3814,1,0
0,0,3815,1,0
0,0,3816,1,0
0,0,3817,1,0
0,0,3818,1,0
0,0,3819,1,0
512,64,3820,1,0
512,64,3821,5,0
0,0,3822,1,0
0,0,3823,1,0
0,0,3824,1,0
0,96,3825,1,0
0,96,3826,5,0
0,0,3827,1,0
0,0,3828,1,0
0,0,3829,1,0
0,0,3830,1,0
0,0,3831,1,0
0,0,3832,1,0
32,96,3833,1,0
32,96,3834,5,0
64,96,3835,1,0
64,96,3836,5,0
0,0,3837,1,0
0,0,3838,1,0
0,0,3839,1,0
0,0,3840,1,0
0,0,3841,1,0
0,0,3842,1,0
0,0,3843,1,0
0,0,3844,1,0
96,96,3845,1,0
96,96,3846,5,0
0,0,3847,1,0
0,0,3848,1,0
0,0,3849,1,0
0,0,3850,1,0
0,0,3851,1,0
0,0,3852,1,0
0,0,3853,1,0
128,96,3854,1,0
128,96,3855,5,0
0,0,3856,1,0
0,0,3857,1,0
0,0,3858,1,0
0,0,3859,1,0
0,0,3860,1,0
160,96,3861,1,0
160,96,3862,5,0
0,0,3863,1,0
0,0,3864,1,0
192,96,3865,1,0
192,96,3866,5,0
0,0,3867,1,0
0,0,3868,1,0
0,0,3869,1,0
0,0,3870,1,0
0,0,3871,1,0
0,0,3872,1,0
0,0,3873,1,0
224,96,3874,1,0
224,96,3875,5,0
0,0,3876,1,0
0,0,3877,1,0
256,96,3878,1,0
256,96,3879,5,0
0,0,3880,1,0
0,0,3881,1,0
288,96,3882,1,0
288,96,3883,5,0
0,0,3884,1,0
0,0,3885,1,0
0,0,3886,1,0
320,96,3887,1,0
320,96,3888,5,0
0,0,3889,1,0
0,0,3890,1,0
0,0,3891,1,0
0,0,3892,1,0
0,0,3893,1,0
0,0,3894,1,0
0,0,3895,1,0
352,96,3896,1,0
352,96,3897,5,0
384,96,3898,1,0
384,96,3899,5,0
0,0,3900,1,0
416,96,3901,1,0
416,96,3902,5,0
0,0,3903,1,0
0,0,3904,1,0
0,0,3905,1,0
0,0,3906,1,0
0,0,3907,1,0
0,0,3908,1,0
0,0,3909,1,0
0,0,3910,1,0
448,96,3911,1,0
448,96,3912,5,0
0,0,3913,1,0
0,0,3914,1,0
0,0,3915,1,0
0,0,3916,1,0
0,0,3917,1,0
480,96,3918,1,0
480,96,3919,5,0
0,0,3920,1,0
0,0,3921,1,0
0,0,3922,1,0
0,0,3923,1,0
0,0,3924,1,0
0,0,3925,1,0
512,96,3926,1,0
512,96,3927,5,0
0,128,3928,5,0
0,0,3929,1,0
0,0,3930,1,0
0,0,3931,1,0
0,0,3932,1,0
32,128,3933,1,0
32,128,3934,5,0
0,0,3935,1,0
0,0,3936,1,0
64,128,3937,1,0
64,128,3938,5,0
0,0,3939,1,0
0,0,3940,1,0
0,0,3941,1,0
0,0,3942,1,0
0,0,3943,1,0
0,0,3944,1,0
0,0,3945,1,0
0,0,3946,1,0
96,128,3947,1,0
96,128,3948,5,0
0,0,3949,1,0
0,0,3950,1,0
0,0,3951,1,0
0,0,3952,1,0
128,128,3953,1,0
128,128,3954,5,0
160,128,3955,1,0
160,128,3956,5,0
0,0,3957,1,0
0,0,3958,1,0
0,0,3959,1,0
0,0,3960,1,0
0,0,3961,1,0
0,0,3962,1,0
192,128,3963,1,0
192,128,3964,5,0
0,0,3965,1,0
0,0,3966,1,0
0,0,3967,1,0
0,0,3968,1,0
224,128,3969,1,0
224,128,3970,5,0
256,128,3971,1,0
256,128,3972,5,0
0,0,3973,1,0
0,0,3974,1,0
0,0,3975,1,0
0,0,3976,1,0
0,0,3977,1,0
0,0,3978,1,0
0,0,3979,1,0
0,0,3980,1,0
288,128,3981,1,0
288,128,3982,5,0
0,0,3983,1,0
0,0,3984,1,0
0,0,3985,1,0
0,0,3986,1,0
0,0,3987,1,0
0,0,3988,1,0
320,128,3989,1,0
320,128,3990,5,0
0,0,3991,1,0
0,0,3992,1,0
0,0,3993,1,0
0,0,3994,1,0
0,0,3995,1,0
0,0,3996,1,0
0,0,3997,1,0
352,128,3998,1,0
352,128,3999,5,0
0,0,4000,1,0
0,0,4001,1,0
0,0,4002,1,0
0,0,4003,1,0
0,0,4004,1,0
0,0,4005,1,0
0,0,4006,1,0
384,128,4007,1,0
384,128,4008,5,0
0,0,4009,1,0
0,0,4010,1,0
0,0,4011,1,0
0,0,4012,1,0
0,0,4013,1,0
0,0,4014,1,0
416,128,4015,1,0
416,128,4016,5,0
0,0,4017,1,0
0,0,4018,1,0
0,0,4019,1,0
0,0,4020,1,0
448,128,4021,1,0
448,128,4022,5,0
480,128,4023,1,0
480,128,4024,5,0
0,0,4025,1,0
0,0,4026,1,0
0,0,4027,1,0
0,0,4028,1,0
0,0,4029,1,0
0,0,4030,1,0
512,128,4031,1,0
512,128,4032,5,0
0,0,4033,1,0
0,0,4034,1,0
0,0,4035,1,0
0,0,4036,1,0
0,0,4037,1,0
0,0,4038,1,0
0,0,4039,1,0
0,0,4040,1,0
0,160,4041,1,0
0,160,4042,5,0
0,0,4043,1,0
32,160,4044,1,0
32,160,4045,5,0
0,0,4046,1,0
0,0,4047,1,0
64,160,4048,1,0
64,160,4049,5,0
0,0,4050,1,0
0,0,4051,1,0
0,0,4052,1,0
0,0,4053,1,0
0,0,4054,1,0
0,0,4055,1,0
96,160,4056,1,0
96,160,4057,5,0
128,160,4058,1,0
128,160,4059,5,0
0,0,4060,1,0
0,0,4061,1,0
0,0,4062,1,0
160,160,4063,1,0
160,160,4064,5,0
0,0,4065,1,0
192,160,4066,1,0
192,160,4067,5,0
0,0,4068,1,0
0,0,4069,1,0
224,160,4070,1,0
224,160,4071,5,0
256,160,4072,1,0
256,160,4073,5,0
288,160,4074,5,0
320,160,4075,5,0
0,0,4076,1,0
0,0,4077,1,0
0,0,4078,1,0
0,0,4079,1,0
0,0,4080,1,0
352,160,4081,1,0
352,160,4082,5,0
0,0,4083,1,0
0,0,4084,1,0
0,0,4085,1,0
0,0,4086,1,0
0,0,4087,1,0
0,0,4088,1,0
0,0,4089,1,0
0,0,4090,1,0
384,160,4091,1,0
384,160,4092,5,0
0,0,4093,1,0
0,0,4094,1,0
0,0,4095,1,0
0,0,4096,1,0
416,160,4097,1,0
416,160,4098,5,0
0,0,4099,1,0
0,0,4100,1,0
0,0,4101,1,0
0,0,4102,1,0
0,0,4103,1,0
448,160,4104,1,0
448,160,4105,5,0
0,0,4106,1,0
0,0,4107,1,0
0,0,4108,1,0
0,0,4109,1,0
0,0,4110,1,0
0,0,4111,1,0
0,0,4112,1,0
480,160,4113,1,0
480,160,4114,5,0
0,0,4115,1,0
0,0,4116,1,0
0,0,4117,1,0
0,0,4118,1,0
0,0,4119,1,0
0,0,4120,1,0
512,160,4121,1,0
512,160,4122,5,0
0,192,4123,1,0
0,192,4124,5,0
32,192,4125,5,0
0,0,4126,1,0
0,0,4127,1,0
64,192,4128,1,0
64,192,4129,5,0
0,0,4130,1,0
0,0,4131,1,0
0,0,4132,1,0
0,0,4133,1,0
0,0,4134,1,0
0,0,4135,1,0
96,192,4136,1,0
96,192,4137,5,0
0,0,4138,1,0
0,0,4139,1,0
0,0,4140,1,0
0,0,4141,1,0
0,0,4142,1,0
0,0,4143,1,0
0,0,4144,1,0
0,0,4145,1,0
128,192,4146,1,0
128,192,4147,5,0
0,0,4148,1,0
0,0,4149,1,0
0,0,4150,1,0
0,0,4151,1,0
0,0,4152,1,0
0,0,4153,1,0
160,192,4154,1,0
160,192,4155,5,0
0,0,4156,1,0
0,0,4157,1,0
0,0,4158,1,0
0,0,4159,1,0
192,192,4160,1,0
192,192,4161,5,0
0,0,4162,1,0
0,0,4163,1,0
0,0,4164,1,0
224,192,4165,1,0
224,192,4166,5,0
256,192,4167,5,0
0,0,4168,1,0
288,192,4169,1,0
288,192,4170,5,0
320,192,4171,1,0
320,192,4172,5,0
0,0,4173,1,0
0,0,4174,1,0
0,0,4175,1,0
0,0,4176,1,0
0,0,4177,1,0
0,0,4178,1,0
352,192,4179,1,0
352,192,4180,5,0
384,192,4181,1,0
384,192,4182,5,0
0,0,4183,1,0
416,192,4184,1,0
416,192,4185,5,0
0,0,4186,1,0
0,0,4187,1,0
0,0,4188,1,0
0,0,4189,1,0
0,0,4190,1,0
0,0,4191,1,0
0,0,4192,1,0
0,0,4193,1,0
448,192,4194,1,0
448,192,4195,5,0
0,0,4196,1,0
0,0,4197,1,0
0,0,4198,1,0
0,0,4199,1,0
480,192,4200,1,0
480,192,4201,5,0
0,0,4202,1,0
0,0,4203,1,0
0,0,4204,1,0
0,0,4205,1,0
512,192,4206,1,0
512,192,4207,5,0
0,0,4208,1,0
0,0,4209,1,0
0,224,4210,1,0
0,224,4211,5,0
0,0,4212,1,0
0,0,4213,1,0
0,0,4214,1,0
0,0,4215,1,0
0,0,4216,1,0
32,224,4217,1,0
32,224,4218,5,0
0,0,4219,1,0
0,0,4220,1,0
0,0,4221,1,0
0,0,4222,1,0
0,0,4223,1,0
0,0,4224,1,0
0,0,4225,1,0
0,0,4226,1,0
64,224,4227,1,0
64,224,4228,5,0
0,0,4229,1,0
0,0,4230,1,0
0,0,4231,1,0
0,0,4232,1,0
0,0,4233,1,0
0,0,4234,1,0
0,0,4235,1,0
96,224,4236,1,0
96,224,4237,5,0
0,0,4238,1,0
128,224,4239,1,0
128,224,4240,5,0
0,0,4241,1,0
0,0,4242,1,0
0,0,4243,1,0
0,0,4244,1,0
0,0,4245,1,0
0,0,4246,1,0
160,224,4247,1,0
160,224,4248,5,0
0,0,4249,1,0
0,0,4250,1,0
192,224,4251,1,0
192,224,4252,5,0
0,0,4253,1,0
0,0,4254,1,0
224,224,4255,1,0
224,224,4256,5,0
0,0,4257,1,0
0,0,4258,1,0
0,0,4259,1,0
0,0,4260,1,0
256,224,4261,1,0
256,224,4262,5,0
0,0,4263,1,0
0,0,4264,5,0
0,0,4265,1,0
0,0,4266,1,0
0,0,4267,1,0
0,0,4268,1,0
0,0,4269,1,0
0,0,4270,1,0
288,224,4271,1,0
288,224,4272,5,0
0,0,4273,1,0
0,0,4274,1,0
0,0,4275,1,0
0,0,4276,1,0
0,0,4277,1,0
0,0,4278,1,0
0,0,4279,1,0
320,224,4280,1,0
320,224,4281,5,0
0,0,4282,1,0
0,0,4283,1,0
0,0,4284,1,0
352,224,4285,1,0
352,224,4286,5,0
0,0,4287,1,0
0,0,4288,1,0
0,0,4289,1,0
384,224,4290,1,0
384,224,4291,5,0
0,0,4292,1,0
0,0,4293,1,0
0,0,4294,1,0
0,0,4295,1,0
0,0,4296,1,0
0,0,4297,1,0
0,0,4298,1,0
0,0,4299,1,0
416,224,4300,1,0
416,224,4301,5,0
0,0,4302,1,0
0,0,4303,1,0
0,0,4304,1,0
448,224,4305,1,0
448,224,4306,5,0
0,0,4307,1,0
0,0,4308,1,0
0,0,4309,1,0
0,0,4310,1,0
0,0,4311,1,0
0,0,4312,1,0
480,224,4313,1,0
480,224,4314,5,0
512,224,4315,1,0
512,224,4316,5,0
0,256,4317,1,0
0,256,4318,5,0
0,0,4319,1,0
32,256,4320,1,0
32,256,4321,5,0
64,256,4322,5,0
0,0,4323,1,0
0,0,4324,1,0
0,0,4325,1,0
0,0,4326,1,0
0,0,4327,1,0
96,256,4328,1,0
96,256,4329,5,0
128,256,4330,1,0
128,256,4331,5,0
0,0,4332,1,0
0,0,4333,1,0
0,0,4334,1,0
160,256,4335,1,0
160,256,4336,5,0
0,0,4337,1,0
192,256,4338,1,0
192,256,4339,5,0
0,0,4340,1,0
0,0,4341,1,0
0,0,4342,1,0
224,256,4343,1,0
224,256,4344,5,0
0,0,4345,1,0
0,0,4346,1,0
0,0,4347,1,0
0,0,4348,1,0
0,0,4349,1,0
0,0,4350,1,0
0,0,4351,1,0
256,256,4352,1,0
256,256,4353,5,0
0,0,4354,1,0
0,0,4355,1,0
288,256,4356,1,0
288,256,4357,5,0
0,0,4358,1,0
0,0,4359,1,0
0,0,4360,1,0
0,0,4361,1,0
0,0,4362,1,0
0,0,4363,1,0
0,0,4364,1,0
0,0,4365,1,0
320,256,4366,1,0
320,256,4367,5,0
0,0,4368,1,0
0,0,4369,1,0
0,0,4370,1,0
0,0,4371,1,0
0,0,4372,1,0
0,0,4373,1,0
352,256,4374,1,0
352,256,4375,5,0
384,256,4376,5,0
416,256,4377,1,0
416,256,4378,5,0
0,0,4379,1,0
0,0,4380,1,0
0,0,4381,1,0
0,0,4382,1,0
0,0,4383,1,0
0,0,4384,1,0
448,256,4385,1,0
448,256,4386,5,0
0,0,4387,1,0
0,0,4388,1,0
480,256,4389,1,0
480,256,4390,5,0
0,0,4391,1,0
0,0,4392,1,0
0,0,4393,1,0
0,0,4394,1,0
0,0,4395,1,0
0,0,4396,1,0
512,256,4397,1,0
512,256,4398,5,0
0,288,4399,5,0
32,288,4400,5,0
64,288,4401,5,0
0,0,4402,1,0
0,0,4403,1,0
0,0,4404,1,0
0,0,4405,1,0
0,0,4406,1,0
96,288,4407,1,0
96,288,4408,5,0
0,0,4409,1,0
0,0,4410,1,0
128,288,4411,1,0
128,288,4412,5,0
0,0,4413,1,0
0,0,4414,1,0
0,0,4415,1,0
160,288,4416,1,0
160,288,4417,5,0
0,0,4418,1,0
0,0,4419,1,0
0,0,4420,1,0
0,0,4421,1,0
0,0,4422,1,0
0,0,4423,1,0
0,0,4424,1,0
0,0,4425,1,0
192,288,4426,1,0
192,288,4427,5,0
224,288,4428,1,0
224,288,4429,5,0
0,0,4430,1,0
0,0,4431,1,0
0,0,4432,1,0
0,0,4433,1,0
0,0,4434,1,0
0,0,4435,1,0
256,288,4436,1,0
256,288,4437,5,0
0,0,4438,1,0
0,0,4439,1,0
288,288,4440,1,0
288,288,4441,5,0
320,288,4442,5,0
0,0,4443,1,0
0,0,4444,1,0
0,0,4445,1,0
0,0,4446,1,0
0,0,4447,1,0
0,0,4448,1,0
0,0,4449,1,0
0,0,4450,1,0
352,288,4451,1,0
352,288,4452,5,0
384,288,4453,1,0
384,288,4454,5,0
0,0,4455,1,0
0,0,4456,1,0
0,0,4457,1,0
0,0,4458,1,0
0,0,4459,1,0
416,288,4460,1,0
416,288,4461,5,0
0,0,4462,1,0
0,0,4463,1,0
0,0,4464,1,0
0,0,4465,1,0
0,0,4466,1,0
0,0,4467,1,0
0,0,4468,1,0
0,0,4469,1,0
448,288,4470,1,0
448,288,4471,5,0
480,288,4472,5,0
0,0,4473,1,0
0,0,4474,1,0
0,0,4475,1,0
0,0,4476,1,0
0,0,4477,1,0
0,0,4478,1,0
0,0,4479,1,0
512,288,4480,1,0
512,288,4481,5,0
0,0,4482,1,0
0,320,4483,1,0
0,320,4484,5,0
0,0,4485,1,0
0,0,4486,1,0
0,0,4487,1,0
0,0,4488,1,0
0,0,4489,1,0
0,0,4490,1,0
32,320,4491,1,0
32,320,4492,5,0
0,0,4493,1,0
0,0,4494,1,0
0,0,4495,1,0
64,320,4496,1,0
64,320,4497,5,0
96,320,4498,1,0
96,320,4499,5,0
128,320,4500,5,0
160,320,4501,5,0
0,0,4502,1,0
0,0,4503,1,0
0,0,4504,1,0
0,0,4505,1,0
0,0,4506,1,0
0,0,4507,1,0
0,0,4508,1,0
0,0,4509,1,0
192,320,4510,1,0
192,320,4511,5,0
0,0,4512,1,0
0,0,4513,1,0
0,0,4514,1,0
224,320,4515,1,0
224,320,4516,5,0
0,0,4517,1,0
0,0,4518,1,0
0,0,4519,1,0
256,320,4520,1,0
256,320,4521,5,0
0,0,4522,1,0
0,0,4523,1,0
0,0,4524,1,0
288,320,4525,1,0
288,320,4526,5,0
0,0,4527,1,0
0,0,4528,1,0
0,0,4529,1,0
0,0,4530,1,0
0,0,4531,1,0
0,0,4532,1,0
0,0,4533,1,0
320,320,4534,1,0
320,320,4535,5,0
0,0,4536,1,0
0,0,4537,1,0
0,0,4538,1,0
0,0,4539,1,0
352,320,4540,1,0
352,320,4541,5,0
0,0,4542,1,0
0,0,4543,1,0
384,320,4544,1,0
384,320,4545,5,0
0,0,4546,1,0
0,0,4547,1,0
416,320,4548,1,0
416,320,4549,5,0
0,0,4550,1,0
0,0,4551,1,0
0,0,4552,1,0
0,0,4553,1,0
448,320,4554,1,0
448,320,4555,5,0
480,320,4556,1,0
480,320,4557,5,0
512,320,4558,1,0
512,320,4559,5,0
0,0,4560,1,0
0,0,4561,1,0
0,0,4562,1,0
0,0,4563,1,0
0,0,4564,1,0
0,0,4565,1,0
0,0,4566,1,0
0,352,4567,1,0
0,352,4568,5,0
0,0,4569,1,0
0,0,4570,1,0
32,352,4571,1,0
32,352,4572,5,0
0,0,4573,1,0
0,0,4574,1,0
0,0,4575,1,0
0,0,4576,1,0
0,0,4577,1,0
0,0,4578,1,0
64,352,4579,1,0
64,352,4580,5,0
0,0,4581,1,0
0,0,4582,1,0
0,0,4583,1,0
0,0,4584,1,0
0,0,4585,1,0
0,0,4586,1,0
0,0,4587,1,0
96,352,4588,1,0
96,352,4589,5,0
0,0,4590,1,0
0,0,4591,1,0
0,0,4592,1,0
128,352,4593,1,0
128,352,4594,5,0
0,0,4595,1,0
0,0,4596,1,0
160,352,4597,1,0
160,352,4598,5,0
0,0,4599,1,0
0,0,4600,1,0
0,0,4601,1,0
0,0,4602,1,0
0,0,4603,1,0
0,0,4604,1,0
0,0,4605,1,0
192,352,4606,1,0
192,352,4607,5,0
0,0,4608,1,0
224,352,4609,1,0
224,352,4610,5,0
0,0,4611,1,0
0,0,4612,1,0
0,0,4613,1,0
0,0,4614,1,0
0,0,4615,1,0
0,0,4616,1,0
0,0,4617,1,0
0,0,4618,1,0
256,352,4619,1,0
256,352,4620,5,0
0,0,4621,1,0
288,352,4622,1,0
288,352,4623,5,0
0,0,4624,1,0
0,0,4625,1,0
0,0,4626,1,0
0,0,4627,1,0
0,0,4628,1,0
0,0,4629,1,0
320,352,4630,1,0
320,352,4631,5,0
352,352,4632,5,0
0,0,4633,1,0
0,0,4634,1,0
0,0,4635,1,0
0,0,4636,1,0
0,0,4637,1,0
0,0,4638,1,0
0,0,4639,1,0
384,352,4640,1,0
384,352,4641,5,0
0,0,4642,1,0
0,0,4643,1,0
0,0,4644,1,0
0,0,4645,1,0
416,352,4646,1,0
416,352,4647,5,0
0,0,4648,1,0
0,0,4649,1,0
448,352,4650,1,0
448,352,4651,5,0
0,0,4652,1,0
0,0,4653,1,0
480,352,4654,1,0
480,352,4655,5,0
512,352,4656,1,0
512,352,4657,5,0
0,0,4658,1,0
0,0,4659,1,0
0,0,4660,1,0
0,0,4661,1,0
0,0,4662,1,0
0,0,4663,1,0
0,384,4664,1,0
0,384,4665,5,0
0,0,4666,1,0
0,0,4667,1,0
0,0,4668,1,0
0,0,4669,1,0
0,0,4670,1,0
0,0,4671,1,0
32,384,4672,1,0
32,384,4673,5,0
64,384,4674,5,0
0,0,4675,1,0
0,0,4676,1,0
0,0,4677,1,0
0,0,4678,1,0
0,0,4679,1,0
0,0,4680,1,0
0,0,4681,1,0
0,0,4682,1,0
96,384,4683,1,0
96,384,4684,5,0
0,0,4685,1,0
0,0,4686,1,0
0,0,4687,1,0
0,0,4688,1,0
0,0,4689,1,0
0,0,4690,1,0
0,0,4691,1,0
128,384,4692,1,0
128,384,4693,5,0
0,0,4694,1,0
0,0,4695,1,0
0,0,4696,1,0
0,0,4697,1,0
0,0,4698,1,0
160,384,4699,1,0
160,384,4700,5,0
0,0,4701,1,0
0,0,4702,1,0
0,0,4703,1,0
192,384,4704,1,0
192,384,4705,5,0
0,0,4706,1,0
0,0,4707,1,0
0,0,4708,1,0
0,0,4709,1,0
224,384,4710,1,0
224,384,4711,5,0
0,0,4712,1,0
0,0,4713,1,0
0,0,4714,1,0
0,0,4715,1,0
256,384,4716,1,0
256,384,4717,5,0
0,0,4718,1,0
0,0,4719,1,0
0,0,4720,1,0
288,384,4721,1,0
288,384,4722,5,0
0,0,4723,1,0
0,0,4724,1,0
0,0,4725,1,0
0,0,4726,1,0
0,0,4727,1,0
0,0,4728,1,0
0,0,4729,1,0
320,384,4730,1,0
320,384,4731,5,0
0,0,4732,1,0
352,384,4733,1,0
352,384,4734,5,0
0,0,4735,1,0
384,384,4736,1,0
384,384,4737,5,0
0,0,4738,1,0
0,0,4739,1,0
416,384,4740,1,0
416,384,4741,5,0
0,0,4742,1,0
0,0,4743,1,0
448,384,4744,1,0
448,384,4745,5,0
0,0,4746,1,0
0,0,4747,1,0
0,0,4748,1,0
0,0,4749,1,0
480,384,4750,1,0
480,384,4751,5,0
