osu file format v6

[General]
AudioFilename: LGQR - Omg.mp3
AudioLeadIn: 3000
PreviewTime: -1
Countdown: 0
SampleSet: Soft
StackLeniency: 0.7
Mode: 0
LetterboxInBreaks: 1

[Editor]
DistanceSpacing: 0.699999988079071
BeatDivisor: 8
GridSize: 8

[Metadata]
Title:OMG
Artist:LQGR
Creator:Ph0X
Version:OhEmGee
Source:
Tags:lgqr omg song oh my god

[Difficulty]
HPDrainRate:5
CircleSize:6
OverallDifficulty:8
SliderMultiplier:2.6
SliderTickRate:1

[Events]
//Background and Video events
0,0,"The_Biting_Pear_of_Salamanca_by_ursulav.jpg"
//Break Periods
//Storyboard Layer 0 (Background)
//Storyboard Layer 1 (Fail)
//Storyboard Layer 2 (Pass)
//Storyboard Layer 3 (Foreground)
//Storyboard Sound Samples
//Background Colour Transformations
3,100,163,162,255

[TimingPoints]
3381,400.106695118698,4,2,0,70,1,0
3549,400.106695118698,4,2,0,70,1,0
18374,-50,4,2,0,70,0,0
28277,-100,4,2,0,70,0,0

[HitObjects]
152,88,3481,2,0,L|418:88|423:98|429:108|434:119|438:130|441:141|444:152|446:163|447:175|448:186|448:198|447:209|446:221|444:232|441:243|438:254|434:265|429:275|424:286|418:295|411:305|404:314|397:323|388:331|380:339|371:346|361:352|352:358|342:364|331:369|320:373|309:376|298:379|287:381|275:383|264:384|252:384|241:383|230:382|218:380|207:378|196:374|185:370|174:366|164:361|154:355|145:348|136:341|127:334|118:326|111:317|103:309|97:299|91:289|85:279|80:269|76:258|72:247|69:236|67:225|65:214|64:202|64:191|64:179|66:168|67:156|70:145|73:134|77:123|81:112|86:102|92:92|98:82|105:73|113:64|121:56|129:48|138:41|147:34|157:28|167:22|177:17|188:13|199:9|210:6|221:3|232:1|244:0|255:0|267:0|278:1|290:3|301:5|312:8|323:12|334:16|344:21|354:27|364:33|373:40|382:47|391:55|399:63|406:72|413:81|419:91|248:280,1,1722.5
256,192,6749,2,0,C|256:232,800,6.5
0,330,15602,6,0,C|0:295|3:200|7:105|11:65|14:98|19:179|23:256|28:285|33:253|38:185|44:123|50:103|56:132|62:190|68:239|75:253|82:226|89:178|96:138|103:130|111:154|119:194|126:225|135:230|143:208|151:175|160:151|169:148|178:167|187:195|196:214|206:215|216:198|225:175|235:160|245:161|256:176|266:194|277:206|287:204|298:192|309:176|321:167|332:169|343:181|355:193|367:200|379:197|391:188|403:178|415:173|427:175|440:183|453:192|466:195|479:193|492:186|512:177,1,1657.5
448,43,18553,6,0,C|463:44|433:45|463:46|433:47|463:48|433:49|463:50|433:51|463:52|433:53|463:54|433:55|463:56|433:57|463:58|433:59|463:60|448:65|448:281,1,747.5
352,41,19353,2,0,C|367:42|337:43|367:44|337:45|367:46|337:47|367:48|337:49|367:50|337:51|367:52|337:53|367:54|337:55|367:56|337:57|367:58|352:63|352:279,1,747.5
256,41,20153,2,0,C|271:42|241:43|271:44|241:45|271:46|241:47|271:48|241:49|271:50|241:51|271:52|241:53|271:54|241:55|271:56|241:57|271:58|256:63|256:279,1,747.5
160,41,20953,2,0,C|175:42|145:43|175:44|145:45|175:46|145:47|175:48|145:49|175:50|145:51|175:52|145:53|175:54|145:55|175:56|145:57|175:58|160:63|160:279,1,747.5
64,41,21753,2,0,C|79:42|49:43|79:44|49:45|79:46|49:47|79:48|49:49|79:50|49:51|79:52|49:53|79:54|49:55|79:56|49:57|79:58|64:63|64:279,1,747.5
48,185,22554,2,0,C|58:181|68:191|78:173|88:197|98:165|108:203|118:157|128:209|138:149|148:215|158:141|168:221|178:133|188:227|198:125,1,812.5
464,185,23354,2,0,C|454:181|444:191|434:173|424:197|414:165|404:203|394:157|384:209|374:149|364:215|354:141|344:221|334:133|324:227|314:125,1,812.5
304,368,24154,2,0,C|210:341|304:319|217:291|298:269|225:242|292:219|233:192|286:169|241:142|279:118|248:92|273:68|256:43|267:18|256:1,1,910
256,208,25264,12,0,25265
256,208,25274,12,0,25275
256,208,25284,12,0,25285
256,208,25294,12,0,25295
256,208,25304,12,0,25305
256,208,25314,12,0,25315
256,208,25324,12,0,25325
256,208,25334,12,0,25335
256,208,25344,12,0,25345
256,208,25354,12,0,25355
256,208,25364,12,0,25365
256,208,25374,12,0,25375
256,208,25384,12,0,25385
256,208,25394,12,0,25395
256,208,25404,12,0,25405
256,208,25414,12,0,25415
256,208,25424,12,0,25425
256,208,25434,12,0,25435
256,208,25444,12,0,25445
256,208,25454,12,0,25455
256,208,25464,12,0,25465
256,208,25474,12,0,25475
256,208,25484,12,0,25485
256,208,25494,12,0,25495
256,208,25504,12,0,25505
256,208,25514,12,0,25515
256,208,25524,12,0,25525
256,208,25534,12,0,25535
256,208,25544,12,0,25545
256,208,25554,12,0,25555
256,208,25564,12,0,25565
256,208,25574,12,0,25575
256,208,25584,12,0,25585
256,208,25594,12,0,25595
256,208,25604,12,0,25605
256,208,25614,12,0,25615
256,208,25624,12,0,25625
256,208,25634,12,0,25635
256,208,25644,12,0,25645
256,208,25654,12,0,25655
256,208,25664,12,0,25665
256,208,25674,12,0,25675
256,208,25684,12,0,25685
256,208,25694,12,0,25695
256,208,25704,12,0,25705
256,208,25714,12,0,25715
256,208,25724,12,0,25725
256,208,25734,12,0,25735
256,208,25744,12,0,25745
256,208,25754,12,0,25755
256,208,26004,12,0,26005
256,208,26014,12,0,26015
256,208,26024,12,0,26025
256,208,26034,12,0,26035
256,208,26044,12,0,26045
256,208,26054,12,0,26055
256,208,26064,12,0,26065
256,208,26074,12,0,26075
256,208,26084,12,0,26085
256,208,26094,12,0,26095
256,208,26104,12,0,26105
256,208,26114,12,0,26115
256,208,26124,12,0,26125
256,208,26134,12,0,26135
256,208,26144,12,0,26145
256,208,26154,12,0,26155
256,208,26164,12,0,26165
256,208,26174,12,0,26175
256,208,26184,12,0,26185
256,208,26194,12,0,26195
256,208,26204,12,0,26205
256,208,26214,12,0,26215
256,208,26224,12,0,26225
256,208,26234,12,0,26235
256,208,26244,12,0,26245
256,208,26254,12,0,26255
256,208,26264,12,0,26265
256,208,26274,12,0,26275
256,208,26284,12,0,26285
256,208,26294,12,0,26295
256,208,26304,12,0,26305
256,208,26314,12,0,26315
256,208,26324,12,0,26325
256,208,26334,12,0,26335
256,208,26344,12,0,26345
256,208,26354,12,0,26355
256,208,26364,12,0,26365
256,208,26374,12,0,26375
256,208,26384,12,0,26385
256,208,26394,12,0,26395
256,208,26404,12,0,26405
256,208,26414,12,0,26415
256,208,26424,12,0,26425
256,208,26434,12,0,26435
256,208,26444,12,0,26445
256,208,26454,12,0,26455
256,208,26464,12,0,26465
256,208,26474,12,0,26475
256,208,26484,12,0,26485
256,208,26494,12,0,26495
256,208,26855,12,0,26856
256,208,26905,12,0,26906
256,208,26955,12,0,26956
256,208,27005,12,0,27006
256,208,27055,12,0,27056
256,208,27105,12,0,27106
256,208,27155,12,0,27156
256,208,27205,12,0,27206
256,208,27255,12,0,27256
256,208,27305,12,0,27306
256,208,27355,12,0,27356
256,208,27405,12,0,27406
256,208,27455,12,0,27456
256,208,27505,12,0,27506
256,208,27555,12,0,27556
256,208,27605,12,0,27606
256,208,27655,12,0,27656
256,208,27705,12,0,27706
256,208,27755,12,0,27756
256,208,27805,12,0,27806
256,208,27855,12,0,27856
256,208,27905,12,0,27906
256,208,27955,12,0,27956
256,208,28005,12,0,28006
256,208,28055,12,0,28056
256,208,28105,12,0,28106
256,208,28155,12,0,28156
368,24,28405,6,0,C|400:52|425:85|441:121|451:160|453:199|446:238|432:276|411:308|383:336|352:359|316:374|279:381|241:381|204:374|169:360|138:339|113:312|93:282|79:248|73:211|74:175|82:140|97:108|117:78|143:55|173:37|207:24|240:20|275:21|309:30|339:45|366:66|388:91|405:120|415:152|418:185|415:218|406:249|391:278|371:303|346:323|319:338|288:347|257:350|226:347|195:337|169:321|145:301|126:277|113:250|105:220|104:191|108:161|118:133|133:108|152:86|177:69|203:57|231:50|259:50|288:54|314:64|338:80|358:100|373:122|384:148|390:175|390:202|384:229|374:254|358:276|340:294|317:308|292:318|267:322|241:321|215:316|192:305|172:290|154:271|142:250|133:226|129:201|130:177|137:153|148:130|162:111|181:95|202:84|225:77|249:74|273:76|294:83|316:94|333:109|348:126|359:146|365:169|366:191|365:214|358:234|346:254|332:271|314:284|295:293|273:300|252:301|230:297|210:289|192:279|177:264|164:247|156:229|152:208|151:188|154:168|161:148|173:132|187:118|203:106|222:99|242:95|261:94|280:99|298:106|313:118|327:131|338:147|344:165|348:183|346:202|343:220|335:237|323:252|310:264|295:273|278:279|260:282|242:280|225:276|209:268|195:258|184:244|175:229|170:213|169:196|170:179|175:163|183:148|194:135|207:124|221:117|237:112|253:111|269:113|284:118|298:126|310:137|320:149|326:163|330:178|331:194|329:209|324:224|315:236|305:248|293:257|280:263|265:266|250:266|236:263|221:258|210:250|200:239|191:228|186:215|183:201|183:187|187:173|192:160|199:149|210:140|222:132|234:127|248:125|261:126|274:128|286:134|297:142|305:152|312:164|316:175|318:188|318:201|314:213|308:225|300:234|291:243|280:248|268:253|255:254|244:252|232:248|221:244|212:235|204:226|199:215|196:205|196:192|196:181|200:170|206:160|214:151|223:144,1,4940
256,208,36457,12,0,36458
256,208,36467,12,0,36468
256,208,36477,12,0,36478
256,208,36487,12,0,36488
256,208,36497,12,0,36498
256,208,36507,12,0,36508
256,208,36517,12,0,36518
256,208,36527,12,0,36528
256,208,36537,12,0,36538
256,208,36547,12,0,36548
256,208,36557,12,0,36558
256,208,36567,12,0,36568
256,208,36577,12,0,36578
256,208,36587,12,0,36588
256,208,36597,12,0,36598
256,208,36607,12,0,36608
256,208,36617,12,0,36618
256,208,36627,12,0,36628
256,208,36637,12,0,36638
256,208,36647,12,0,36648
256,208,36657,12,0,36658
256,208,36667,12,0,36668
256,208,36677,12,0,36678
256,208,36687,12,0,36688
256,208,36697,12,0,36698
256,208,36707,12,0,36708
256,208,36717,12,0,36718
256,208,36727,12,0,36728
256,208,36737,12,0,36738
256,208,36747,12,0,36748
256,208,36757,12,0,36758
256,208,36767,12,0,36768
256,208,36777,12,0,36778
256,208,36787,12,0,36788
256,208,36797,12,0,36798
256,208,36807,12,0,36808
256,208,36817,12,0,36818
256,208,36827,12,0,36828
256,208,36837,12,0,36838
256,208,36847,12,0,36848
256,208,36857,12,0,36858
256,208,36867,12,0,36868
256,208,36877,12,0,36878
256,208,36887,12,0,36888
256,208,36897,12,0,36898
256,208,36907,12,0,36908
256,208,36917,12,0,36918
256,208,36927,12,0,36928
256,208,36937,12,0,36938
256,208,36947,12,0,36948
0,192,37958,6,0,C|2:192|1:192|3:192|2:192|4:192|3:192|5:192|4:192|6:192|5:192|7:192|6:192|8:192|7:192|9:192|8:192|10:192|9:192|11:192|10:192|12:192|11:192|13:192|12:192|14:192|13:192|15:192|14:192|16:192|15:192|17:192|16:192|18:192|17:192|19:192|18:192|20:192|19:192|59:192|58:192|60:192|59:192|61:192|60:192|62:192|61:192|63:192|62:192|64:192|63:192|65:192|64:192|66:192|65:192|67:192|66:192|68:192|67:192|69:192|68:192|70:192|69:192|71:192|70:192|72:192|71:192|73:192|72:192|74:192|73:192|75:192|74:192|76:192|75:192|77:192|76:192|78:192|77:192|117:192|116:192|118:192|117:192|119:192|118:192|120:192|119:192|121:192|120:192|122:192|121:192|123:192|122:192|124:192|123:192|125:192|124:192|126:192|125:192|127:192|126:192|128:192|127:192|129:192|128:192|130:192|129:192|131:192|130:192|132:192|131:192|133:192|132:192|134:192|133:192|135:192|134:192|136:192|135:192|175:192|174:192|176:192|175:192|177:192|176:192|178:192|177:192|179:192|178:192|180:192|179:192|181:192|180:192|182:192|181:192|183:192|182:192|184:192|183:192|185:192|184:192|186:192|185:192|187:192|186:192|188:192|187:192|189:192|188:192|190:192|189:192|191:192|190:192|192:192|191:192|193:192|192:192|194:192|193:192|233:192|232:192|234:192|233:192|235:192|234:192|236:192|235:192|237:192|236:192|238:192|237:192|239:192|238:192|240:192|239:192|241:192|240:192|242:192|241:192|243:192|242:192|244:192|243:192|245:192|244:192|246:192|245:192|247:192|246:192|248:192|247:192|249:192|248:192|250:192|249:192|251:192|250:192|252:192|251:192|291:192|290:192|292:192|291:192|293:192|292:192|294:192|293:192|295:192|294:192|296:192|295:192|297:192|296:192|298:192|297:192|299:192|298:192|300:192|299:192|301:192|300:192|302:192|301:192|303:192|302:192|304:192|303:192|305:192|304:192|306:192|305:192|307:192|306:192|308:192|307:192|309:192|308:192|310:192|309:192|349:192|348:192|350:192|349:192|351:192|350:192|352:192|351:192|353:192|352:192|354:192|353:192|355:192|354:192|356:192|355:192|357:192|356:192|358:192|357:192|359:192|358:192|360:192|359:192|361:192|360:192|362:192|361:192|363:192|362:192|364:192|363:192|365:192|364:192|366:192|365:192|367:192|366:192|368:192|367:192|407:192|406:192|408:192|407:192|409:192|408:192|410:192|409:192|411:192|410:192|412:192|411:192|413:192|412:192|414:192|413:192|415:192|414:192|416:192|415:192|417:192|416:192|418:192|417:192|419:192|418:192|420:192|419:192|421:192|420:192|422:192|421:192|423:192|422:192|424:192|423:192|425:192|424:192|426:192|425:192|465:192|464:192|466:192|465:192|467:192|466:192|468:192|467:192|469:192|468:192|470:192|469:192|471:192|470:192|472:192|471:192|473:192|472:192|474:192|473:192|475:192|474:192|476:192|475:192|477:192|476:192|478:192|477:192|479:192|478:192|480:192|479:192|481:192|480:192|482:192|481:192|483:192|482:192|484:192|483:192|520:192,1,975
512,248,39558,6,0,C|510:248|511:248|509:248|510:248|508:248|509:248|507:248|508:248|506:248|507:248|505:248|506:248|504:248|505:248|503:248|504:248|502:248|503:248|501:248|502:248|500:248|501:248|499:248|500:248|498:248|499:248|497:248|498:248|496:248|497:248|495:248|496:248|494:248|495:248|493:248|494:248|492:248|493:248|453:248|454:248|452:248|453:248|451:248|452:248|450:248|451:248|449:248|450:248|448:248|449:248|447:248|448:248|446:248|447:248|445:248|446:248|444:248|445:248|443:248|444:248|442:248|443:248|441:248|442:248|440:248|441:248|439:248|440:248|438:248|439:248|437:248|438:248|436:248|437:248|435:248|436:248|434:248|435:248|395:248|396:248|394:248|395:248|393:248|394:248|392:248|393:248|391:248|392:248|390:248|391:248|389:248|390:248|388:248|389:248|387:248|388:248|386:248|387:248|385:248|386:248|384:248|385:248|383:248|384:248|382:248|383:248|381:248|382:248|380:248|381:248|379:248|380:248|378:248|379:248|377:248|378:248|376:248|377:248|337:248|338:248|336:248|337:248|335:248|336:248|334:248|335:248|333:248|334:248|332:248|333:248|331:248|332:248|330:248|331:248|329:248|330:248|328:248|329:248|327:248|328:248|326:248|327:248|325:248|326:248|324:248|325:248|323:248|324:248|322:248|323:248|321:248|322:248|320:248|321:248|319:248|320:248|318:248|319:248|279:248|280:248|278:248|279:248|277:248|278:248|276:248|277:248|275:248|276:248|274:248|275:248|273:248|274:248|272:248|273:248|271:248|272:248|270:248|271:248|269:248|270:248|268:248|269:248|267:248|268:248|266:248|267:248|265:248|266:248|264:248|265:248|263:248|264:248|262:248|263:248|261:248|262:248|260:248|261:248|221:248|222:248|220:248|221:248|219:248|220:248|218:248|219:248|217:248|218:248|216:248|217:248|215:248|216:248|214:248|215:248|213:248|214:248|212:248|213:248|211:248|212:248|210:248|211:248|209:248|210:248|208:248|209:248|207:248|208:248|206:248|207:248|205:248|206:248|204:248|205:248|203:248|204:248|202:248|203:248|163:248|164:248|162:248|163:248|161:248|162:248|160:248|161:248|159:248|160:248|158:248|159:248|157:248|158:248|156:248|157:248|155:248|156:248|154:248|155:248|153:248|154:248|152:248|153:248|151:248|152:248|150:248|151:248|149:248|150:248|148:248|149:248|147:248|148:248|146:248|147:248|145:248|146:248|144:248|145:248|105:248|106:248|104:248|105:248|103:248|104:248|102:248|103:248|101:248|102:248|100:248|101:248|99:248|100:248|98:248|99:248|97:248|98:248|96:248|97:248|95:248|96:248|94:248|95:248|93:248|94:248|92:248|93:248|91:248|92:248|90:248|91:248|89:248|90:248|88:248|89:248|87:248|88:248|86:248|87:248|47:248|48:248|46:248|47:248|45:248|46:248|44:248|45:248|43:248|44:248|42:248|43:248|41:248|42:248|40:248|41:248|39:248|40:248|38:248|39:248|37:248|38:248|36:248|37:248|35:248|36:248|34:248|35:248|33:248|34:248|32:248|33:248|31:248|32:248|30:248|31:248|29:248|30:248|28:248|29:248|-16:248,1,975,0|0
0,136,41209,6,0,C|2:136|1:136|3:136|2:136|4:136|3:136|5:136|4:136|6:136|5:136|7:136|6:136|8:136|7:136|9:136|8:136|10:136|9:136|11:136|10:136|12:136|11:136|13:136|12:136|14:136|13:136|15:136|14:136|16:136|15:136|17:136|16:136|18:136|17:136|19:136|18:136|20:136|19:136|59:136|58:136|60:136|59:136|61:136|60:136|62:136|61:136|63:136|62:136|64:136|63:136|65:136|64:136|66:136|65:136|67:136|66:136|68:136|67:136|69:136|68:136|70:136|69:136|71:136|70:136|72:136|71:136|73:136|72:136|74:136|73:136|75:136|74:136|76:136|75:136|77:136|76:136|78:136|77:136|117:136|116:136|118:136|117:136|119:136|118:136|120:136|119:136|121:136|120:136|122:136|121:136|123:136|122:136|124:136|123:136|125:136|124:136|126:136|125:136|127:136|126:136|128:136|127:136|129:136|128:136|130:136|129:136|131:136|130:136|132:136|131:136|133:136|132:136|134:136|133:136|135:136|134:136|136:136|135:136|175:136|174:136|176:136|175:136|177:136|176:136|178:136|177:136|179:136|178:136|180:136|179:136|181:136|180:136|182:136|181:136|183:136|182:136|184:136|183:136|185:136|184:136|186:136|185:136|187:136|186:136|188:136|187:136|189:136|188:136|190:136|189:136|191:136|190:136|192:136|191:136|193:136|192:136|194:136|193:136|233:136|232:136|234:136|233:136|235:136|234:136|236:136|235:136|237:136|236:136|238:136|237:136|239:136|238:136|240:136|239:136|241:136|240:136|242:136|241:136|243:136|242:136|244:136|243:136|245:136|244:136|246:136|245:136|247:136|246:136|248:136|247:136|249:136|248:136|250:136|249:136|251:136|250:136|252:136|251:136|291:136|290:136|292:136|291:136|293:136|292:136|294:136|293:136|295:136|294:136|296:136|295:136|297:136|296:136|298:136|297:136|299:136|298:136|300:136|299:136|301:136|300:136|302:136|301:136|303:136|302:136|304:136|303:136|305:136|304:136|306:136|305:136|307:136|306:136|308:136|307:136|309:136|308:136|310:136|309:136|349:136|348:136|350:136|349:136|351:136|350:136|352:136|351:136|353:136|352:136|354:136|353:136|355:136|354:136|356:136|355:136|357:136|356:136|358:136|357:136|359:136|358:136|360:136|359:136|361:136|360:136|362:136|361:136|363:136|362:136|364:136|363:136|365:136|364:136|366:136|365:136|367:136|366:136|368:136|367:136|407:136|406:136|408:136|407:136|409:136|408:136|410:136|409:136|411:136|410:136|412:136|411:136|413:136|412:136|414:136|413:136|415:136|414:136|416:136|415:136|417:136|416:136|418:136|417:136|419:136|418:136|420:136|419:136|421:136|420:136|422:136|421:136|423:136|422:136|424:136|423:136|425:136|424:136|426:136|425:136|465:136|464:136|466:136|465:136|467:136|466:136|468:136|467:136|469:136|468:136|470:136|469:136|471:136|470:136|472:136|471:136|473:136|472:136|474:136|473:136|475:136|474:136|476:136|475:136|477:136|476:136|478:136|477:136|479:136|478:136|480:136|479:136|481:136|480:136|482:136|481:136|483:136|482:136|484:136|483:136|520:136,1,975
512,304,42959,6,0,C|510:304|511:304|509:304|510:304|508:304|509:304|507:304|508:304|506:304|507:304|505:304|506:304|504:304|505:304|503:304|504:304|502:304|503:304|501:304|502:304|500:304|501:304|499:304|500:304|498:304|499:304|497:304|498:304|496:304|497:304|495:304|496:304|494:304|495:304|493:304|494:304|492:304|493:304|453:304|454:304|452:304|453:304|451:304|452:304|450:304|451:304|449:304|450:304|448:304|449:304|447:304|448:304|446:304|447:304|445:304|446:304|444:304|445:304|443:304|444:304|442:304|443:304|441:304|442:304|440:304|441:304|439:304|440:304|438:304|439:304|437:304|438:304|436:304|437:304|435:304|436:304|434:304|435:304|395:304|396:304|394:304|395:304|393:304|394:304|392:304|393:304|391:304|392:304|390:304|391:304|389:304|390:304|388:304|389:304|387:304|388:304|386:304|387:304|385:304|386:304|384:304|385:304|383:304|384:304|382:304|383:304|381:304|382:304|380:304|381:304|379:304|380:304|378:304|379:304|377:304|378:304|376:304|377:304|337:304|338:304|336:304|337:304|335:304|336:304|334:304|335:304|333:304|334:304|332:304|333:304|331:304|332:304|330:304|331:304|329:304|330:304|328:304|329:304|327:304|328:304|326:304|327:304|325:304|326:304|324:304|325:304|323:304|324:304|322:304|323:304|321:304|322:304|320:304|321:304|319:304|320:304|318:304|319:304|279:304|280:304|278:304|279:304|277:304|278:304|276:304|277:304|275:304|276:304|274:304|275:304|273:304|274:304|272:304|273:304|271:304|272:304|270:304|271:304|269:304|270:304|268:304|269:304|267:304|268:304|266:304|267:304|265:304|266:304|264:304|265:304|263:304|264:304|262:304|263:304|261:304|262:304|260:304|261:304|221:304|222:304|220:304|221:304|219:304|220:304|218:304|219:304|217:304|218:304|216:304|217:304|215:304|216:304|214:304|215:304|213:304|214:304|212:304|213:304|211:304|212:304|210:304|211:304|209:304|210:304|208:304|209:304|207:304|208:304|206:304|207:304|205:304|206:304|204:304|205:304|203:304|204:304|202:304|203:304|163:304|164:304|162:304|163:304|161:304|162:304|160:304|161:304|159:304|160:304|158:304|159:304|157:304|158:304|156:304|157:304|155:304|156:304|154:304|155:304|153:304|154:304|152:304|153:304|151:304|152:304|150:304|151:304|149:304|150:304|148:304|149:304|147:304|148:304|146:304|147:304|145:304|146:304|144:304|145:304|105:304|106:304|104:304|105:304|103:304|104:304|102:304|103:304|101:304|102:304|100:304|101:304|99:304|100:304|98:304|99:304|97:304|98:304|96:304|97:304|95:304|96:304|94:304|95:304|93:304|94:304|92:304|93:304|91:304|92:304|90:304|91:304|89:304|90:304|88:304|89:304|87:304|88:304|86:304|87:304|47:304|48:304|46:304|47:304|45:304|46:304|44:304|45:304|43:304|44:304|42:304|43:304|41:304|42:304|40:304|41:304|39:304|40:304|38:304|39:304|37:304|38:304|36:304|37:304|35:304|36:304|34:304|35:304|33:304|34:304|32:304|33:304|31:304|32:304|30:304|31:304|29:304|30:304|28:304|29:304|-16:304,1,975,0|0
160,160,44810,2,0,C|256:92|256:-8|256:92|256:-8|256:92|256:-8|256:92|256:-8|256:92|256:-8|256:92|256:-8|256:92|256:-8|256:92|256:-8|256:92|340:138|424:84|340:138|424:84|340:138|424:84|340:138|424:84|340:138|424:84|340:138|424:84|340:138|424:84|340:138|424:84|340:138|424:84|340:138|347:234|438:275|347:234|438:275|347:234|438:275|347:234|438:275|347:234|438:275|347:234|270:291|284:390|270:291|284:390|270:291|284:390|270:291|284:390|270:291|284:390|270:291|180:257|105:323|180:257|105:323|180:257|105:323|180:257|105:323|180:257|105:323|180:257|160:160|64:112|160:160|64:112|160:160|64:112,1,7540
