osu file format v6

[General]
AudioFilename: LGQR - Omg.mp3
AudioLeadIn: 3000
PreviewTime: -1
Countdown: 1
SampleSet: Soft
StackLeniency: 0.7
Mode: 0
LetterboxInBreaks: 1
StoryFireInFront: 0

[Editor]
DistanceSpacing: 1
BeatDivisor: 4
GridSize: 8

[Metadata]
Title:OMG
Artist:LQGR
Creator:Ph0X
Version:COUNT
Source:
Tags:lgqromgsongohmygod

[Difficulty]
HPDrainRate:3
CircleSize:3
OverallDifficulty:6
SliderMultiplier:2.6
SliderTickRate:1

[Events]
//Background and Video events
Video,0,"o2.avi"
0,0,"The_Biting_Pear_of_Salamanca_by_ursulav.jpg"
//Break Periods
//Storyboard Layer 0 (Background)
//Storyboard Layer 1 (Fail)
//Storyboard Layer 2 (Pass)
//Storyboard Layer 3 (Foreground)
//Storyboard Sound Samples
//Background Colour Transformations
3,100,163,162,255

[TimingPoints]
3460,400.106695118698,4,2,0,70,1,0
6550,400.106695118698,4,2,0,70,1,0

[Colours]
Combo1 : 126,108,147
Combo2 : 41,158,203
Combo3 : 32,134,68
Combo4 : 173,73,71
Combo5 : 231,128,14

[HitObjects]
448,128,9755,1,0
160,224,9955,1,0
160,128,10155,1,0
80,192,10355,1,0
256,32,10556,1,0
160,32,10756,1,0
352,32,10956,1,0
160,320,11156,1,0
64,128,11356,1,0
64,224,11556,1,0
448,32,11756,1,0
448,320,11956,1,0
256,224,12156,1,0
64,320,12356,1,0
352,224,12556,1,0
64,32,12756,1,0
256,128,12956,5,0
352,128,13156,1,0
448,224,13356,1,0
256,320,13556,1,0
352,320,13756,1,0
64,224,13956,1,0
352,224,14157,1,0
160,224,14357,1,0
64,320,14557,1,0
256,320,14757,1,0
160,128,14957,1,0
352,320,15157,1,0
160,320,15357,1,0
256,224,15557,1,0
448,128,15757,1,0
352,128,15957,1,0
352,32,16157,5,0
64,32,16357,1,0
448,320,16557,1,0
256,32,16757,1,0
160,32,16957,1,0
448,224,17157,1,0
256,128,17357,1,0
64,128,17557,1,0
448,32,17757,1,0
448,32,17958,1,0
448,224,18158,1,0
64,224,18358,1,0
352,128,18558,1,0
160,320,18758,1,0
64,128,18958,1,0
256,320,19158,1,0
352,224,19358,5,0
64,320,19558,1,0
256,32,19758,1,0
160,128,19958,1,0
448,320,20158,1,0
64,32,20358,1,0
352,32,20558,1,0
256,224,20758,1,0
352,320,20958,1,0
256,128,21158,1,0
160,32,21358,1,0
160,224,21558,1,0
448,128,21759,5,0
352,224,21959,1,0
352,32,22159,1,0
256,32,22359,1,0
352,128,22559,1,0
448,32,22759,1,0
448,224,22959,1,0
448,128,23159,1,0
64,320,23359,1,0
160,32,23559,1,0
160,320,23759,1,0
160,128,23959,1,0
256,320,24159,1,0
64,32,24359,1,0
352,320,24559,1,0
256,224,24759,1,0
448,320,24959,1,0
256,128,25159,1,0
64,224,25359,1,0
64,128,25560,1,0
160,224,25760,5,0
352,32,25960,1,0
352,320,26160,1,0
160,128,26360,1,0
256,320,26560,1,0
160,224,26760,1,0
256,128,26960,1,0
64,320,27160,1,0
352,128,27360,1,0
160,32,27560,1,0
352,224,27760,1,0
160,320,27960,1,0
448,128,28160,1,0
448,32,28360,5,0
256,32,28560,1,0
64,224,28760,1,0
448,320,28960,1,0
64,32,29161,1,0
256,224,29361,1,0
64,128,29561,1,0
448,224,29761,1,0
448,224,29961,1,0
64,224,30161,1,0
160,32,30361,1,0
256,128,30561,1,0
256,32,30761,1,0
160,128,30961,1,0
448,320,31161,1,0
160,320,31361,1,0
352,320,31561,5,0
64,320,31761,1,0
352,224,31961,1,0
448,32,32161,1,0
256,320,32361,1,0
256,224,32561,1,0
64,128,32761,1,0
160,224,32962,1,0
352,32,33162,1,0
64,32,33362,1,0
448,128,33562,1,0
352,128,33762,1,0
160,320,33962,1,0
160,32,34162,1,0
448,32,34362,1,0
448,224,34562,1,0
352,224,34762,5,0
448,128,34962,1,0
256,320,35162,1,0
64,128,35362,1,0
256,128,35562,1,0
64,320,35762,1,0
64,32,35962,1,0
160,224,36162,1,0
256,224,36362,1,0
352,320,36562,1,0
64,224,36763,1,0
256,32,36963,1,0
448,320,37163,1,0
352,32,37363,1,0
352,128,37563,1,0
160,128,37763,1,0
352,224,37964,1,0
64,32,38165,1,0
352,32,38366,1,0
64,320,38567,1,0
64,128,38768,5,0
352,128,38969,1,0
352,312,39158,1,0
448,224,39371,1,0
160,224,39558,1,0
448,128,39773,1,0
256,128,39974,1,0
256,32,40175,1,0
160,32,40376,1,0
160,128,40577,1,0
64,224,40778,1,0
160,320,40979,1,0
