osu file format v13

[General]
AudioFilename: LGQR - Omg.mp3
AudioLeadIn: 3000
PreviewTime: -1
Countdown: 0
SampleSet: None
StackLeniency: 0.7
Mode: 2
LetterboxInBreaks: 1
WidescreenStoryboard: 1

[Editor]
Bookmarks: 8182,18985
DistanceSpacing: 1.3
BeatDivisor: 1
GridSize: 32
TimelineZoom: 1

[Metadata]
Title:OMG
TitleUnicode:OMG
Artist:LQGR
ArtistUnicode:LQGR
Creator:ExGon
Version:CLSWTFRUIT & EXOMG
Source:
Tags:lqgr omg song oh my god
BeatmapID:574333
BeatmapSetID:249859

[Difficulty]
HPDrainRate:1
CircleSize:4
OverallDifficulty:9
ApproachRate:9
SliderMultiplier:2.3
SliderTickRate:1

[Events]
//Background and Video events
0,0,"The_Biting_Pear_of_Salamanca_by_ursulav.jpg",0,0
//Break Periods
2,15250,17716
//Storyboard Layer 0 (Background)
//Storyboard Layer 1 (Fail)
//Storyboard Layer 2 (Pass)
//Storyboard Layer 3 (Foreground)
//Storyboard Sound Samples

[TimingPoints]
3381,400.106695118698,4,2,0,70,1,0
10849,66.6666666666667,4,2,0,70,1,0
10982,400.106695118698,4,2,0,70,1,0
12983,66.6666666666667,4,2,0,70,1,0
18374,-50,4,2,0,70,0,0
20983,100,4,2,0,70,1,0
28277,-100,4,2,0,70,0,0
50783,6.66666666666667,4,2,0,70,1,0

[Colours]
Combo1 : 234,234,21
Combo2 : 226,158,18
Combo3 : 150,95,136
Combo4 : 197,71,71

[HitObjects]
352,32,3380,6,0,B|496:32|496:32|32:48|32:48|496:48|496:48|32:64|32:64|496:64|496:64|32:80|32:80|496:80|496:80|32:96|32:96|496:96|496:96|32:112|32:112|496:112|496:112|32:128|32:128|304:128,1,5520
288,32,3380,2,0,B|496:32|496:32|32:48|32:48|496:48|496:48|32:64|32:64|496:64|496:64|32:80|32:80|496:80|496:80|32:96|32:96|496:96|496:96|32:112|32:112|496:112|496:112|32:128|32:128|288:128,1,5520
224,32,3380,2,0,B|496:32|496:32|32:48|32:48|496:48|496:48|32:64|32:64|496:64|496:64|32:80|32:80|496:80|496:80|32:96|32:96|496:96|496:96|32:112|32:112|496:112|496:112|32:128|32:128|208:128,1,5520
160,32,3380,2,0,B|496:32|496:32|32:48|32:48|496:48|496:48|32:64|32:64|496:64|496:64|32:80|32:80|496:80|496:80|32:96|32:96|496:96|496:96|32:112|32:112|496:112|496:112|32:128|32:128|144:128,1,5520
32,32,3380,2,0,B|496:32|496:32|32:48|32:48|496:48|496:48|32:64|32:64|496:64|496:64|32:80|32:80|496:80|496:80|32:96|32:96|496:96|496:96|32:112|32:112|496:112|496:112|80:128,1,5520
96,32,3380,2,0,B|496:32|496:32|32:48|32:48|496:48|496:48|32:64|32:64|496:64|496:64|32:80|32:80|496:80|496:80|32:96|32:96|496:96|496:96|32:112|32:112|496:112|496:112|16:128,1,5520
416,32,3380,2,0,B|496:32|496:32|32:48|32:48|496:48|496:48|32:64|32:64|496:64|496:64|32:80|32:80|496:80|496:80|32:96|32:96|496:96|496:96|32:112|32:112|496:112|496:112|32:128|32:128|368:128,1,5520
416,32,3380,2,0,B|496:32|496:32|32:48|32:48|496:48|496:48|32:64|32:64|496:64|496:64|32:80|32:80|496:80|496:80|32:96|32:96|496:96|496:96|32:112|32:112|496:112|496:112|32:128|32:128|416:128,1,5520
480,32,3380,2,0,B|32:48|32:48|480:48|480:48|32:64|32:64|496:64|496:64|32:80|32:80|496:80|496:80|32:96|32:96|496:96|496:96|32:112|32:112|496:112|496:112|32:128|32:128|512:128,1,5520
160,192,3481,5,0,0:0:0:0:
176,224,3581,5,0,0:0:0:0:
192,256,3681,5,0,0:0:0:0:
208,288,3781,5,0,0:0:0:0:
224,320,3881,5,0,0:0:0:0:
240,352,3981,5,0,0:0:0:0:
256,320,4081,5,0,0:0:0:0:
272,176,4181,5,0,0:0:0:0:
288,208,4281,5,0,0:0:0:0:
304,240,4381,5,0,0:0:0:0:
320,272,4481,5,0,0:0:0:0:
336,304,4581,5,0,0:0:0:0:
352,336,4681,5,0,0:0:0:0:
368,304,4781,5,0,0:0:0:0:
384,272,4881,5,0,0:0:0:0:
400,176,4981,5,0,0:0:0:0:
416,208,5081,5,0,0:0:0:0:
432,240,5181,5,0,0:0:0:0:
448,272,5281,5,0,0:0:0:0:
464,304,5381,5,0,0:0:0:0:
480,336,5481,5,0,0:0:0:0:
496,304,5581,5,0,0:0:0:0:
480,272,5681,5,0,0:0:0:0:
464,176,5782,5,0,0:0:0:0:
448,208,5882,5,0,0:0:0:0:
432,240,5982,5,0,0:0:0:0:
416,272,6082,5,0,0:0:0:0:
400,304,6182,5,0,0:0:0:0:
384,336,6282,5,0,0:0:0:0:
368,304,6382,5,0,0:0:0:0:
352,272,6482,5,0,0:0:0:0:
336,192,6582,5,0,0:0:0:0:
320,224,6682,5,0,0:0:0:0:
304,256,6782,5,0,0:0:0:0:
288,288,6882,5,0,0:0:0:0:
272,320,6982,5,0,0:0:0:0:
256,352,7082,5,0,0:0:0:0:
240,320,7182,5,0,0:0:0:0:
224,288,7282,5,0,0:0:0:0:
208,208,7382,5,0,0:0:0:0:
192,240,7482,5,0,0:0:0:0:
176,272,7582,5,0,0:0:0:0:
160,304,7682,5,0,0:0:0:0:
144,336,7782,5,0,0:0:0:0:
128,368,7882,5,0,0:0:0:0:
112,336,7982,5,0,0:0:0:0:
96,304,8082,5,0,0:0:0:0:
80,272,8182,5,0,0:0:0:0:
64,240,8282,5,0,0:0:0:0:
48,208,8382,5,0,0:0:0:0:
32,176,8482,5,0,0:0:0:0:
48,144,8582,5,0,0:0:0:0:
64,176,8682,5,0,0:0:0:0:
80,208,8782,5,0,0:0:0:0:
96,240,8882,5,0,0:0:0:0:
112,272,8982,5,0,0:0:0:0:
128,304,9082,5,0,0:0:0:0:
144,272,9182,5,0,0:0:0:0:
160,240,9282,5,0,0:0:0:0:
176,192,9383,5,0,0:0:0:0:
192,224,9483,5,0,0:0:0:0:
208,256,9583,5,0,0:0:0:0:
224,288,9683,5,0,0:0:0:0:
240,320,9783,5,0,0:0:0:0:
256,352,9883,5,0,0:0:0:0:
272,320,9983,5,0,0:0:0:0:
288,288,10083,5,0,0:0:0:0:
304,192,10183,5,0,0:0:0:0:
320,224,10283,5,0,0:0:0:0:
336,256,10383,5,0,0:0:0:0:
352,288,10483,5,0,0:0:0:0:
368,320,10583,5,0,0:0:0:0:
384,352,10683,5,0,0:0:0:0:
400,320,10783,5,0,0:0:0:0:
416,288,10883,5,0,0:0:0:0:
80,208,10983,5,0,0:0:0:0:
96,240,11083,5,0,0:0:0:0:
112,272,11183,5,0,0:0:0:0:
128,304,11283,5,0,0:0:0:0:
144,272,11383,5,0,0:0:0:0:
160,240,11483,5,0,0:0:0:0:
176,192,11584,5,0,0:0:0:0:
192,224,11684,5,0,0:0:0:0:
208,256,11784,5,0,0:0:0:0:
224,288,11884,5,0,0:0:0:0:
240,320,11984,5,0,0:0:0:0:
368,80,12084,5,0,0:0:0:0:
272,320,12184,5,0,0:0:0:0:
288,288,12284,5,0,0:0:0:0:
304,192,12384,5,0,0:0:0:0:
320,224,12484,5,0,0:0:0:0:
336,256,12584,5,0,0:0:0:0:
352,288,12632,5,0,0:0:0:0:
352,288,12684,5,0,0:0:0:0:
368,320,12732,5,0,0:0:0:0:
368,320,12784,5,0,0:0:0:0:
384,352,12832,5,0,0:0:0:0:
384,352,12884,5,0,0:0:0:0:
400,320,12932,1,0,0:0:0:0:
400,320,12984,5,0,0:0:0:0:
368,256,12999,1,0,0:0:0:0:
288,256,13016,1,0,0:0:0:0:
208,256,13033,1,0,0:0:0:0:
480,112,13183,1,0,0:0:0:0:
352,32,13183,2,0,B|496:32|496:32|32:48|32:48|496:48|496:48|32:64|32:64|496:64|496:64|32:80|32:80|496:80|496:80|32:96|32:96|496:96|496:96|32:112|32:112|496:112|496:112|32:128|32:128|304:128,1,5520
32,112,13249,1,0,0:0:0:0:
480,112,13249,1,0,0:0:0:0:
32,112,13316,1,0,0:0:0:0:
480,112,13316,1,0,0:0:0:0:
32,112,13383,1,0,0:0:0:0:
480,112,13383,1,0,0:0:0:0:
32,112,13450,1,0,0:0:0:0:
480,112,13450,1,0,0:0:0:0:
32,112,13516,1,0,0:0:0:0:
480,112,13516,1,0,0:0:0:0:
32,112,13583,1,0,0:0:0:0:
480,112,13583,1,0,0:0:0:0:
32,112,13650,1,0,0:0:0:0:
480,112,13650,1,0,0:0:0:0:
32,112,13716,1,0,0:0:0:0:
480,112,13716,1,0,0:0:0:0:
32,112,13782,1,0,0:0:0:0:
480,112,13782,1,0,0:0:0:0:
32,112,13849,1,0,0:0:0:0:
480,112,13849,1,0,0:0:0:0:
32,112,13916,1,0,0:0:0:0:
480,112,13916,1,0,0:0:0:0:
32,112,13983,1,0,0:0:0:0:
480,112,13983,1,0,0:0:0:0:
32,112,14049,1,0,0:0:0:0:
480,112,14049,1,0,0:0:0:0:
32,112,14116,1,0,0:0:0:0:
480,112,14116,1,0,0:0:0:0:
32,112,14183,1,0,0:0:0:0:
480,112,14183,1,0,0:0:0:0:
32,112,14249,1,0,0:0:0:0:
480,112,14249,1,0,0:0:0:0:
32,112,14315,1,0,0:0:0:0:
480,112,14315,1,0,0:0:0:0:
32,112,14382,1,0,0:0:0:0:
480,112,14382,1,0,0:0:0:0:
32,112,14449,1,0,0:0:0:0:
480,112,14449,1,0,0:0:0:0:
32,112,14516,1,0,0:0:0:0:
480,112,14516,1,0,0:0:0:0:
32,112,14582,1,0,0:0:0:0:
480,112,14582,1,0,0:0:0:0:
32,112,14649,1,0,0:0:0:0:
480,112,14649,1,0,0:0:0:0:
32,112,14716,1,0,0:0:0:0:
480,112,14716,1,0,0:0:0:0:
32,112,14783,1,0,0:0:0:0:
480,112,14783,1,0,0:0:0:0:
32,112,14849,1,0,0:0:0:0:
480,112,14849,1,0,0:0:0:0:
96,80,14849,2,0,B|336:80|336:80|144:80|144:80|288:80|288:80|208:96|208:96|304:96|304:96|240:112|240:112|288:112|288:112|240:128|240:128|336:128|336:128|304:128,1,920
480,112,14916,1,0,0:0:0:0:
32,112,14916,1,0,0:0:0:0:
480,112,14983,1,0,0:0:0:0:
32,112,14983,1,0,0:0:0:0:
32,112,15050,1,0,0:0:0:0:
480,112,15050,1,0,0:0:0:0:
256,128,18316,5,0,0:0:0:0:
144,128,18324,1,0,0:0:0:0:
368,128,18341,1,0,0:0:0:0:
256,192,18583,12,0,20116,0:0:0:0:
37,161,20449,5,0,0:0:0:0:
373,157,20466,1,0,0:0:0:0:
146,158,20474,1,0,0:0:0:0:
482,157,20483,1,0,0:0:0:0:
259,47,20566,2,0,L|252:245,17,115
32,160,20983,5,0,0:0:0:0:
32,160,20983,1,0,0:0:0:0:
32,160,20983,1,0,0:0:0:0:
32,160,20983,1,0,0:0:0:0:
32,160,20983,1,0,0:0:0:0:
32,160,20983,1,0,0:0:0:0:
32,160,20983,1,0,0:0:0:0:
32,160,20983,1,0,0:0:0:0:
32,160,20983,1,0,0:0:0:0:
32,160,20983,1,0,0:0:0:0:
32,160,20983,1,0,0:0:0:0:
32,160,20983,1,0,0:0:0:0:
32,160,20983,1,0,0:0:0:0:
32,160,20983,1,0,0:0:0:0:
32,160,20983,1,0,0:0:0:0:
32,112,21005,5,0,0:0:0:0:
480,112,21083,1,0,0:0:0:0:
32,80,21183,1,0,0:0:0:0:
480,160,21283,5,0,0:0:0:0:
480,160,21283,1,0,0:0:0:0:
480,160,21283,1,0,0:0:0:0:
480,160,21283,1,0,0:0:0:0:
480,160,21283,1,0,0:0:0:0:
480,160,21283,1,0,0:0:0:0:
480,160,21283,1,0,0:0:0:0:
480,160,21283,1,0,0:0:0:0:
480,160,21283,1,0,0:0:0:0:
480,160,21283,1,0,0:0:0:0:
480,160,21283,1,0,0:0:0:0:
480,160,21283,1,0,0:0:0:0:
480,160,21283,1,0,0:0:0:0:
480,160,21283,1,0,0:0:0:0:
480,160,21283,1,0,0:0:0:0:
480,112,21305,1,0,0:0:0:0:
32,48,21383,1,0,0:0:0:0:
480,64,21483,5,0,0:0:0:0:
32,160,21583,1,0,0:0:0:0:
32,160,21583,1,0,0:0:0:0:
32,160,21583,1,0,0:0:0:0:
32,160,21583,1,0,0:0:0:0:
32,160,21583,1,0,0:0:0:0:
32,160,21583,1,0,0:0:0:0:
32,160,21583,1,0,0:0:0:0:
32,160,21583,1,0,0:0:0:0:
32,160,21583,1,0,0:0:0:0:
32,160,21583,1,0,0:0:0:0:
32,160,21583,1,0,0:0:0:0:
32,160,21583,1,0,0:0:0:0:
32,160,21583,1,0,0:0:0:0:
32,160,21583,1,0,0:0:0:0:
32,160,21583,1,0,0:0:0:0:
32,112,21605,5,0,0:0:0:0:
480,32,21683,1,0,0:0:0:0:
32,192,21783,1,0,0:0:0:0:
480,160,21883,5,0,0:0:0:0:
480,160,21883,1,0,0:0:0:0:
480,160,21883,1,0,0:0:0:0:
480,160,21883,1,0,0:0:0:0:
480,160,21883,1,0,0:0:0:0:
480,160,21883,1,0,0:0:0:0:
480,160,21883,1,0,0:0:0:0:
480,160,21883,1,0,0:0:0:0:
480,160,21883,1,0,0:0:0:0:
480,160,21883,1,0,0:0:0:0:
480,160,21883,1,0,0:0:0:0:
480,160,21883,1,0,0:0:0:0:
480,160,21883,1,0,0:0:0:0:
480,160,21883,1,0,0:0:0:0:
480,160,21883,1,0,0:0:0:0:
480,112,21905,1,0,0:0:0:0:
32,224,21983,1,0,0:0:0:0:
480,208,22083,5,0,0:0:0:0:
32,160,22183,1,0,0:0:0:0:
32,160,22183,1,0,0:0:0:0:
32,160,22183,1,0,0:0:0:0:
32,160,22183,1,0,0:0:0:0:
32,160,22183,1,0,0:0:0:0:
32,160,22183,1,0,0:0:0:0:
32,160,22183,1,0,0:0:0:0:
32,160,22183,1,0,0:0:0:0:
32,160,22183,1,0,0:0:0:0:
32,160,22183,1,0,0:0:0:0:
32,160,22183,1,0,0:0:0:0:
32,160,22183,1,0,0:0:0:0:
32,160,22183,1,0,0:0:0:0:
32,160,22183,1,0,0:0:0:0:
32,160,22183,1,0,0:0:0:0:
32,112,22205,5,0,0:0:0:0:
480,240,22283,1,0,0:0:0:0:
32,256,22383,1,0,0:0:0:0:
480,160,22483,5,0,0:0:0:0:
480,160,22483,1,0,0:0:0:0:
480,160,22483,1,0,0:0:0:0:
480,160,22483,1,0,0:0:0:0:
480,160,22483,1,0,0:0:0:0:
480,160,22483,1,0,0:0:0:0:
480,160,22483,1,0,0:0:0:0:
480,160,22483,1,0,0:0:0:0:
480,160,22483,1,0,0:0:0:0:
480,160,22483,1,0,0:0:0:0:
480,160,22483,1,0,0:0:0:0:
480,160,22483,1,0,0:0:0:0:
480,160,22483,1,0,0:0:0:0:
480,160,22483,1,0,0:0:0:0:
480,160,22483,1,0,0:0:0:0:
480,112,22505,1,0,0:0:0:0:
32,160,22583,1,0,0:0:0:0:
32,160,22583,1,0,0:0:0:0:
32,160,22583,1,0,0:0:0:0:
32,160,22583,1,0,0:0:0:0:
32,160,22583,1,0,0:0:0:0:
32,160,22583,1,0,0:0:0:0:
32,160,22583,1,0,0:0:0:0:
32,160,22583,1,0,0:0:0:0:
32,160,22583,1,0,0:0:0:0:
32,160,22583,1,0,0:0:0:0:
32,160,22583,1,0,0:0:0:0:
32,160,22583,1,0,0:0:0:0:
32,160,22583,1,0,0:0:0:0:
32,160,22583,1,0,0:0:0:0:
32,160,22583,1,0,0:0:0:0:
32,112,22605,5,0,0:0:0:0:
480,112,22683,1,0,0:0:0:0:
32,80,22783,1,0,0:0:0:0:
480,160,22883,5,0,0:0:0:0:
480,160,22883,1,0,0:0:0:0:
480,160,22883,1,0,0:0:0:0:
480,160,22883,1,0,0:0:0:0:
480,160,22883,1,0,0:0:0:0:
480,160,22883,1,0,0:0:0:0:
480,160,22883,1,0,0:0:0:0:
480,160,22883,1,0,0:0:0:0:
480,160,22883,1,0,0:0:0:0:
480,160,22883,1,0,0:0:0:0:
480,160,22883,1,0,0:0:0:0:
480,160,22883,1,0,0:0:0:0:
480,160,22883,1,0,0:0:0:0:
480,160,22883,1,0,0:0:0:0:
480,160,22883,1,0,0:0:0:0:
480,112,22905,1,0,0:0:0:0:
32,48,22983,1,0,0:0:0:0:
480,64,23083,5,0,0:0:0:0:
32,160,23183,1,0,0:0:0:0:
32,160,23183,1,0,0:0:0:0:
32,160,23183,1,0,0:0:0:0:
32,160,23183,1,0,0:0:0:0:
32,160,23183,1,0,0:0:0:0:
32,160,23183,1,0,0:0:0:0:
32,160,23183,1,0,0:0:0:0:
32,160,23183,1,0,0:0:0:0:
32,160,23183,1,0,0:0:0:0:
32,160,23183,1,0,0:0:0:0:
32,160,23183,1,0,0:0:0:0:
32,160,23183,1,0,0:0:0:0:
32,160,23183,1,0,0:0:0:0:
32,160,23183,1,0,0:0:0:0:
32,160,23183,1,0,0:0:0:0:
32,112,23205,5,0,0:0:0:0:
480,32,23283,1,0,0:0:0:0:
32,192,23383,1,0,0:0:0:0:
480,160,23483,5,0,0:0:0:0:
480,160,23483,1,0,0:0:0:0:
480,160,23483,1,0,0:0:0:0:
480,160,23483,1,0,0:0:0:0:
480,160,23483,1,0,0:0:0:0:
480,160,23483,1,0,0:0:0:0:
480,160,23483,1,0,0:0:0:0:
480,160,23483,1,0,0:0:0:0:
480,160,23483,1,0,0:0:0:0:
480,160,23483,1,0,0:0:0:0:
480,160,23483,1,0,0:0:0:0:
480,160,23483,1,0,0:0:0:0:
480,160,23483,1,0,0:0:0:0:
480,160,23483,1,0,0:0:0:0:
480,160,23483,1,0,0:0:0:0:
480,112,23505,1,0,0:0:0:0:
32,224,23583,1,0,0:0:0:0:
480,208,23683,5,0,0:0:0:0:
32,160,23783,1,0,0:0:0:0:
32,160,23783,1,0,0:0:0:0:
32,160,23783,1,0,0:0:0:0:
32,160,23783,1,0,0:0:0:0:
32,160,23783,1,0,0:0:0:0:
32,160,23783,1,0,0:0:0:0:
32,160,23783,1,0,0:0:0:0:
32,160,23783,1,0,0:0:0:0:
32,160,23783,1,0,0:0:0:0:
32,160,23783,1,0,0:0:0:0:
32,160,23783,1,0,0:0:0:0:
32,160,23783,1,0,0:0:0:0:
32,160,23783,1,0,0:0:0:0:
32,160,23783,1,0,0:0:0:0:
32,160,23783,1,0,0:0:0:0:
32,112,23805,5,0,0:0:0:0:
480,240,23883,1,0,0:0:0:0:
32,256,23983,1,0,0:0:0:0:
480,160,24083,5,0,0:0:0:0:
480,160,24083,1,0,0:0:0:0:
480,160,24083,1,0,0:0:0:0:
480,160,24083,1,0,0:0:0:0:
480,160,24083,1,0,0:0:0:0:
480,160,24083,1,0,0:0:0:0:
480,160,24083,1,0,0:0:0:0:
480,160,24083,1,0,0:0:0:0:
480,160,24083,1,0,0:0:0:0:
480,160,24083,1,0,0:0:0:0:
480,160,24083,1,0,0:0:0:0:
480,160,24083,1,0,0:0:0:0:
480,160,24083,1,0,0:0:0:0:
480,160,24083,1,0,0:0:0:0:
480,160,24083,1,0,0:0:0:0:
480,112,24105,1,0,0:0:0:0:
480,208,24183,1,0,0:0:0:0:
32,160,24283,5,0,0:0:0:0:
32,160,24283,1,0,0:0:0:0:
32,160,24283,1,0,0:0:0:0:
32,160,24283,1,0,0:0:0:0:
32,160,24283,1,0,0:0:0:0:
32,160,24283,1,0,0:0:0:0:
32,160,24283,1,0,0:0:0:0:
32,160,24283,1,0,0:0:0:0:
32,160,24283,1,0,0:0:0:0:
32,160,24283,1,0,0:0:0:0:
32,160,24283,1,0,0:0:0:0:
32,160,24283,1,0,0:0:0:0:
32,160,24283,1,0,0:0:0:0:
32,160,24283,1,0,0:0:0:0:
32,160,24283,1,0,0:0:0:0:
32,112,24305,1,0,0:0:0:0:
480,240,24383,1,0,0:0:0:0:
32,256,24483,1,0,0:0:0:0:
480,160,24583,1,0,0:0:0:0:
480,160,24583,1,0,0:0:0:0:
480,160,24583,1,0,0:0:0:0:
480,160,24583,1,0,0:0:0:0:
480,160,24583,1,0,0:0:0:0:
480,160,24583,1,0,0:0:0:0:
480,160,24583,1,0,0:0:0:0:
480,160,24583,1,0,0:0:0:0:
480,160,24583,1,0,0:0:0:0:
480,160,24583,1,0,0:0:0:0:
480,160,24583,1,0,0:0:0:0:
480,160,24583,1,0,0:0:0:0:
480,160,24583,1,0,0:0:0:0:
480,160,24583,1,0,0:0:0:0:
480,160,24583,1,0,0:0:0:0:
480,112,24605,5,0,0:0:0:0:
368,128,24783,6,0,L|128:128,3,230
144,176,25183,6,0,L|32:384,1,230
368,176,25383,6,0,L|480:384,1,230
144,176,25583,6,0,L|32:384,1,230
368,176,25783,6,0,L|480:384,1,230
144,176,25983,6,0,L|32:384,1,230
368,176,26183,6,0,L|480:384,1,230
144,176,26383,6,0,L|32:384,1,230
368,176,26583,6,0,L|480:384,1,230
144,128,26783,6,0,L|384:128,13,230
32,160,28361,5,0,0:0:0:0:
32,160,28361,5,0,0:0:0:0:
32,160,28361,5,0,0:0:0:0:
32,160,28361,5,0,0:0:0:0:
32,160,28361,5,0,0:0:0:0:
32,160,28361,5,0,0:0:0:0:
32,160,28361,5,0,0:0:0:0:
32,160,28361,5,0,0:0:0:0:
32,160,28361,5,0,0:0:0:0:
32,160,28361,5,0,0:0:0:0:
32,160,28361,5,0,0:0:0:0:
32,160,28361,5,0,0:0:0:0:
32,160,28361,5,0,0:0:0:0:
32,160,28361,5,0,0:0:0:0:
32,160,28361,5,0,0:0:0:0:
32,112,28383,5,0,0:0:0:0:
480,80,28483,1,0,0:0:0:0:
32,64,28583,5,0,0:0:0:0:
480,64,28683,1,0,0:0:0:0:
480,160,28761,5,0,0:0:0:0:
480,160,28761,5,0,0:0:0:0:
480,160,28761,5,0,0:0:0:0:
480,160,28761,5,0,0:0:0:0:
480,160,28761,5,0,0:0:0:0:
480,160,28761,5,0,0:0:0:0:
480,160,28761,5,0,0:0:0:0:
480,160,28761,5,0,0:0:0:0:
480,160,28761,5,0,0:0:0:0:
480,160,28761,5,0,0:0:0:0:
480,160,28761,5,0,0:0:0:0:
480,160,28761,5,0,0:0:0:0:
480,160,28761,5,0,0:0:0:0:
480,160,28761,5,0,0:0:0:0:
480,160,28761,5,0,0:0:0:0:
480,112,28783,5,0,0:0:0:0:
32,64,28883,1,0,0:0:0:0:
480,80,28983,5,0,0:0:0:0:
32,64,29083,1,0,0:0:0:0:
480,112,29183,5,0,0:0:0:0:
480,112,29183,5,0,0:0:0:0:
480,112,29183,5,0,0:0:0:0:
480,112,29183,5,0,0:0:0:0:
480,112,29183,5,0,0:0:0:0:
480,112,29183,5,0,0:0:0:0:
480,112,29183,5,0,0:0:0:0:
480,112,29183,5,0,0:0:0:0:
480,112,29183,5,0,0:0:0:0:
480,112,29183,5,0,0:0:0:0:
480,112,29183,5,0,0:0:0:0:
480,112,29183,5,0,0:0:0:0:
480,112,29183,5,0,0:0:0:0:
480,112,29183,5,0,0:0:0:0:
480,112,29183,5,0,0:0:0:0:
480,64,29205,5,0,0:0:0:0:
32,32,29283,1,0,0:0:0:0:
480,32,29383,5,0,0:0:0:0:
32,32,29483,1,0,0:0:0:0:
32,160,29583,5,0,0:0:0:0:
32,160,29583,5,0,0:0:0:0:
32,160,29583,5,0,0:0:0:0:
32,160,29583,5,0,0:0:0:0:
32,160,29583,5,0,0:0:0:0:
32,160,29583,5,0,0:0:0:0:
32,160,29583,5,0,0:0:0:0:
32,160,29583,5,0,0:0:0:0:
32,160,29583,5,0,0:0:0:0:
32,160,29583,5,0,0:0:0:0:
32,160,29583,5,0,0:0:0:0:
32,160,29583,5,0,0:0:0:0:
32,160,29583,5,0,0:0:0:0:
32,160,29583,5,0,0:0:0:0:
32,160,29583,5,0,0:0:0:0:
32,112,29605,5,0,0:0:0:0:
480,80,29683,1,0,0:0:0:0:
32,64,29783,5,0,0:0:0:0:
480,80,29883,5,0,0:0:0:0:
480,160,29983,5,0,0:0:0:0:
480,160,29983,5,0,0:0:0:0:
480,160,29983,5,0,0:0:0:0:
480,160,29983,5,0,0:0:0:0:
480,160,29983,5,0,0:0:0:0:
480,160,29983,5,0,0:0:0:0:
480,160,29983,5,0,0:0:0:0:
480,160,29983,5,0,0:0:0:0:
480,160,29983,5,0,0:0:0:0:
480,160,29983,5,0,0:0:0:0:
480,160,29983,5,0,0:0:0:0:
480,160,29983,5,0,0:0:0:0:
480,160,29983,5,0,0:0:0:0:
480,160,29983,5,0,0:0:0:0:
480,160,29983,5,0,0:0:0:0:
480,112,30005,5,0,0:0:0:0:
256,144,30083,1,0,0:0:0:0:
256,144,30183,1,0,0:0:0:0:
256,144,30283,5,0,0:0:0:0:
32,160,30383,1,0,0:0:0:0:
32,160,30383,1,0,0:0:0:0:
32,160,30383,1,0,0:0:0:0:
32,160,30383,1,0,0:0:0:0:
32,160,30383,1,0,0:0:0:0:
32,160,30383,1,0,0:0:0:0:
32,160,30383,1,0,0:0:0:0:
32,160,30383,1,0,0:0:0:0:
32,160,30383,1,0,0:0:0:0:
32,160,30383,1,0,0:0:0:0:
32,160,30383,1,0,0:0:0:0:
32,160,30383,1,0,0:0:0:0:
32,160,30383,1,0,0:0:0:0:
32,160,30383,1,0,0:0:0:0:
32,160,30383,1,0,0:0:0:0:
32,112,30405,5,0,0:0:0:0:
336,192,30783,5,8,0:0:0:0:
336,192,30783,1,8,0:0:0:0:
336,192,30783,1,8,0:0:0:0:
336,192,30783,1,8,0:0:0:0:
336,192,30783,1,8,0:0:0:0:
336,192,30783,1,8,0:0:0:0:
336,192,30783,1,8,0:0:0:0:
176,192,30783,1,8,0:0:0:0:
176,192,30783,1,8,0:0:0:0:
336,192,30783,1,8,0:0:0:0:
336,192,30783,1,8,0:0:0:0:
336,192,30783,1,8,0:0:0:0:
336,192,30783,1,8,0:0:0:0:
336,192,30783,1,8,0:0:0:0:
176,192,30783,1,8,0:0:0:0:
336,192,30783,1,8,0:0:0:0:
176,192,30783,1,8,0:0:0:0:
176,192,30783,1,8,0:0:0:0:
336,192,30783,1,8,0:0:0:0:
336,192,30783,1,8,0:0:0:0:
336,192,30783,1,8,0:0:0:0:
176,192,30783,1,8,0:0:0:0:
336,192,30783,1,8,0:0:0:0:
336,192,30783,1,8,0:0:0:0:
336,192,30783,1,8,0:0:0:0:
336,192,30783,1,8,0:0:0:0:
336,192,30783,1,8,0:0:0:0:
176,192,30783,1,8,0:0:0:0:
336,192,30783,1,8,0:0:0:0:
176,192,30783,1,8,0:0:0:0:
336,192,30783,1,8,0:0:0:0:
336,192,30783,1,8,0:0:0:0:
336,192,30783,1,8,0:0:0:0:
336,192,30783,1,8,0:0:0:0:
336,192,30783,1,8,0:0:0:0:
176,192,30783,1,8,0:0:0:0:
336,192,30783,1,8,0:0:0:0:
176,192,30783,1,8,0:0:0:0:
336,192,30783,1,8,0:0:0:0:
336,192,30783,1,8,0:0:0:0:
336,192,30983,1,8,0:0:0:0:
336,192,30983,1,8,0:0:0:0:
176,192,30983,1,8,0:0:0:0:
176,192,30983,1,8,0:0:0:0:
336,192,30983,1,8,0:0:0:0:
176,192,30983,1,8,0:0:0:0:
336,192,30983,1,8,0:0:0:0:
336,192,30983,1,8,0:0:0:0:
336,192,30983,1,8,0:0:0:0:
336,192,30983,1,8,0:0:0:0:
336,192,30983,1,8,0:0:0:0:
176,192,30983,1,8,0:0:0:0:
176,192,30983,1,8,0:0:0:0:
336,192,30983,1,8,0:0:0:0:
336,192,30983,1,8,0:0:0:0:
336,192,30983,1,8,0:0:0:0:
336,192,30983,1,8,0:0:0:0:
336,192,30983,1,8,0:0:0:0:
336,192,30983,1,8,0:0:0:0:
336,192,30983,1,8,0:0:0:0:
336,192,30983,1,8,0:0:0:0:
336,192,30983,1,8,0:0:0:0:
176,192,30983,1,8,0:0:0:0:
336,192,30983,1,8,0:0:0:0:
176,192,30983,1,8,0:0:0:0:
336,192,30983,1,8,0:0:0:0:
336,192,30983,1,8,0:0:0:0:
336,192,30983,1,8,0:0:0:0:
336,192,30983,1,8,0:0:0:0:
336,192,30983,1,8,0:0:0:0:
176,192,30983,1,8,0:0:0:0:
336,192,30983,1,8,0:0:0:0:
176,192,30983,1,8,0:0:0:0:
336,192,30983,1,8,0:0:0:0:
336,192,30983,1,8,0:0:0:0:
336,192,30983,1,8,0:0:0:0:
336,192,30983,1,8,0:0:0:0:
336,192,30983,1,8,0:0:0:0:
176,192,30983,1,8,0:0:0:0:
336,192,30983,1,8,0:0:0:0:
336,192,31183,5,8,0:0:0:0:
336,192,31183,1,8,0:0:0:0:
336,192,31183,1,8,0:0:0:0:
336,192,31183,1,8,0:0:0:0:
336,192,31183,1,8,0:0:0:0:
336,192,31183,1,8,0:0:0:0:
336,192,31183,1,8,0:0:0:0:
176,192,31183,1,8,0:0:0:0:
176,192,31183,1,8,0:0:0:0:
336,192,31183,1,8,0:0:0:0:
336,192,31183,1,8,0:0:0:0:
336,192,31183,1,8,0:0:0:0:
336,192,31183,1,8,0:0:0:0:
336,192,31183,1,8,0:0:0:0:
176,192,31183,1,8,0:0:0:0:
336,192,31183,1,8,0:0:0:0:
176,192,31183,1,8,0:0:0:0:
176,192,31183,1,8,0:0:0:0:
336,192,31183,1,8,0:0:0:0:
336,192,31183,1,8,0:0:0:0:
336,192,31183,1,8,0:0:0:0:
176,192,31183,1,8,0:0:0:0:
336,192,31183,1,8,0:0:0:0:
336,192,31183,1,8,0:0:0:0:
336,192,31183,1,8,0:0:0:0:
336,192,31183,1,8,0:0:0:0:
336,192,31183,1,8,0:0:0:0:
176,192,31183,1,8,0:0:0:0:
336,192,31183,1,8,0:0:0:0:
176,192,31183,1,8,0:0:0:0:
336,192,31183,1,8,0:0:0:0:
336,192,31183,1,8,0:0:0:0:
336,192,31183,1,8,0:0:0:0:
336,192,31183,1,8,0:0:0:0:
336,192,31183,1,8,0:0:0:0:
176,192,31183,1,8,0:0:0:0:
336,192,31183,1,8,0:0:0:0:
176,192,31183,1,8,0:0:0:0:
336,192,31183,1,8,0:0:0:0:
336,192,31183,1,8,0:0:0:0:
256,192,31483,12,0,31683,0:0:0:0:
128,64,31583,5,0,0:0:0:0:
128,64,31583,1,0,0:0:0:0:
256,192,31683,12,0,31883,0:0:0:0:
512,224,31783,5,0,0:0:0:0:
512,224,31783,1,0,0:0:0:0:
256,192,31883,12,0,32083,0:0:0:0:
0,128,31983,5,0,0:0:0:0:
0,128,31983,1,0,0:0:0:0:
256,192,32083,12,0,32283,0:0:0:0:
512,224,32183,5,0,0:0:0:0:
0,128,32183,1,0,0:0:0:0:
256,192,32283,12,0,32483,0:0:0:0:
0,256,32383,5,0,0:0:0:0:
256,192,32483,12,0,32683,0:0:0:0:
512,224,32583,5,0,0:0:0:0:
256,192,32683,12,0,32883,0:0:0:0:
32,160,32783,5,0,0:0:0:0:
256,192,32883,12,0,33083,0:0:0:0:
512,224,32983,5,0,0:0:0:0:
256,192,33083,12,0,33283,0:0:0:0:
32,160,33183,5,0,0:0:0:0:
256,192,33283,12,0,33483,0:0:0:0:
512,224,33383,5,0,0:0:0:0:
256,192,33483,12,0,33683,0:0:0:0:
32,160,33583,5,0,0:0:0:0:
256,192,33683,12,0,33883,0:0:0:0:
512,224,33783,5,0,0:0:0:0:
256,192,33883,12,0,34083,0:0:0:0:
0,256,33983,5,0,0:0:0:0:
256,192,34083,12,0,34283,0:0:0:0:
512,224,34183,5,0,0:0:0:0:
512,224,34183,5,0,0:0:0:0:
512,224,34183,1,0,0:0:0:0:
512,224,34183,1,0,0:0:0:0:
512,224,34183,1,0,0:0:0:0:
512,224,34183,1,0,0:0:0:0:
512,224,34183,1,0,0:0:0:0:
512,224,34183,1,0,0:0:0:0:
512,224,34183,1,0,0:0:0:0:
512,224,34183,1,0,0:0:0:0:
512,224,34183,1,0,0:0:0:0:
512,224,34183,1,0,0:0:0:0:
256,192,34283,12,0,34483,0:0:0:0:
0,256,34383,5,0,0:0:0:0:
256,192,34483,12,0,34683,0:0:0:0:
512,224,34583,5,0,0:0:0:0:
256,192,34683,12,0,34883,0:0:0:0:
192,64,34783,5,0,0:0:0:0:
256,192,34883,12,0,35083,0:0:0:0:
512,288,34983,5,0,0:0:0:0:
160,128,35183,5,8,0:0:0:0:
352,192,35195,5,8,0:0:0:0:
160,224,35208,5,8,0:0:0:0:
384,96,35220,5,8,0:0:0:0:
224,32,35233,5,8,0:0:0:0:
64,96,35245,5,8,0:0:0:0:
256,224,35258,5,8,0:0:0:0:
384,128,35270,5,8,0:0:0:0:
128,160,35283,5,8,0:0:0:0:
320,96,35295,5,8,0:0:0:0:
448,64,35308,5,8,0:0:0:0:
192,64,35320,5,8,0:0:0:0:
288,192,35333,5,8,0:0:0:0:
384,192,35345,5,8,0:0:0:0:
320,288,35358,5,8,0:0:0:0:
192,192,35370,5,8,0:0:0:0:
256,96,35383,5,8,0:0:0:0:
320,64,35583,6,0,B|544:128|544:128|32:96|32:96|512:256|512:256|-32:320,2,1610
0,64,37183,6,8,L|256:64,2,230
512,64,37583,2,8,L|256:64,2,230
0,320,37983,6,8,L|256:320,2,230
512,320,38383,2,8,L|256:320,2,230
0,64,38783,6,8,L|256:64,2,230
512,64,39083,2,8,L|256:64,2,230
0,320,39383,6,8,L|256:320,2,230
512,320,39683,2,8,L|256:320,2,230
128,192,39983,1,8,0:0:0:0:
384,192,40083,1,0,0:0:0:0:
160,192,40183,1,8,0:0:0:0:
352,192,40283,1,0,0:0:0:0:
192,64,40383,2,0,L|-64:64,1,230,8|0,0:0|0:0,0:0:0:0:
320,64,40583,2,0,L|576:64,1,230,8|0,0:0|0:0,0:0:0:0:
64,160,40783,1,0,0:0:0:0:
224,160,40883,1,0,0:0:0:0:
68,160,40983,1,0,0:0:0:0:
228,160,41083,1,0,0:0:0:0:
72,160,41183,1,0,0:0:0:0:
232,160,41283,1,0,0:0:0:0:
76,160,41383,1,0,0:0:0:0:
236,160,41483,1,0,0:0:0:0:
448,160,41583,1,0,0:0:0:0:
288,160,41683,1,0,0:0:0:0:
444,160,41783,1,0,0:0:0:0:
284,160,41883,1,0,0:0:0:0:
440,160,41983,1,0,0:0:0:0:
280,160,42083,1,0,0:0:0:0:
436,160,42183,1,0,0:0:0:0:
276,160,42283,1,0,0:0:0:0:
276,160,42283,1,0,0:0:0:0:
276,160,42283,1,0,0:0:0:0:
276,160,42283,1,0,0:0:0:0:
276,160,42283,1,0,0:0:0:0:
276,160,42283,1,0,0:0:0:0:
276,160,42283,1,0,0:0:0:0:
360,324,42383,6,8,P|60:328|64:156,1,460
208,288,42383,6,8,B|488:168|488:168|292:112,1,460
352,240,42383,6,8,B|232:-40|232:-40|176:156,1,460
388,88,42383,6,8,P|392:388|220:384,1,460
384,0,42383,6,8,B|248:152|248:152|72:-32,1,460
128,64,42783,6,0,B|128:352|128:352|128:128|128:128|128:320|128:320|128:96,1,920
256,64,42933,6,0,B|256:352|256:352|256:128|256:128|256:320|256:320|256:96,1,920
512,128,43383,5,0,0:0:0:0:
384,64,43583,6,0,B|384:352|384:352|384:128|384:128|384:320|384:320|384:96,1,920
256,64,43733,6,0,B|256:352|256:352|256:128|256:128|256:320|256:320|256:96,1,920
0,128,44183,5,0,0:0:0:0:
512,128,44383,5,4,0:0:0:0:
512,128,44383,5,4,0:0:0:0:
512,128,44383,5,4,0:0:0:0:
512,128,44383,5,4,0:0:0:0:
512,128,44383,5,4,0:0:0:0:
512,128,44383,5,4,0:0:0:0:
512,128,44383,5,4,0:0:0:0:
512,128,44383,5,4,0:0:0:0:
512,128,44383,5,4,0:0:0:0:
512,128,44383,5,4,0:0:0:0:
512,128,44383,5,4,0:0:0:0:
512,128,44383,5,4,0:0:0:0:
512,128,44383,5,4,0:0:0:0:
512,128,44383,5,4,0:0:0:0:
512,128,44383,5,4,0:0:0:0:
512,128,44383,5,4,0:0:0:0:
512,128,44383,5,4,0:0:0:0:
512,128,44383,5,4,0:0:0:0:
512,128,44383,5,4,0:0:0:0:
512,128,44383,5,4,0:0:0:0:
512,128,44383,5,4,0:0:0:0:
512,128,44383,5,4,0:0:0:0:
512,128,44383,5,4,0:0:0:0:
512,128,44383,5,4,0:0:0:0:
512,128,44383,5,4,0:0:0:0:
512,128,44383,5,4,0:0:0:0:
512,128,44383,5,4,0:0:0:0:
512,128,44383,5,4,0:0:0:0:
512,128,44383,5,4,0:0:0:0:
512,128,44383,5,4,0:0:0:0:
512,128,44383,5,4,0:0:0:0:
512,128,44383,5,4,0:0:0:0:
512,128,44383,5,4,0:0:0:0:
512,128,44383,5,4,0:0:0:0:
512,128,44383,5,4,0:0:0:0:
512,128,44383,5,4,0:0:0:0:
512,128,44383,5,4,0:0:0:0:
512,128,44383,5,4,0:0:0:0:
512,128,44383,5,4,0:0:0:0:
512,128,44383,5,4,0:0:0:0:
512,128,44383,5,4,0:0:0:0:
512,128,44383,5,4,0:0:0:0:
512,128,44383,5,4,0:0:0:0:
512,128,44383,5,4,0:0:0:0:
512,128,44383,5,4,0:0:0:0:
512,128,44383,5,4,0:0:0:0:
512,128,44383,5,4,0:0:0:0:
512,128,44383,5,4,0:0:0:0:
512,128,44383,5,4,0:0:0:0:
512,128,44383,5,4,0:0:0:0:
512,128,44383,5,4,0:0:0:0:
512,128,44383,5,4,0:0:0:0:
512,128,44383,5,4,0:0:0:0:
512,128,44383,5,4,0:0:0:0:
512,128,44383,5,4,0:0:0:0:
512,128,44383,5,4,0:0:0:0:
512,128,44383,5,4,0:0:0:0:
512,128,44383,5,4,0:0:0:0:
512,128,44383,5,4,0:0:0:0:
512,128,44383,5,4,0:0:0:0:
512,128,44383,5,4,0:0:0:0:
512,128,44383,5,4,0:0:0:0:
512,128,44383,5,4,0:0:0:0:
512,128,44383,5,4,0:0:0:0:
512,128,44383,5,4,0:0:0:0:
512,128,44383,5,4,0:0:0:0:
512,128,44383,5,4,0:0:0:0:
512,128,44383,5,4,0:0:0:0:
512,128,44383,5,4,0:0:0:0:
512,128,44383,5,4,0:0:0:0:
512,128,44383,5,4,0:0:0:0:
512,128,44383,5,4,0:0:0:0:
512,128,44383,5,4,0:0:0:0:
512,128,44383,5,4,0:0:0:0:
512,128,44383,5,4,0:0:0:0:
512,128,44383,5,4,0:0:0:0:
512,128,44383,5,4,0:0:0:0:
512,128,44383,5,4,0:0:0:0:
512,128,44383,5,4,0:0:0:0:
512,128,44383,5,4,0:0:0:0:
512,128,44383,5,4,0:0:0:0:
512,128,44383,5,4,0:0:0:0:
512,128,44383,5,4,0:0:0:0:
512,128,44383,5,4,0:0:0:0:
512,128,44383,5,4,0:0:0:0:
512,128,44383,5,4,0:0:0:0:
512,128,44383,5,4,0:0:0:0:
512,128,44383,5,4,0:0:0:0:
512,128,44383,5,4,0:0:0:0:
512,128,44383,5,4,0:0:0:0:
512,128,44383,5,4,0:0:0:0:
512,128,44383,5,4,0:0:0:0:
512,128,44383,5,4,0:0:0:0:
512,128,44383,5,4,0:0:0:0:
512,128,44383,5,4,0:0:0:0:
512,128,44383,5,4,0:0:0:0:
512,128,44383,5,4,0:0:0:0:
512,128,44383,5,4,0:0:0:0:
512,128,44383,5,4,0:0:0:0:
512,128,44383,5,4,0:0:0:0:
512,128,44383,5,4,0:0:0:0:
512,128,44383,5,4,0:0:0:0:
512,128,44383,5,4,0:0:0:0:
512,128,44383,5,4,0:0:0:0:
512,128,44383,5,4,0:0:0:0:
512,128,44383,5,4,0:0:0:0:
512,128,44383,5,4,0:0:0:0:
512,128,44383,5,4,0:0:0:0:
512,128,44383,5,4,0:0:0:0:
512,128,44383,5,4,0:0:0:0:
512,128,44383,5,4,0:0:0:0:
512,128,44383,5,4,0:0:0:0:
512,128,44383,5,4,0:0:0:0:
512,128,44383,5,4,0:0:0:0:
512,128,44383,5,4,0:0:0:0:
512,128,44383,5,4,0:0:0:0:
512,128,44383,5,4,0:0:0:0:
512,128,44383,5,4,0:0:0:0:
512,128,44383,5,4,0:0:0:0:
512,128,44383,5,4,0:0:0:0:
512,128,44383,5,4,0:0:0:0:
512,128,44383,5,4,0:0:0:0:
512,128,44383,5,4,0:0:0:0:
512,128,44383,5,4,0:0:0:0:
512,128,44383,5,4,0:0:0:0:
512,128,44383,5,4,0:0:0:0:
512,128,44383,5,4,0:0:0:0:
512,128,44383,5,4,0:0:0:0:
512,128,44383,5,4,0:0:0:0:
512,128,44383,5,4,0:0:0:0:
512,128,44383,5,4,0:0:0:0:
512,128,44383,5,4,0:0:0:0:
512,128,44383,5,4,0:0:0:0:
512,128,44383,5,4,0:0:0:0:
512,128,44383,5,4,0:0:0:0:
512,128,44383,5,4,0:0:0:0:
512,128,44383,5,4,0:0:0:0:
512,128,44383,5,4,0:0:0:0:
512,128,44383,5,4,0:0:0:0:
512,128,44383,5,4,0:0:0:0:
512,128,44383,5,4,0:0:0:0:
512,128,44383,5,4,0:0:0:0:
512,128,44383,5,4,0:0:0:0:
512,128,44383,5,4,0:0:0:0:
512,128,44383,5,4,0:0:0:0:
512,128,44383,5,4,0:0:0:0:
512,128,44383,5,4,0:0:0:0:
512,128,44383,5,4,0:0:0:0:
512,128,44383,5,4,0:0:0:0:
512,128,44383,5,4,0:0:0:0:
512,128,44383,5,4,0:0:0:0:
512,128,44383,5,4,0:0:0:0:
512,128,44383,5,4,0:0:0:0:
512,128,44383,5,4,0:0:0:0:
512,128,44383,5,4,0:0:0:0:
512,128,44383,5,4,0:0:0:0:
512,128,44383,5,4,0:0:0:0:
512,128,44383,5,4,0:0:0:0:
512,128,44383,5,4,0:0:0:0:
512,128,44383,5,4,0:0:0:0:
512,128,44383,5,4,0:0:0:0:
512,128,44383,5,4,0:0:0:0:
512,128,44383,5,4,0:0:0:0:
512,128,44383,5,4,0:0:0:0:
512,128,44383,5,4,0:0:0:0:
512,128,44383,5,4,0:0:0:0:
512,128,44383,5,4,0:0:0:0:
512,128,44383,5,4,0:0:0:0:
512,128,44383,5,4,0:0:0:0:
512,128,44383,5,4,0:0:0:0:
512,128,44383,5,4,0:0:0:0:
512,128,44383,5,4,0:0:0:0:
512,128,44383,5,4,0:0:0:0:
512,128,44383,5,4,0:0:0:0:
512,128,44383,5,4,0:0:0:0:
512,128,44383,5,4,0:0:0:0:
512,128,44383,5,4,0:0:0:0:
512,128,44383,5,4,0:0:0:0:
512,128,44383,5,4,0:0:0:0:
512,128,44383,5,4,0:0:0:0:
512,128,44383,5,4,0:0:0:0:
512,128,44383,5,4,0:0:0:0:
512,128,44383,5,4,0:0:0:0:
512,128,44383,5,4,0:0:0:0:
512,128,44383,5,4,0:0:0:0:
512,128,44383,5,4,0:0:0:0:
512,128,44383,5,4,0:0:0:0:
512,128,44383,5,4,0:0:0:0:
512,128,44383,5,4,0:0:0:0:
512,128,44383,5,4,0:0:0:0:
512,128,44383,5,4,0:0:0:0:
512,128,44383,5,4,0:0:0:0:
0,128,45583,6,10,B|128:64|128:64|64:256|64:256|192:256,1,460
392,256,45983,6,10,B|448:256|448:256|384:64|384:64|576:128,1,460
256,192,46383,1,4,0:0:0:0:
96,192,46389,1,4,0:0:0:0:
416,192,46395,1,4,0:0:0:0:
256,192,46483,1,4,0:0:0:0:
96,192,46489,1,4,0:0:0:0:
416,192,46495,1,4,0:0:0:0:
256,192,46583,1,4,0:0:0:0:
96,192,46589,1,4,0:0:0:0:
416,192,46595,1,4,0:0:0:0:
256,192,46683,1,4,0:0:0:0:
96,192,46689,1,4,0:0:0:0:
416,192,46695,1,4,0:0:0:0:
256,192,46783,1,4,0:0:0:0:
96,192,46789,1,4,0:0:0:0:
416,192,46795,1,4,0:0:0:0:
256,192,46883,1,4,0:0:0:0:
96,192,46889,1,4,0:0:0:0:
416,192,46895,1,4,0:0:0:0:
256,192,46983,1,4,0:0:0:0:
96,192,46989,1,4,0:0:0:0:
416,192,46995,1,4,0:0:0:0:
256,192,47083,1,4,0:0:0:0:
96,192,47089,1,4,0:0:0:0:
416,192,47095,1,4,0:0:0:0:
256,192,47183,1,4,0:0:0:0:
96,192,47189,1,4,0:0:0:0:
416,192,47195,1,4,0:0:0:0:
256,192,47283,1,4,0:0:0:0:
96,192,47289,1,4,0:0:0:0:
416,192,47295,1,4,0:0:0:0:
256,192,47383,1,4,0:0:0:0:
96,192,47389,1,4,0:0:0:0:
416,192,47395,1,4,0:0:0:0:
256,192,47483,1,4,0:0:0:0:
96,192,47489,1,4,0:0:0:0:
416,192,47495,1,4,0:0:0:0:
256,192,47583,1,4,0:0:0:0:
96,192,47589,1,4,0:0:0:0:
416,192,47595,1,4,0:0:0:0:
256,192,47683,1,4,0:0:0:0:
96,192,47689,1,4,0:0:0:0:
416,192,47695,1,4,0:0:0:0:
256,192,47783,1,4,0:0:0:0:
96,192,47789,1,4,0:0:0:0:
416,192,47795,1,4,0:0:0:0:
256,192,47883,1,0,0:0:0:0:
256,192,47883,1,0,0:0:0:0:
256,192,47883,1,0,0:0:0:0:
256,192,47883,1,0,0:0:0:0:
256,192,47883,1,0,0:0:0:0:
256,192,47883,1,4,0:0:0:0:
96,192,47889,1,4,0:0:0:0:
416,192,47895,1,4,0:0:0:0:
256,96,50583,5,0,0:0:0:0:
256,96,50583,5,0,0:0:0:0:
256,96,50583,5,0,0:0:0:0:
256,96,50583,5,0,0:0:0:0:
256,96,50583,5,0,0:0:0:0:
256,96,50583,5,0,0:0:0:0:
256,96,50583,5,0,0:0:0:0:
256,96,50583,5,0,0:0:0:0:
256,96,50583,5,0,0:0:0:0:
256,96,50583,5,0,0:0:0:0:
160,416,50783,6,0,B|128:-64|128:-64|352:352|352:352|320:0|320:0|128:352|128:352|384:384|384:384|224:-64|224:-64|96:416|96:416|96:-32|96:-32|256:416|256:416|384:-64|384:-64|384:448|384:448|160:-64|160:-64|96:448|96:448|320:-32|320:-32|256:288|256:288|128:64|128:64|96:288|96:288|288:0|288:0|384:320|384:320|128:416|128:416|256:64|256:64|224:384|224:384|416:32|416:32|128:0|128:0|224:416|224:416|96:32|96:32|320:288|320:288|224:-96|224:-96|160:320|160:320|256:96|256:96|160:160,1,11960
256,192,54383,12,0,54389,0:0:0:0:
160,128,55756,5,0,0:0:0:0:
448,192,55929,5,0,0:0:0:0:
384,288,56083,5,0,0:0:0:0:
160,256,56209,5,0,0:0:0:0:
