osu file format v6

[General]
AudioFilename: Naruto Shippuuden - Distance.mp3
AudioLeadIn: 0
PreviewTime: -1
Countdown: 1
SampleSet: None
StackLeniency: 0.7
Mode: 0
LetterboxInBreaks: 1

[Editor]
DistanceSpacing: 0.800000011920929
BeatDivisor: 1
GridSize: 32

[Metadata]
Title:Distance (Full Ver.)
Artist:LONG SHOT PARTY
Creator:Juninhu
Version:Normal
Source:Naruto Shippuuden
Tags:opening 2

[Difficulty]
HPDrainRate:5
CircleSize:5
OverallDifficulty:5
SliderMultiplier:1.4
SliderTickRate:1

[Events]
//Background and Video events
0,0,"naruto-running.jpg"
//Break Periods
2,71200,77800
//Storyboard Layer 0 (Background)
//Storyboard Layer 1 (Fail)
//Storyboard Layer 2 (Pass)
//Storyboard Layer 3 (Foreground)
//Storyboard Sound Samples
//Background Colour Transformations
3,100,163,162,255

[TimingPoints]
0,1000,4,0,0,100,1,0

[HitObjects]
96,224,2000,1,0
192,192,3000,1,0
224,256,4000,1,0
160,256,5000,1,0
160,160,6000,1,0
288,160,7000,1,0
224,256,8000,1,0
160,160,9000,1,0
64,96,10000,1,0
192,96,11000,1,0
320,256,13000,1,0
256,224,14000,1,0
224,128,15000,1,0
160,224,16000,1,0
160,128,17000,1,0
256,160,18000,1,0
320,192,19000,1,0
256,224,20000,1,0
160,320,21000,1,0
160,32,24000,1,0
320,192,26000,1,0
64,96,28000,1,0
384,160,31000,1,0
288,160,32000,1,0
192,160,33000,1,0
128,32,34000,1,0
96,192,36000,1,0
192,224,37000,1,0
224,96,38000,1,0
128,192,39000,1,0
96,192,40000,2,0,B|384:192,3,280
256,192,47000,12,0,51000
224,160,53000,5,0
192,256,54000,1,0
128,160,55000,1,0
256,160,56000,1,0
320,256,57000,1,0
192,224,58000,1,0
320,128,59000,1,0
352,256,60000,1,0
224,224,61000,1,0
288,128,62000,1,0
320,224,63000,1,0
224,224,64000,1,0
192,128,65000,1,0
256,96,66000,1,0
352,64,67000,1,0
480,32,68000,1,0
352,64,69000,1,0
256,192,70000,1,0
128,192,71000,1,0
128,96,79000,5,0
128,192,72000,2,0,B|448:160,4,280
192,192,80000,1,0
96,32,82000,1,0
192,96,83000,1,0
160,224,84000,1,0
288,128,85000,1,0
96,128,87000,1,0
160,160,88000,1,0
256,128,89000,1,0
320,224,90000,1,0
192,160,91000,1,0
320,288,93000,1,0
288,192,94000,1,0
192,160,95000,1,0
128,288,96000,1,0
192,128,98000,1,0
256,192,99000,12,0,104000
192,128,106000,5,0
288,224,107000,1,0
160,192,108000,2,0,B|448:192,1,280
384,192,111000,2,0,B|64:256|224:64,2,280
64,64,118000,1,0
224,224,120000,1,0
64,96,122000,1,0
288,160,124000,1,0
160,192,125000,1,0
128,352,126000,1,0
320,256,128000,1,0
224,192,129000,1,0
320,96,130000,1,0
160,128,131000,1,0
64,288,133000,1,0
224,128,135000,1,0
160,160,136000,1,0
256,192,137000,1,0
288,160,138000,1,0
64,128,140000,1,0
96,224,141000,1,0
192,256,142000,1,0
288,224,143000,1,0
224,128,144000,1,0
352,96,145000,1,0
480,64,146000,1,0
448,192,147000,1,0
352,192,148000,1,0
256,128,149000,1,0
352,128,150000,1,0
288,224,151000,1,0
192,160,152000,1,0
192,256,153000,1,0
320,224,154000,1,0
224,160,155000,1,0
160,192,156000,1,0
256,320,157000,1,0
128,192,159000,1,0
160,288,160000,1,0
192,192,161000,1,0
32,32,163000,1,0
96,96,164000,1,0
160,224,165000,1,0
288,192,166000,1,0
384,96,167000,1,0
256,96,168000,1,0
192,160,169000,1,0
224,128,170000,1,0
96,192,171000,1,0
96,320,172000,1,0
160,224,173000,1,0
128,128,174000,1,0
192,160,175000,1,0
128,224,176000,1,0
256,192,177000,12,0,183000
