osu file format v7

[General]
AudioFilename: 88.mp3
AudioLeadIn: 1000
PreviewTime: 44935
Countdown: 1
SampleSet: Soft
StackLeniency: 0.7
Mode: 1
LetterboxInBreaks: 1

[Editor]
DistanceSpacing: 0.800000011920929
BeatDivisor: 4
GridSize: 8

[Metadata]
Title:88 (TV Size)
Artist:LM.C.
Creator:tmokb93
Version:Taiko Oni LEPIDON!
Source:Katekyo Hitman REBORN!
Tags:Akira Amano lepidopodus Kuroneko-sHerald

[Difficulty]
HPDrainRate:7
CircleSize:6
OverallDifficulty:5
SliderMultiplier:1.4
SliderTickRate:1

[Events]
//Background and Video events
0,0,"Wallpaper Katekyo Hitman Reborn!.png"
Video,0,"88.avi"
//Break Periods
//Storyboard Layer 0 (Background)
//Storyboard Layer 1 (Fail)
//Storyboard Layer 2 (Pass)
//Storyboard Layer 3 (Foreground)
//Storyboard Sound Samples
//Background Colour Transformations
3,100,255,255,255

[TimingPoints]
1050,342.857142857143,4,2,0,60,1,0
2078,342.857142857143,4,2,0,60,1,0
44927,-100,4,2,0,60,0,1
68756,-100,4,2,0,60,0,0

[Colours]
Combo1 : 78,171,126
Combo2 : 255,128,0
Combo3 : 176,0,0
Combo4 : 73,184,213
Combo5 : 185,112,200
Combo6 : 187,201,250
Combo7 : 255,255,153

[HitObjects]
137,114,707,1,0
245,86,1050,1,8
396,158,1564,1,8
309,228,1907,1,0
253,237,2078,1,8
155,182,2420,1,8
163,126,2592,1,8
269,91,2935,1,0
296,95,3106,1,0
341,127,3278,1,0
371,173,3449,1,0
327,276,3792,1,8
191,241,4306,1,8
207,130,4649,1,0
260,112,4820,1,8
367,144,5163,1,8
389,195,5335,1,8
306,270,5677,1,0
252,254,5849,1,0
200,230,6020,1,0
156,195,6192,5,0
183,86,6535,1,8
239,89,6706,1,0
349,104,7049,1,0
398,130,7220,1,8
439,234,7563,1,0
327,241,7906,1,8
272,254,8077,1,0
182,186,8420,1,0
155,136,8592,1,8
256,87,8935,1,0
364,115,9277,1,8
406,150,9449,1,0
410,205,9620,1,0
385,255,9792,1,0
331,270,9963,1,8
227,227,10306,1,4
139,115,11678,5,0
251,114,12020,1,8
362,121,12363,1,0
408,152,12535,1,0
438,199,12706,1,8
388,224,12878,1,0
361,234,12963,1,0
335,244,13049,1,0
278,248,13220,1,0
224,263,13392,1,8
209,151,13735,1,0
251,113,13906,1,0
306,112,14078,1,8
385,191,14420,1,0
367,301,14763,1,8
262,261,15106,1,0
211,237,15278,1,0
171,197,15449,1,8
179,141,15620,1,0
193,116,15706,1,0
211,95,15792,1,0
266,83,15963,1,0
320,94,16135,1,8
374,191,16478,1,0
347,240,16649,1,0
295,262,16820,1,8
239,259,16992,1,0
220,237,17078,1,8
205,212,17163,5,0
229,102,17506,1,8
338,80,17849,1,0
381,116,18020,1,0
387,171,18192,1,8
295,262,18363,1,0
272,278,18449,1,0
245,287,18535,1,0
191,270,18706,1,0
155,227,18878,1,8
175,116,19220,1,0
228,99,19392,1,0
283,105,19563,1,8
338,111,19735,1,0
358,130,19820,1,0
371,154,19906,1,0
334,259,20249,1,8
222,254,20592,1,0
173,226,20763,1,0
153,173,20935,1,8
167,118,21106,1,0
181,94,21192,1,0
208,96,21278,1,0
243,138,21449,1,0
318,71,21620,1,8
398,149,21963,1,0
391,176,22049,1,0
378,201,22135,1,0
358,253,22306,1,8
307,276,22478,1,0
259,246,22649,5,0
207,223,22820,1,0
162,189,22992,1,8
160,132,23163,1,0
256,75,23506,1,0
311,73,23678,1,8
360,98,23849,1,0
374,152,24020,1,0
383,207,24192,1,0
391,262,24363,1,8
382,317,24535,1,0
283,262,24878,1,0
250,216,25049,1,8
217,169,25220,1,0
209,113,25392,1,0
247,71,25563,1,0
301,83,25735,1,8
354,99,25906,1,0
385,206,26249,1,0
366,259,26420,1,8
310,267,26592,1,0
254,260,26763,1,0
201,242,26935,1,0
159,204,27106,1,8
143,150,27278,1,0
231,80,27620,1,0
286,85,27792,1,8
340,97,27963,1,0
378,137,28135,5,0
386,163,28220,1,0
385,191,28306,1,0
398,245,28478,1,8
358,284,28649,1,0
247,268,28992,1,0
210,225,29163,1,8
219,170,29335,1,0
223,113,29506,1,0
240,91,29592,1,0
266,81,29678,1,0
321,71,29849,1,8
367,102,30020,1,0
378,213,30363,1,0
369,239,30449,1,0
344,251,30535,1,8
288,261,30706,1,0
232,264,30878,1,0
182,239,31049,1,0
161,220,31135,1,0
155,192,31220,1,8
147,136,31392,1,0
250,92,31735,1,0
277,89,31820,1,0
304,94,31906,1,8
357,110,32078,1,0
397,148,32249,1,0
404,203,32420,1,8
306,258,32763,1,0
251,245,32935,1,8
202,217,33106,1,0
189,191,33192,1,8
201,165,33278,1,0
214,140,33363,1,0
229,116,33449,1,0
277,86,33620,5,0
332,93,33792,1,0
383,115,33963,1,8
406,165,34135,1,0
397,220,34306,1,0
355,257,34478,1,0
315,296,34649,1,8
258,297,34820,1,0
210,267,34992,1,0
170,226,35163,1,0
173,170,35335,1,8
213,130,35506,1,0
264,107,35678,1,0
318,96,35849,1,8
367,123,36020,1,0
385,144,36106,1,0
407,160,36192,1,8
419,214,36363,1,0
393,263,36535,1,0
336,259,36706,1,8
281,269,36877,1,0
200,246,37049,1,0
165,201,37220,1,0
155,145,37392,1,8
203,116,37563,1,0
255,98,37735,1,0
310,108,37906,1,0
362,127,38077,1,8
404,162,38249,1,0
401,218,38420,1,0
421,269,38592,1,8
367,285,38763,1,0
339,288,38849,1,0
313,298,38935,1,8
265,268,39106,5,8
226,227,39277,1,0
187,186,39449,1,0
169,163,39535,1,0
173,135,39620,1,8
219,104,39792,1,8
274,95,39963,1,0
328,109,40135,1,0
353,121,40220,1,0
375,137,40306,1,8
393,189,40477,1,8
383,244,40649,1,0
333,270,40820,1,0
305,276,40906,1,0
277,279,40992,1,8
224,257,41163,1,8
190,212,41335,1,0
188,155,41506,1,0
196,128,41592,1,0
206,101,41677,1,8
252,69,41849,1,0
306,82,42020,1,0
356,104,42192,1,8
402,135,42363,1,0
442,173,42535,1,8
460,225,42706,1,0
420,264,42877,1,8
370,289,43049,1,0
315,302,43220,1,0
259,301,43392,1,0
217,263,43563,1,8
202,209,43735,1,0
186,155,43906,1,0
218,109,44077,1,8
245,101,44163,1,8
272,97,44249,1,8
299,100,44335,1,0
326,106,44420,1,0
373,135,44592,1,0
399,243,44935,5,8
345,257,45106,1,0
317,260,45192,1,0
288,260,45277,1,0
259,259,45363,1,0
232,251,45449,1,0
194,209,45620,1,8
176,155,45792,1,0
211,111,45963,1,0
266,101,46135,1,0
321,104,46306,1,8
370,131,46477,1,0
402,176,46649,1,0
401,204,46735,1,0
385,227,46820,1,0
330,239,46992,1,8
273,240,47163,1,0
217,240,47335,1,0
163,141,47677,1,8
212,115,47849,1,0
238,104,47935,1,0
265,97,48020,1,0
291,90,48106,1,0
318,85,48192,1,0
370,104,48363,1,8
407,145,48535,1,0
410,200,48706,1,0
326,274,49049,1,8
276,246,49220,1,0
251,233,49306,1,0
226,220,49392,1,0
202,169,49563,1,0
205,113,49735,1,8
258,96,49906,1,0
286,94,49992,1,0
314,92,50077,5,0
365,112,50249,1,0
403,152,50420,1,8
417,234,50677,1,8
395,251,50763,1,0
342,270,50935,1,0
286,260,51106,1,8
230,251,51277,1,8
203,242,51363,1,8
198,214,51449,1,0
191,158,51620,1,0
218,109,51792,1,8
299,89,52049,1,8
326,95,52135,1,0
366,133,52306,1,0
398,178,52477,1,8
387,232,52649,1,0
374,257,52735,1,0
350,272,52820,1,0
294,279,52992,1,0
238,285,53163,1,8
173,231,53420,1,8
170,203,53506,1,0
183,148,53677,1,0
212,100,53849,1,8
267,94,54020,1,8
294,94,54106,1,8
321,100,54192,1,0
367,131,54363,1,0
404,172,54535,1,8
421,225,54706,1,0
327,286,55049,1,0
271,276,55220,1,8
243,271,55306,1,8
216,260,55392,1,0
196,240,55477,1,0
373,135,55563,5,0
399,243,55906,1,8
345,257,56077,1,0
317,260,56163,1,0
288,260,56249,1,0
259,259,56335,1,0
232,251,56420,1,0
194,209,56592,1,8
176,155,56763,1,0
211,111,56935,1,0
266,101,57106,1,0
321,104,57277,1,8
370,131,57449,1,0
402,176,57620,1,0
401,204,57706,1,0
385,227,57792,1,0
330,239,57963,1,8
273,240,58135,1,0
217,240,58306,1,0
163,141,58649,1,8
212,115,58820,1,0
238,104,58906,1,0
265,97,58992,1,0
291,90,59077,1,0
318,85,59163,1,0
370,104,59335,1,8
407,145,59506,1,0
410,200,59677,1,4
326,274,60020,1,12
276,246,60192,1,4
202,169,60535,1,4
205,113,60706,1,12
258,96,60877,1,0
286,94,60963,1,0
314,92,61049,5,0
365,112,61220,1,0
403,152,61392,1,8
417,234,61649,1,8
395,251,61735,1,0
342,270,61906,1,0
286,260,62077,1,8
230,251,62249,1,8
203,242,62335,1,8
198,214,62420,1,0
191,158,62592,1,0
218,109,62763,1,8
299,89,63020,1,8
326,95,63106,1,0
366,133,63277,1,0
398,178,63449,1,8
387,232,63620,1,0
374,257,63706,1,0
350,272,63792,1,0
294,279,63963,1,0
238,285,64135,1,8
173,231,64392,1,8
170,203,64477,1,0
183,148,64649,1,0
212,100,64820,1,8
267,94,64992,1,8
294,94,65077,1,8
321,100,65163,1,0
367,131,65335,1,0
404,172,65506,1,8
421,225,65677,1,0
325,283,66020,1,0
269,287,66192,1,0
240,285,66277,1,0
212,282,66363,1,0
168,246,66535,5,0
142,196,66706,1,0
136,140,66877,1,0
174,99,67049,1,0
229,93,67220,1,0
284,88,67392,1,0
339,98,67563,1,0
349,123,67735,1,0
431,198,68077,1,8
380,221,68249,1,0
325,234,68420,1,8
297,239,68506,1,8
270,229,68592,1,0
216,212,68763,1,8
194,193,68849,1,8
182,167,68935,1,0
213,120,69106,1,8
235,103,69192,1,8
261,93,69277,1,0
372,105,69620,1,8
361,216,69963,1,0
311,242,70135,1,0
257,259,70306,1,8
208,231,70477,1,0
184,216,70563,1,0
162,197,70649,1,0
172,141,70820,1,0
221,115,70992,1,8
372,105,71163,1,0
372,105,71249,1,0
372,105,71335,1,0
405,150,71506,1,0
414,205,71677,1,8
371,277,71935,1,8
343,284,72020,5,0
287,281,72192,1,0
231,285,72363,1,8
191,245,72535,1,0
173,223,72620,1,0
157,199,72706,1,0
150,143,72877,1,0
201,120,73049,1,8
256,114,73220,1,0
284,113,73306,1,0
311,116,73392,1,0
359,144,73563,1,0
389,190,73735,1,8
402,244,73906,1,0
298,285,74249,1,0
270,282,74335,1,0
242,284,74420,1,8
185,221,74677,1,8
174,194,74763,1,0
180,82,75106,1,8
235,89,75277,1,0
262,94,75363,1,0
289,99,75449,1,0
340,120,75620,1,0
386,150,75792,1,8
385,206,75963,1,0
374,231,76049,1,0
358,254,76135,1,0
308,280,76306,1,0
252,280,76477,1,8
216,236,76649,1,0
195,216,76735,1,0
175,195,76820,1,0
161,140,76992,1,0
184,88,77163,1,8
260,52,77420,1,8
342,278,77506,5,0
287,265,77677,1,0
244,228,77849,1,8
247,172,78020,1,0
249,144,78106,1,0
252,116,78192,1,0
299,86,78363,1,0
350,63,78535,1,8
388,103,78706,1,0
400,128,78792,1,0
404,155,78877,1,0
386,208,79049,1,0
369,230,79135,1,0
349,250,79220,1,0
294,236,79392,1,0
266,230,79477,1,0
238,223,79563,1,0
193,189,79735,1,0
174,167,79820,1,0
157,144,79906,1,0
202,111,80077,1,4
