osu file format v7

[General]
AudioFilename: 88.mp3
AudioLeadIn: 1000
PreviewTime: 44935
Countdown: 1
SampleSet: Soft
StackLeniency: 0.7
Mode: 0
LetterboxInBreaks: 1

[Editor]
Bookmarks: 35242,35670,36013,36099,19271
DistanceSpacing: 0.800000011920929
BeatDivisor: 4
GridSize: 8

[Metadata]
Title:88 (TV Size)
Artist:LM.C.
Creator:tmokb93
Version:Normal
Source:Katekyo Hitman REBORN!
Tags:Akira Amano lepidopodus Kuroneko-sHerald

[Difficulty]
HPDrainRate:4
CircleSize:3
OverallDifficulty:4
SliderMultiplier:1
SliderTickRate:1

[Events]
//Background and Video events
0,0,"Wallpaper Katekyo Hitman Reborn!.png"
Video,0,"88.avi"
//Break Periods
2,11877,21330
//Storyboard Layer 0 (Background)
//Storyboard Layer 1 (Fail)
//Storyboard Layer 2 (Pass)
//Storyboard Layer 3 (Foreground)
//Storyboard Sound Samples
//Background Colour Transformations
3,100,255,255,255

[TimingPoints]
1050,342.857142857143,4,2,0,60,1,0
2584,-200,4,2,0,70,0,0
3270,-100,4,2,0,60,0,0
5156,-200,4,2,0,70,0,0
5327,-100,4,2,0,60,0,0
10299,-100,4,1,0,60,0,0
10470,-100,4,2,0,60,0,0
10642,-200,4,2,0,70,0,0
11670,-100,4,2,0,60,0,0
33270,-200,4,2,0,70,0,0
33613,-100,4,2,0,60,0,0
43727,-200,4,2,0,70,0,0
44242,-100,3,2,0,60,0,0
44756,-100,3,1,0,60,0,0
44927,-100,4,1,0,60,0,1
46470,-200,4,1,0,60,0,1
47156,-100,4,1,0,60,0,1
57442,-200,4,1,0,60,0,1
58127,-100,4,1,0,60,0,1
58127,-100,4,1,0,60,0,1
66527,-100,4,2,0,60,0,1
67556,-100,4,2,0,82,0,1
68927,-100,4,2,0,60,0,1
71327,-200,4,1,0,60,0,0
75442,-100,4,1,0,60,0,0
80413,-100,4,2,0,60,0,0
82813,-100,4,2,0,0,0,0

[Colours]
Combo1 : 78,171,126
Combo2 : 255,128,0
Combo3 : 176,0,0
Combo4 : 73,184,213
Combo5 : 185,112,200
Combo6 : 187,201,250
Combo7 : 255,255,153

[HitObjects]
256,192,1049,1,2
136,192,1564,1,2
208,96,2078,1,2
328,96,2592,2,0,B|384:96|384:168,1,100,2|0
384,280,3792,5,2
264,280,4307,1,2
144,280,4821,1,2
144,200,5164,2,0,B|144:160,1,25,2|2
144,56,5849,1,2
304,40,6535,5,2
304,120,6878,1,0
384,120,7221,1,0
384,40,7564,1,2
464,40,7907,2,0,B|464:144,1,100
464,224,8592,1,0
464,304,8935,5,2
384,304,9278,1,0
304,304,9621,1,2
224,304,9964,2,0,B|112:304,1,100
120,224,10649,2,0,B|176:224,1,50
176,144,11335,2,0,B|232:144,1,50,0|4
256,192,22650,5,4
96,192,23335,1,2
96,32,24021,1,2
176,32,24364,2,0,B|280:32,2,100,2|0|2
176,112,25392,5,0
336,112,26078,1,2
336,272,26764,1,2
256,272,27107,2,0,B|152:272,2,100,2|0|2
256,184,28135,1,0
256,104,28478,5,2
256,24,28821,1,0
176,24,29164,2,0,B|64:24,1,100,2|0
80,104,29850,1,2
160,104,30192,5,0
240,104,30535,1,0
320,104,30878,1,0
400,104,31221,2,0,B|400:208,2,100,2|0|0
480,104,32250,1,2
480,224,32764,1,2
360,224,33278,2,0,B|360:280,1,50,2|0
280,272,33964,5,2
200,272,34307,1,0
120,272,34650,1,8
160,336,34992,1,2
240,336,35335,1,2
320,336,35678,1,0
360,272,36021,1,8
280,272,36364,1,0
200,272,36707,5,2
200,192,37049,1,0
200,112,37392,1,8
256,56,37735,1,2
312,112,38078,1,2
312,192,38421,1,0
392,192,38764,1,8
392,112,39107,5,2
272,112,39621,1,2
152,112,40135,1,2
152,112,40478,1,2
160,312,41335,6,2,B|160:256,3,50
272,312,42364,1,2
272,192,42878,1,2
192,192,43221,1,2
192,72,43735,2,0,B|112:72,1,75,4|2
280,72,44935,5,0
400,72,45449,1,0
400,192,45964,1,6
280,192,46478,2,2,B|280:312,1,100,6|2
160,288,47678,5,0
40,288,48192,1,0
40,168,48707,1,6
160,168,49221,1,6
280,168,49735,1,6
392,40,50421,5,0
392,120,50764,1,0
392,200,51107,1,8
392,280,51449,1,0
272,280,51964,1,4
192,280,52307,2,0,B|192:208,1,50,4|0
72,184,53164,5,0
72,264,53507,1,0
72,344,53849,1,0
256,192,54192,12,4,55564
256,192,55907,5,0
136,192,56421,1,0
136,72,56935,1,6
256,72,57449,2,2,B|256:104|320:104|320:48,1,100,6|2
440,48,58649,5,0
440,168,59164,1,0
440,288,59678,1,2
360,288,60021,2,0,B|288:288,1,50,6|0
192,288,60707,1,6
256,144,61392,5,0
256,64,61735,1,0
256,144,62078,1,8
256,224,62421,1,0
176,224,62764,1,0
56,224,63278,1,4
56,184,63449,1,4
56,24,64135,5,0
56,104,64478,1,0
136,104,64821,1,8
216,104,65164,1,0
296,104,65507,2,0,B|296:0,1,100
376,0,66192,6,0,B|376:112,1,100,8|0
376,184,66878,1,2
376,264,67221,1,2
296,264,67564,2,0,B|184:264,2,100,0|0|2
296,184,68592,1,2
256,192,68935,12,4,70992
256,192,71335,6,2,B|256:80,2,100,2|2|10
176,192,73049,1,0
256,192,73392,1,4
336,192,73735,1,0
256,192,74078,6,2,B|256:296,2,100,2|2|8
256,32,76135,1,0
176,168,76821,1,2
336,168,77507,1,2
256,312,78192,1,8
256,192,78878,1,4
256,192,79564,1,4
256,192,80078,1,4
256,72,80592,5,0
176,72,80935,1,2
184,232,81621,1,0
264,232,81964,2,0,B|472:232,1,200,2|0
256,192,82821,12,0,85907
