osu file format v7

[General]
AudioFilename: 88.mp3
AudioLeadIn: 1000
PreviewTime: 44935
Countdown: 1
SampleSet: Soft
StackLeniency: 0.7
Mode: 0
LetterboxInBreaks: 1

[Editor]
DistanceSpacing: 0.800000011920929
BeatDivisor: 4
GridSize: 8

[Metadata]
Title:88 (TV Size)
Artist:LM.C.
Creator:tmokb93
Version:Insane
Source:Katekyo Hitman REBORN!
Tags:Akira Amano lepidopodus Kuroneko-sHerald

[Difficulty]
HPDrainRate:7
CircleSize:5
OverallDifficulty:7
SliderMultiplier:1
SliderTickRate:1

[Events]
//Background and Video events
0,0,"Wallpaper Katekyo Hitman Reborn!.png"
Video,0,"88.avi"
//Break Periods
//Storyboard Layer 0 (Background)
//Storyboard Layer 1 (Fail)
//Storyboard Layer 2 (Pass)
//Storyboard Layer 3 (Foreground)
//Storyboard Sound Samples
//Background Colour Transformations
3,100,255,255,255

[TimingPoints]
1050,342.857142857143,4,2,0,60,1,0
2584,-200,4,2,0,70,0,0
3270,-100,4,2,0,60,0,0
9956,-200,4,2,0,60,0,0
10299,-100,4,1,0,60,0,0
10470,-100,4,2,0,60,0,0
11842,-100,4,1,0,60,0,0
20927,-100,4,1,0,50,0,0
21613,-100,4,1,0,40,0,0
22470,-100,4,2,0,60,0,0
44927,-100,4,1,0,60,0,1
50927,-50,4,1,0,60,0,1
51613,-100,4,1,0,60,0,1
66442,-100,4,2,0,60,0,1
69184,-100,4,1,0,60,0,1
71327,-100,4,1,0,60,0,0
75442,-100,4,1,0,60,0,0
79984,-100,4,2,0,60,0,0
82813,-100,4,2,0,0,0,0

[Colours]
Combo1 : 78,171,126
Combo2 : 255,128,0
Combo3 : 176,0,0
Combo4 : 73,184,213
Combo5 : 185,112,200
Combo6 : 187,201,250
Combo7 : 255,255,153

[HitObjects]
256,192,1049,5,2
256,72,1564,1,2
352,144,2078,1,2
352,184,2250,1,0
352,224,2421,1,0
296,224,2592,2,0,B|296:120,1,100,2|0
256,192,3792,5,2
256,312,4307,1,2
160,240,4821,1,2
160,200,4992,1,0
160,160,5164,1,0
216,160,5335,2,0,B|216:264,1,100,2|0
216,256,5849,1,2
256,96,6535,5,0
256,48,6707,1,0
224,72,6878,1,2
224,112,7049,1,2
256,136,7221,1,0
288,112,7392,1,0
288,72,7564,1,2
256,136,7907,6,2,B|256:192,1,50
256,360,8421,2,2,B|256:304,1,50
256,272,8764,1,0
256,232,8935,1,2
256,136,9278,1,2
256,136,9621,1,2
200,192,9964,2,0,B|200:120,1,50,2|0
256,88,10649,5,0
224,112,10821,1,2
288,112,10992,1,2
256,352,11335,5,0
224,328,11507,1,2
288,328,11678,1,4
256,256,12021,5,0
256,176,12364,1,0
216,176,12535,1,0
240,144,12707,1,8
280,144,12878,1,0
304,176,13050,1,0
384,176,13392,5,0
384,96,13735,1,0
424,136,13907,1,0
464,176,14078,1,8
384,176,14421,1,0
256,96,15107,1,0
216,136,15279,1,0
176,176,15450,1,8
256,176,15793,1,0
256,96,16135,1,0
256,176,16478,5,0
256,256,16650,1,0
208,320,16821,1,8
304,320,16992,1,0
256,344,17164,1,4
256,176,17850,5,0
416,176,18535,1,4
256,176,19221,1,4
96,176,19907,1,4
184,40,20592,5,0
344,40,21278,1,0
256,192,21964,1,0
256,352,22650,1,0
336,280,22821,5,0
256,280,22992,1,2
176,280,23164,1,2
216,208,23335,1,0
256,208,23507,1,0
296,208,23678,1,2
256,136,23850,1,2
256,136,24021,2,0,B|256:72,1,50
256,86,24364,1,2
336,40,24535,5,2
296,40,24707,1,0
256,40,24878,1,0
216,40,25050,1,2
176,40,25221,1,2
256,136,25735,6,2,B|256:72,2,50,0|2|2
216,136,26250,1,0
256,136,26421,1,2
296,136,26592,1,2
256,208,26764,2,0,B|256:272,2,50,0|2|2
176,208,27450,5,0
216,280,27621,1,0
296,280,27792,1,2
336,208,27964,1,2
256,128,28478,5,0
256,168,28650,1,0
256,208,28821,1,2
256,248,28992,1,2
176,208,29335,2,2,B|176:152,1,50
336,160,29850,2,2,B|336:216,1,50,2|2
256,72,30364,5,0
200,16,30535,1,0
312,16,30707,1,2
256,72,30878,1,2
200,136,31050,1,2
312,136,31221,1,0
256,72,31392,1,0
256,232,31735,5,0
256,312,31907,1,0
256,232,32078,1,2
256,312,32250,1,2
256,152,32764,1,2
144,192,33278,5,0
136,192,33364,1,0
128,192,33450,1,0
120,192,33535,1,0
112,192,33621,1,4
368,192,33964,5,0
448,192,34135,1,0
408,120,34307,1,2
328,120,34478,1,2
288,192,34650,1,0
328,264,34821,1,0
408,264,34992,1,2
368,192,35335,5,2
368,192,35507,1,2
408,264,35850,1,0
328,264,36021,1,2
368,192,36192,1,2
128,192,36707,5,0
168,192,36878,1,0
208,192,37049,1,2
208,152,37221,1,2
168,152,37392,1,0
128,152,37564,1,2
256,352,38078,5,2
256,192,38421,5,2
256,32,38764,5,2
296,104,39107,5,2
208,104,39278,1,2
168,176,39621,5,2
344,176,39792,1,2
256,192,40135,5,0
216,192,40307,1,0
240,160,40478,1,2
280,160,40649,1,2
304,192,40821,1,2
280,224,40992,1,0
240,224,41164,1,0
256,304,41335,5,0
176,304,41507,1,0
96,304,41678,1,0
96,224,41849,1,2
96,104,42364,5,2
216,104,42878,5,2
216,104,43221,1,2
256,192,43564,12,4,44592
256,192,44935,5,0
136,192,45449,1,0
256,192,45964,1,6
376,192,46478,1,6
336,192,46649,1,0
296,192,46821,1,0
256,192,46992,1,0
216,192,47164,1,0
176,192,47335,1,0
96,192,47678,5,0
256,16,48192,1,0
256,368,48707,1,6
416,192,49221,1,6
256,192,49735,1,6
256,352,50421,5,0
256,312,50592,1,0
256,272,50764,1,0
304,232,50935,2,0,B|256:192|200:240,4,100,0|8|0|0|0
256,168,51964,1,0
256,168,52307,1,0
256,168,52478,1,8
256,8,53164,5,0
232,40,53335,1,0
272,40,53507,1,0
256,72,53678,1,8
256,360,54192,5,8
232,328,54364,1,0
272,328,54535,1,0
256,296,54707,1,8
256,192,55049,5,0
256,152,55221,1,8
256,192,55392,1,0
144,192,55907,5,6
256,112,56421,1,6
368,192,56935,1,6
256,272,57449,1,0
256,272,57535,1,0
256,272,57621,1,0
256,272,57707,1,0
256,272,57792,1,0
256,272,57878,1,0
256,272,57964,1,0
256,232,58135,1,4
256,192,58307,1,4
256,192,58649,5,2
136,192,59164,1,2
376,192,59678,1,6
256,192,60021,1,2
256,136,60192,1,6
136,192,60707,1,4
256,304,61392,5,0
256,264,61564,1,0
256,224,61735,1,8
256,184,61907,1,0
96,184,62249,1,0
96,184,62421,1,4
416,184,62764,1,0
416,184,62935,1,4
256,184,63278,1,0
256,184,63449,1,4
256,24,64135,6,0,B|256:96,2,50
256,104,64821,1,8
256,144,64992,1,0
256,184,65164,1,0
256,24,65507,1,0
256,104,65678,1,0
256,360,66021,1,0
256,280,66192,1,8
256,280,66364,5,0
256,280,66535,1,2
256,184,66878,1,2
160,184,67221,1,2
352,184,67564,1,2
352,184,67735,1,2
256,184,68078,1,0
256,184,68249,1,2
256,184,68592,1,0
256,104,68764,5,0
256,24,68935,1,10
176,24,69107,1,2
336,24,69278,1,4
352,184,69449,1,0
176,184,69621,1,2
256,272,69964,5,0
256,232,70135,1,0
256,192,70307,1,8
176,192,70649,5,0
216,192,70821,1,0
256,192,70992,1,2
256,112,71335,5,0
256,152,71507,1,0
256,192,71678,1,8
336,192,72021,5,0
296,192,72192,1,0
256,192,72364,1,2
256,32,72707,5,0
200,88,72878,1,0
144,144,73049,1,8
144,144,73221,1,0
200,88,73392,1,0
256,32,73564,1,0
256,32,73735,5,2
312,88,73907,1,0
368,144,74078,1,0
368,144,74249,1,0
312,88,74421,1,8
256,32,74592,1,0
256,88,74764,5,0
128,184,75449,1,0
384,184,76135,1,0
256,352,76821,1,4
256,272,76992,1,0
256,192,77164,1,8
256,112,77335,1,0
256,32,77507,1,4
256,192,78192,5,0
112,192,78878,1,0
152,192,79049,1,0
192,192,79221,1,2
232,192,79392,1,2
272,192,79564,1,8
312,192,79735,1,8
352,192,79907,1,0
392,192,80078,1,4
392,72,80592,5,2
120,72,80935,5,2
256,312,81621,5,2
256,192,81964,5,2
256,192,82135,1,0
256,128,82307,1,0
192,192,82478,1,0
256,256,82649,1,2
256,192,82821,12,0,85907
