osu file format v7

[General]
AudioFilename: Angel_Beats_-_My_Soul_Your_Beats_Rock_Version_TV_Size.mp3
AudioLeadIn: 1004
PreviewTime: 55964
Countdown: 0
SampleSet: Normal
StackLeniency: 0.3
Mode: 0
LetterboxInBreaks: 1

[Editor]
DistanceSpacing: 0.800000011920929
BeatDivisor: 4
GridSize: 8

[Metadata]
Title:My Soul, Your Beats! ~Rock Version~ (TV Size)
Artist:LISA
Creator:osuplayer111
Version:My Rock Beats
Source:Angel Beats!
Tags:Anime Yui Version climbb65588 xxheroxx Vicho-kun ignorethis

[Difficulty]
HPDrainRate:8
CircleSize:5
OverallDifficulty:8
SliderMultiplier:1.8
SliderTickRate:1

[Events]
//Background and Video events
0,0,"My Rock Beats.jpg"
Video,0,"Angel Beats! OP2.flv"
//Break Periods
//Storyboard Layer 0 (Background)
//Storyboard Layer 1 (Fail)
//Storyboard Layer 2 (Pass)
//Storyboard Layer 3 (Foreground)
//Storyboard Sound Samples
//Background Colour Transformations
3,100,255,255,255

[TimingPoints]
1344,413.793103448276,4,1,1,70,1,0
5792,-100,4,1,2,70,0,0
5999,-100,4,1,1,70,0,0
8275,-100,4,1,2,70,0,0
8481,-100,4,1,1,70,0,0
8688,-100,4,1,2,70,0,0
9619,-100,4,1,1,70,0,0
11171,-100,4,1,2,70,0,0
11378,-100,4,1,1,70,0,0
12412,-100,4,1,2,70,0,0
12826,-100,4,1,1,70,0,0
13654,-100,4,1,2,70,0,0
14068,-100,4,1,1,70,0,0
17585,-100,4,2,1,0,0,0
17792,-100,4,2,1,86,0,0
21102,-100,4,1,1,70,0,0
21309,-100,4,2,1,86,0,0
22137,-100,4,1,1,70,0,0
22757,-100,4,2,1,86,0,0
22964,-100,4,1,1,70,0,0
35378,-100,4,1,2,70,0,0
35999,-100,4,1,1,70,0,0
47585,-100,4,1,2,70,0,0
48619,-100,4,1,1,70,0,0
54206,-100,4,1,2,70,0,0
55033,-100,4,1,1,70,0,0
55964,-100,4,1,1,70,0,1
59792,-200,4,1,1,70,0,1
60412,-100,4,1,1,70,0,1
67550,-100,4,1,1,70,0,0
67654,-100,4,1,2,70,0,0
68068,-100,4,1,1,70,0,0
69206,-100,4,1,1,70,0,1
70550,-200,4,1,1,70,0,1
71068,-100,4,1,1,70,0,1
74688,-200,4,1,1,70,0,1
75206,-100,4,1,1,70,0,1
80792,-100,4,1,1,70,0,0
86481,-100,4,1,2,70,0,0
87412,-100,4,1,1,70,0,0
88137,-100,4,1,2,70,0,0
88550,-100,4,1,1,70,0,0
90516,-100,4,2,1,0,0,0

[Colours]
Combo1 : 155,77,114
Combo2 : 100,198,115
Combo3 : 255,140,26
Combo4 : 73,87,252

[HitObjects]
256,40,2378,1,0
192,80,2585,1,8
256,120,2792,1,0
256,192,2999,2,0,B|336:264|432:184,2,180,4|0|8
256,120,4033,1,0
192,80,4240,6,0,B|96:80,1,90,4|0
8,152,4654,2,0,B|104:152,1,90
192,224,5068,2,0,B|80:224,2,90,0|0|8
256,192,5688,1,0
312,232,5895,1,4
256,272,6102,1,0
256,344,6309,6,0,B|176:272|80:352,2,180,4|0|8
376,272,7550,2,0,B|440:192,1,90,4|0
472,144,7964,1,0
424,88,8171,1,0
472,32,8378,1,4
424,88,8585,1,0
376,144,8792,5,6
336,120,8930,1,4
296,96,9068,1,4
256,72,9206,1,6
216,96,9344,1,4
176,120,9482,1,4
136,144,9619,1,4
256,192,10033,5,0
136,240,10447,1,8
184,296,10654,1,0
256,320,10861,1,4
328,296,11068,1,0
376,240,11275,1,4
256,192,11688,6,0,B|256:80,2,90,0|0|8
328,192,12309,1,0
184,192,12516,1,4
184,192,12619,1,0
184,192,12723,1,0
256,264,12930,5,4
256,120,13344,1,0
256,192,13757,1,4
256,192,13861,1,0
256,192,13964,1,0
256,192,14171,1,4
256,192,14275,12,0,17688
176,192,17895,6,0,B|208:240|256:240,1,90,0|0
176,192,18309,2,0,B|208:144|256:144,1,90,8|0
320,128,18723,1,0
392,144,18930,1,0
448,192,19137,1,8
392,240,19344,1,0
320,256,19550,1,2
256,192,19757,6,0,B|224:240|176:240,1,90,2|8
256,192,20171,2,0,B|224:144|176:144,1,90,2|2
112,144,20585,1,2
56,192,20792,1,8
112,240,20999,1,0
256,120,21206,6,0,B|256:24,1,90,8|0
256,264,21619,2,0,B|256:360,1,90,0|0
184,192,22033,1,0
184,192,22240,1,8
328,192,22447,1,8
328,192,22654,1,8
256,192,22861,5,4
256,264,23068,2,0,B|272:320|320:328,1,90,0|8
256,264,23481,2,0,B|240:320|192:328,1,90
184,192,23895,1,0
328,192,24102,1,8
328,192,24516,5,0
256,192,24723,1,0
184,192,24930,1,8
256,120,25137,2,0,B|272:64|320:56,1,90
256,120,25550,2,0,B|240:64|192:56,1,90,0|8
448,112,25964,6,0,B|517:191|445:287,1,180
392,320,26585,1,8
328,296,26792,1,0
272,336,26999,1,0
208,312,27206,1,0
160,360,27412,1,8
96,336,27619,1,0
64,272,27826,6,0,B|-5:192|66:96,1,180,0|8
120,64,28447,1,0
184,88,28654,1,0
240,48,28861,1,0
304,72,29068,1,8
352,24,29274,5,0
416,48,29481,2,0,B|488:128|416:216,2,180,0|8|0
352,24,30516,1,0
304,72,30723,2,0,B|288:168,1,90,8|0
240,56,31137,2,0,B|200:152,1,90
176,32,31550,2,0,B|120:112,1,90,8|0
124,105,32378,5,8
40,224,32792,2,0,B|16:264|40:312,1,90
96,272,33206,1,8
152,224,33412,2,0,B|176:264|152:312,1,90
40,224,33826,1,0
152,224,34033,1,8
472,160,34447,6,0,B|496:120|472:72,1,90
416,112,34861,1,8
360,160,35067,2,0,B|336:120|360:72,1,90
472,160,35481,1,4
360,160,35688,1,6
416,112,35895,1,4
416,208,36102,5,4
416,208,36309,2,0,B|416:304,2,90,0|8|0
416,112,37137,5,0
416,112,37344,2,0,B|352:32,1,90,8|0
296,80,37757,1,0
256,24,37964,1,0
216,80,38171,1,8
96,112,38378,2,0,B|160:32,1,90
256,24,38792,1,0
256,136,38999,1,8
256,360,39206,6,0,B|256:256,1,90
216,200,39619,1,0
256,136,39826,1,8
296,200,40033,2,0,B|400:200,1,90
216,200,40447,2,0,B|112:200,1,90,0|8
256,136,40861,6,0,B|256:32,2,90
216,200,41481,1,8
296,200,41688,1,0
184,264,41895,1,0
328,264,42102,1,0
152,328,42309,1,8
360,328,42516,1,0
256,360,42723,5,0
256,192,43137,1,8
256,192,43344,1,0
256,192,43550,1,0
256,24,43964,1,8
200,72,44171,2,0,B|160:112|200:152,1,90
312,72,44585,2,0,B|352:112|312:152,1,90,0|8
256,192,44999,1,0
344,304,45412,5,0
344,304,45619,1,8
168,304,46033,1,0
168,304,46240,1,0
256,304,46447,1,8
256,304,46654,2,0,B|256:200,1,90
256,104,47171,2,0,B|256:160,1,45,0|8
256,304,47688,5,4
208,248,47895,1,0
304,248,48102,1,2
160,192,48309,1,4
352,192,48516,1,0
256,104,48930,5,8
256,104,49033,1,0
256,104,49137,1,0
256,104,49344,1,4
256,32,49550,1,0
256,32,49757,1,8
184,32,49964,6,0,B|200:80|144:112,1,90
328,32,50378,2,0,B|312:80|368:112,1,90,0|8
328,248,50999,1,0
296,312,51206,1,0
216,312,51412,1,8
184,248,51619,1,0
72,192,52033,5,0
120,136,52240,1,8
184,104,52447,1,0
256,88,52654,1,0
328,104,52861,1,0
392,136,53068,1,8
440,192,53275,1,0
256,240,53688,5,0
208,296,53895,2,0,B|112:328,1,90,8|0
304,296,54309,2,0,B|400:328,1,90,4|0
256,352,54723,1,0
256,352,54930,1,4
256,40,55344,5,8
256,64,55550,1,8
256,88,55757,1,8
256,112,55964,5,4
256,192,56171,2,0,B|253:289,2,90,0|8|0
64,192,56999,1,0
0,232,57206,1,8
0,152,57412,2,0,B|0:48|136:48,1,180
176,96,58033,5,8
216,32,58240,1,0
216,32,58344,1,8
272,80,58550,1,0
272,80,58654,1,0
232,144,58861,1,8
256,288,59275,5,0
304,336,59481,1,0
352,288,59688,1,8
400,336,59895,2,0,B|480:280,1,90
392,192,60516,5,8
336,144,60723,2,0,B|256:72|168:152,1,180
120,192,61344,1,8
120,192,61550,2,0,B|48:264|128:360,1,180
122,353,62068,1,0
122,353,62171,1,8
184,320,62378,5,0
256,352,62585,1,0
328,320,62792,1,0
328,320,62895,1,0
328,320,62999,1,8
256,352,63206,2,0,B|256:296,1,45,0|8
256,192,63619,1,0
328,168,63826,2,0,B|416:112,1,90,8|0
408,48,64240,5,0
336,48,64447,1,0
304,48,64550,1,0
272,48,64654,1,8
200,48,64861,1,0
200,48,64964,1,8
120,128,65275,5,0
64,176,65481,2,0,B|24:216|72:272,1,90,8|0
120,296,65895,1,0
184,328,66102,1,0
232,272,66309,1,8
256,344,66516,1,0
256,344,66619,2,0,B|328:376|400:336,1,135,8|0
424,280,67137,5,8
448,208,67344,1,0
400,152,67550,1,0
472,136,67757,1,4
472,136,67861,1,4
472,136,67964,2,0,B|432:56|320:48,1,180,6|0
256,80,68585,1,0
256,152,68792,5,8
256,160,68895,1,0
256,168,68999,1,0
256,176,69102,1,0
256,184,69206,1,4
256,256,69412,1,0
216,320,69619,1,8
296,320,69826,1,0
296,320,69930,1,8
256,152,70447,5,8
256,152,70654,2,0,B|256:48,1,90
256,62,71275,1,8
192,32,71481,1,0
192,32,71585,1,8
320,32,71792,1,0
320,32,71895,1,0
256,62,72102,1,8
256,192,72516,6,0,B|288:240|336:240,1,90
256,192,72930,2,0,B|224:240|176:240,1,90,8|0
183,239,73240,1,8
256,344,73757,5,8
256,344,73964,2,0,B|448:344,1,180
480,288,74585,1,8
480,216,74792,2,0,B|416:128,1,90
427,143,75309,1,0
427,143,75412,1,8
408,72,75619,1,0
352,120,75826,5,0
280,120,76033,2,0,B|256:64,2,45,0|0|8
296,192,76447,1,0
296,192,76550,2,0,B|320:256|256:320,1,135,8|0
208,264,77067,1,8
160,320,77275,6,0,B|64:288,1,90
40,232,77688,1,0
40,232,77791,1,0
40,232,77895,1,8
80,176,78102,1,0
80,176,78206,2,0,B|40:136|88:88,1,90,8|0
80,96,78516,1,0
136,56,78722,5,8
192,104,78929,1,0
256,144,79137,1,0
320,104,79344,1,0
376,56,79550,1,8
256,144,79757,2,0,B|256:200,1,45,0|8
192,272,80171,5,0
200,304,80275,1,0
224,336,80378,1,8
256,352,80481,1,0
288,336,80585,1,0
312,304,80688,1,0
320,272,80791,1,4
256,240,80998,1,0
256,240,81205,1,8
32,128,81619,6,0,B|72:32,1,90,8|0
144,152,82033,2,0,B|144:48,1,90,4|0
256,128,82447,2,0,B|216:32,1,90,0|0
32,128,82861,1,8
256,128,83067,1,0
144,152,83275,1,8
256,192,83688,5,8
256,192,83895,1,0
256,192,84102,1,4
480,256,84516,6,0,B|440:352,1,90,8|0
368,232,84930,2,0,B|368:336,1,90
256,256,85344,2,0,B|296:352,1,90,4|0
480,256,85757,1,0
256,256,85964,1,0
368,232,86171,1,8
336,88,86585,5,6
328,136,86723,1,4
304,176,86861,1,4
256,192,86999,1,6
208,176,87137,1,4
184,136,87275,1,4
176,88,87412,5,4
256,192,87826,1,8
336,88,88240,1,4
336,88,88447,1,2
256,192,88654,12,0,90516
