osu file format v14

[General]
AudioFilename: ww.mp3
AudioLeadIn: 2000
PreviewTime: 65773
Countdown: 0
SampleSet: Normal
StackLeniency: 0.7
Mode: 0
LetterboxInBreaks: 0
WidescreenStoryboard: 0

[Editor]
DistanceSpacing: 1.4
BeatDivisor: 4
GridSize: 4
TimelineZoom: 1.7

[Metadata]
Title:Yotogibanashi no Kamikakushi
TitleUnicode:夜伽話の神隠し
Artist:LIQU@.
ArtistUnicode:LIQU@。
Creator:Kyubey
Version:ryuu's Normal
Source:東方Project
Tags:ryuu minstrel c80 comiket yuta 夜が降りてくる ~ Evening Star 東方萃夢想 ~ Immaterial and Missing Power ZUN yakumo yukari nwolf dainesl touhou leader lunarblossom okoratu
BeatmapID:567951
BeatmapSetID:236396

[Difficulty]
HPDrainRate:3
CircleSize:3
OverallDifficulty:4
ApproachRate:4.7
SliderMultiplier:0.7
SliderTickRate:1

[Events]
//Background and Video events
0,0,"bg.jpg",0,0
//Break Periods
2,42223,44787
2,66223,68787
//Storyboard Layer 0 (Background)
//Storyboard Layer 1 (Fail)
//Storyboard Layer 2 (Pass)
//Storyboard Layer 3 (Foreground)
//Storyboard Sound Samples

[TimingPoints]
23,250,4,1,1,80,1,0
26023,-100,4,1,1,90,0,1
42023,-100,4,1,1,60,0,0
46023,-100,4,1,1,70,0,0
48023,-100,4,1,1,80,0,0
50023,-100,4,1,1,70,0,0
61898,-100,4,1,1,80,0,0
70023,-100,4,1,1,80,0,1
73960,-100,4,1,1,80,0,0
74023,-100,4,1,1,90,0,1
81960,-100,4,1,1,90,0,0
82023,-100,4,1,1,90,0,1
98023,-100,4,1,1,80,0,0
110210,-100,4,1,1,20,0,0

[Colours]
Combo1 : 146,80,78
Combo2 : 193,175,102
Combo3 : 215,81,81
Combo4 : 194,208,149

[HitObjects]
112,324,23,6,0,L|104:196,1,105,4|12,0:0|0:0,0:0:0:0:
64,132,648,1,12,0:0:0:0:
64,132,898,1,12,0:0:0:0:
144,72,1148,2,0,P|197:75|248:64,1,105,12|8,0:0|0:0,0:0:0:0:
440,104,2023,6,0,P|436:157|448:208,1,105,4|12,0:0|0:0,0:0:0:0:
484,296,2648,1,12,0:0:0:0:
484,296,2898,1,12,0:0:0:0:
392,332,3148,2,0,L|264:340,1,105,12|8,0:0|0:0,0:0:0:0:
112,252,4023,6,0,L|216:245,1,105,4|12,0:0|0:0,0:0:0:0:
304,200,4648,1,12,0:0:0:0:
304,200,4898,1,12,0:0:0:0:
356,116,5148,2,0,P|364:72|348:8,1,105,12|8,0:0|0:0,0:0:0:0:
156,48,6023,6,0,L|51:54,1,105,4|12,0:0|0:0,0:0:0:0:
24,148,6648,1,12,0:0:0:0:
24,148,6898,1,12,0:0:0:0:
92,220,7148,2,0,L|100:348,1,105,12|8,0:0|0:0,0:0:0:0:
248,196,8023,6,0,L|241:91,2,105,0|8|8,0:0|0:0|0:0,0:0:0:0:
320,264,9023,2,0,P|404:272|488:240,1,175,8|4,0:0|0:0,0:0:0:0:
408,116,10023,6,0,L|412:44,1,70,0|10,0:0|0:2,0:0:0:0:
316,72,10523,2,0,L|320:152,1,70,10|10,0:2|0:2,0:0:0:0:
252,212,11023,2,0,P|216:216|176:208,1,70,10|10,0:2|0:2,0:0:0:0:
116,284,11523,2,0,P|60:276|4:292,2,105,12|4|10,0:0|0:2|0:2,0:0:0:0:
178,210,12523,2,0,L|172:120,1,70,10|10,0:2|0:2,0:0:0:0:
172,40,13023,5,10,0:2:0:0:
260,84,13273,1,10,0:2:0:0:
352,44,13523,2,0,L|464:28,2,105,8|4|10,0:0|0:0|0:2,0:0:0:0:
352,140,14523,2,0,L|432:128,1,70,10|12,0:2|0:2,0:0:0:0:
412,228,15023,6,0,L|492:216,1,70,10|8,0:2|0:0,0:0:0:0:
460,312,15523,2,0,L|331:331,1,105,10|8,0:2|0:0,0:0:0:0:
212,296,16273,2,0,P|216:264|192:208,1,70,8|0,0:0|0:0,0:0:0:0:
116,188,16773,1,8,0:0:0:0:
192,128,17023,2,0,P|264:141|336:104,1,140,8|12,0:0|0:2,0:0:0:0:
460,60,17898,6,0,P|448:112|460:176,1,105,4|10,0:2|0:2,0:0:0:0:
384,232,18523,2,0,L|393:315,1,70,10|10,0:2|0:2,0:0:0:0:
304,344,19023,2,0,L|286:261,1,70,10|10,0:2|0:2,0:0:0:0:
196,252,19523,2,0,P|144:240|80:264,2,105,12|4|10,0:0|0:0|0:2,0:0:0:0:
236,164,20523,1,10,0:2:0:0:
160,100,20773,1,10,0:2:0:0:
236,36,21023,6,0,P|308:52|388:28,1,140,8|8,0:0|0:0,0:0:0:0:
456,156,21898,2,0,L|444:268,1,105,4|10,0:0|0:2,0:0:0:0:
348,276,22523,2,0,L|268:284,1,70,10|12,0:2|0:2,0:0:0:0:
196,340,23023,6,0,L|116:332,1,70,12|8,0:2|0:0,0:0:0:0:
52,268,23523,2,0,L|40:163,2,105,8|4|8,0:0|0:0|0:0,0:0:0:0:
144,236,24523,2,0,P|176:240|213:229,1,70,8|8,0:0|0:0,0:0:0:0:
296,176,25023,1,8,0:0:0:0:
264,84,25273,1,8,0:0:0:0:
436,176,25773,5,8,0:0:0:0:
396,260,26023,6,0,L|392:344,1,70,6|0,0:0|0:0,0:0:0:0:
296,356,26523,2,0,L|292:272,1,70,2|0,0:0|0:0,0:0:0:0:
204,248,27023,2,0,L|92:256,2,105,2|8|2,0:0|0:0|0:0,0:0:0:0:
216,152,28023,2,0,B|287:146|287:146|349:114|349:114|421:109,1,210,6|2,0:0|0:0,0:0:0:0:
460,200,29023,6,0,P|456:236|468:284,1,70,2|0,0:0|0:0,0:0:0:0:
376,312,29523,2,0,P|341:317|306:313,1,70,2|0,0:0|0:0,0:0:0:0:
220,268,30023,2,0,P|168:262|99:279,2,105,6|10|2,0:0|0:0|0:0,0:0:0:0:
308,224,31023,1,2,0:0:0:0:
184,144,31398,6,0,P|174:92|179:40,1,105,10|0,0:0|0:0,0:0:0:0:
276,56,32023,2,0,P|304:64|348:56,2,70,6|2|2,0:0|0:0|0:0,0:0:0:0:
180,40,32773,1,2,0:0:0:0:
100,96,33023,1,2,0:0:0:0:
68,240,33398,2,0,L|176:248,1,105,10|10,0:0|0:0,0:0:0:0:
244,316,34023,6,0,L|328:308,1,70,6|0,0:0|0:0,0:0:0:0:
348,216,34523,2,0,L|432:224,1,70,6|0,0:0|0:0,0:0:0:0:
444,128,35023,2,0,P|436:76|456:20,2,105,2|8|2,0:0|0:0|0:0,0:0:0:0:
344,120,36023,2,0,L|274:113,1,70,6|2,0:0|0:0,0:0:0:0:
192,60,36523,1,2,0:0:0:0:
96,56,36773,1,2,0:0:0:0:
52,144,37023,6,0,P|48:200|64:252,1,105,2|10,0:0|0:0,0:0:0:0:
176,340,37773,1,0,0:0:0:0:
252,280,38023,2,0,L|360:276,2,105,6|10|2,0:0|0:0|0:0,0:0:0:0:
212,192,39023,1,2,0:0:0:0:
308,80,39398,2,0,P|364:88|412:76,1,105,10|0,0:0|0:0,0:0:0:0:
256,192,40023,12,4,42023,0:0:0:0:
60,52,46023,6,0,L|72:124,1,70,4|0,0:0|0:0,0:0:0:0:
160,160,46523,2,0,L|148:232,1,70,8|0,0:0|0:0,0:0:0:0:
164,324,47023,2,0,P|231:302|308:340,1,140,8|8,0:0|0:0,0:0:0:0:
388,308,47773,1,8,0:0:0:0:
456,240,48023,6,0,L|464:132,2,105,8|4|0,0:0|0:2|0:0,0:0:0:0:
360,220,49023,2,0,P|305:228|248:204,1,105,0|8,0:0|0:0,0:0:0:0:
216,236,49523,2,0,L|224:316,1,70,0|8,0:0|0:0,0:0:0:0:
132,344,50023,6,0,L|124:264,1,70,4|0,0:0|0:0,0:0:0:0:
52,208,50523,1,8,0:0:0:0:
52,208,50773,1,0,0:0:0:0:
76,112,51023,2,0,P|112:100|160:112,1,70,8|0,0:0|0:0,0:0:0:0:
224,44,51523,2,0,P|272:56|344:40,2,105,8|0|0,0:0|0:0|0:0,0:0:0:0:
232,144,52523,2,0,L|244:224,1,70,8|8,0:0|0:0,0:0:0:0:
340,228,53023,6,0,P|373:219|412:228,1,70,8|8,0:0|0:0,0:0:0:0:
492,276,53523,2,0,L|480:356,1,70,8|8,0:0|0:0,0:0:0:0:
384,352,54023,2,0,B|344:372|317:360|280:344|244:360,1,140,4|8,0:0|0:0,0:0:0:0:
164,308,54773,1,0,0:0:0:0:
68,288,55023,6,0,L|64:360,2,70,8|0|8,0:0|0:0|0:0,0:0:0:0:
100,196,55773,2,0,P|136:204|184:192,1,70,0|12,0:0|0:0,0:0:0:0:
248,140,56273,2,0,P|282:135|316:142,1,70,0|8,0:0|0:0,0:0:0:0:
396,200,56773,1,8,0:0:0:0:
472,136,57023,2,0,L|480:52,1,70,8|8,0:0|0:0,0:0:0:0:
388,28,57523,2,0,L|340:26,1,35,8|8,0:0|0:0,0:0:0:0:
260,52,57898,6,0,B|204:51|204:51|147:78|147:78|83:76,1,175,12|4,0:0|0:0,0:0:0:0:
132,268,59023,2,0,L|284:272,1,140,0|8,0:0|0:0,0:0:0:0:
464,316,60023,6,0,P|480:248|468:152,1,140,12|8,0:0|0:0,0:0:0:0:
332,40,61023,2,0,B|260:52|260:52|176:28,1,140,12|12,0:0|0:0,0:0:0:0:
48,44,61898,6,0,L|60:152,1,105,4|10,0:0|0:2,0:0:0:0:
132,216,62523,2,0,L|120:308,1,70,10|10,0:2|0:2,0:0:0:0:
216,336,63023,2,0,P|283:323|372:340,1,140,10|10,0:2|0:2,0:0:0:0:
440,288,63773,1,8,0:0:0:0:
388,204,64023,6,0,P|375:158|388:116,1,70,12|8,0:0|0:0,0:0:0:0:
320,56,64523,2,0,L|244:64,1,70,8|0,0:0|0:0,0:0:0:0:
156,88,65023,1,8,0:0:0:0:
188,180,65273,1,8,0:0:0:0:
116,248,65523,1,12,0:0:0:0:
296,332,66023,5,4,0:0:0:0:
428,68,70023,6,0,L|436:140,1,70,12|0,0:0|0:0,0:0:0:0:
376,216,70523,2,0,L|384:288,1,70,8|0,0:0|0:0,0:0:0:0:
296,332,71023,2,0,P|240:321|172:332,2,105,8|0|0,0:0|0:0|0:0,0:0:0:0:
284,236,72023,6,0,P|280:196|296:148,1,70,12|8,0:0|0:0,0:0:0:0:
216,100,72523,2,0,B|184:92|168:56|168:56|144:80|88:76,1,140,0|0,0:0|0:0,0:0:0:0:
60,216,73398,2,0,P|74:273|64:340,1,105,4|4,0:0|0:0,0:0:0:0:
168,332,74023,6,0,L|248:336,1,70,6|0,0:0|0:0,0:0:0:0:
280,248,74523,2,0,L|196:244,1,70,2|0,0:0|0:0,0:0:0:0:
164,160,75023,2,0,L|276:164,2,105,2|8|2,0:0|0:0|0:0,0:0:0:0:
152,64,76023,2,0,B|208:84|264:64|320:44|364:68,1,210,6|2,0:0|0:0,0:0:0:0:
424,140,77023,6,0,P|415:176|424:224,1,70,2|0,0:0|0:0,0:0:0:0:
340,268,77523,2,0,P|348:304|340:352,1,70,10|0,0:0|0:0,0:0:0:0:
248,348,78023,2,0,P|196:336|128:356,2,105,6|10|2,0:0|0:0|0:0,0:0:0:0:
344,336,79023,1,2,0:0:0:0:
396,200,79398,6,0,P|384:152|400:84,1,105,10|0,0:0|0:0,0:0:0:0:
308,48,80023,2,0,L|168:40,1,140,6|2,0:0|0:0,0:0:0:0:
72,28,80773,1,2,0:0:0:0:
76,124,81023,2,0,P|91:190|72:276,1,140,12|8,0:0|0:0,0:0:0:0:
252,348,82023,6,0,L|352:336,1,70,6|10,0:0|0:0,0:0:0:0:
368,252,82523,2,0,L|268:240,1,70,2|10,0:0|0:0,0:0:0:0:
220,188,83023,2,0,P|232:136|212:60,2,105,6|8|10,0:0|0:0|0:0,0:0:0:0:
124,172,84023,2,0,P|92:172|52:184,1,70,6|10,0:0|0:0,0:0:0:0:
40,280,84523,2,0,P|72:280|112:268,1,70,2|10,0:0|0:0,0:0:0:0:
204,292,85023,6,0,P|256:284|320:300,2,105,6|12|8,0:0|0:0|0:0,0:0:0:0:
108,268,86023,1,6,0:0:0:0:
180,140,86398,2,0,L|188:16,1,105,14|14,0:0|0:0,0:0:0:0:
284,28,87023,1,6,0:0:0:0:
400,116,87398,6,0,L|406:220,1,105,14|8,0:0|0:0,0:0:0:0:
348,300,88023,2,0,P|280:284|212:300,2,140,6|6|6,0:0|0:0|0:0,0:0:0:0:
304,160,89398,2,0,P|280:104|288:44,1,105,14|8,0:0|0:0,0:0:0:0:
184,72,90023,6,0,L|112:60,1,70,6|10,0:0|0:0,0:0:0:0:
132,156,90523,2,0,L|62:167,1,70,2|10,0:0|0:0,0:0:0:0:
28,260,91023,2,0,L|131:277,2,105,6|8|10,0:0|0:0|0:0,0:0:0:0:
64,168,92023,2,0,P|136:188|200:176,1,140,6|2,0:0|0:0,0:0:0:0:
264,104,92773,1,10,0:0:0:0:
360,76,93023,6,0,P|400:68|432:76,1,70,6|8,0:0|0:0,0:0:0:0:
464,164,93523,2,0,P|424:172|392:164,1,70,14|8,0:0|0:0,0:0:0:0:
316,220,94023,2,0,P|328:272|320:344,2,105,6|10|14,0:0|0:0|0:0,0:0:0:0:
228,172,95023,2,0,P|216:120|224:48,2,105,14|12|8,0:0|0:0|0:0,0:0:0:0:
320,132,96023,6,0,L|436:136,1,105,12|8,0:0|0:0,0:0:0:0:
452,232,96648,2,0,L|360:228,1,70,12|12,0:0|0:0,0:0:0:0:
332,312,97148,2,0,P|280:320|228:308,1,105,12|12,0:0|0:0,0:0:0:0:
92,164,98023,6,0,L|84:56,1,105,4|12,0:0|0:0,0:0:0:0:
176,20,98648,1,12,0:0:0:0:
176,20,98898,1,12,0:0:0:0:
232,100,99148,2,0,L|340:92,1,105,12|8,0:0|0:0,0:0:0:0:
448,252,100023,6,0,L|340:260,1,105,4|12,0:0|0:0,0:0:0:0:
288,340,100648,1,12,0:0:0:0:
288,340,100898,1,12,0:0:0:0:
200,300,101148,2,0,L|92:292,1,105,12|8,0:0|0:0,0:0:0:0:
44,104,102023,6,0,P|104:112|156:92,1,105,8|12,0:0|0:0,0:0:0:0:
220,36,102648,1,12,0:0:0:0:
220,36,102898,1,12,0:0:0:0:
288,108,103148,2,0,L|284:220,1,105,8|8,0:0|0:0,0:0:0:0:
428,348,104023,6,0,L|424:236,1,105,4|12,0:0|0:0,0:0:0:0:
480,164,104648,1,12,0:0:0:0:
480,164,104898,1,12,0:0:0:0:
408,100,105148,2,0,L|296:104,1,105,12|8,0:0|0:0,0:0:0:0:
152,228,106023,6,0,L|160:336,2,105,0|0|8,0:0|0:0|0:0,0:0:0:0:
180,132,107023,2,0,P|260:140|328:116,1,140
364,124,107648,2,0,P|367:173|384:212,1,70,12|4,0:0|0:0,0:0:0:0:
256,192,108023,12,0,110210,2:0:0:0:
