osu file format v14

[General]
AudioFilename: ww.mp3
AudioLeadIn: 2000
PreviewTime: 65773
Countdown: 0
SampleSet: Normal
StackLeniency: 0.7
Mode: 0
LetterboxInBreaks: 0
WidescreenStoryboard: 0

[Editor]
Bookmarks: 26773,26835,26898,27273,27335,27398,27773,27835,27898,28273,28335,28398,28773,28835,28898,42023,44023,46023,50023,57898,65773,73398,74023,81023,82023,107898,107960,110210
DistanceSpacing: 1.5
BeatDivisor: 4
GridSize: 4
TimelineZoom: 2.4

[Metadata]
Title:Yotogibanashi no Kamikakushi
TitleUnicode:夜伽話の神隠し
Artist:LIQU@.
ArtistUnicode:LIQU@。
Creator:Kyubey
Version:oko's Extra
Source:東方Project
Tags:ryuu minstrel c80 comiket yuta 夜が降りてくる ~ Evening Star 東方萃夢想 ~ Immaterial and Missing Power ZUN yakumo yukari nwolf dainesl touhou leader lunarblossom okoratu
BeatmapID:717133
BeatmapSetID:236396

[Difficulty]
HPDrainRate:7
CircleSize:4.3
OverallDifficulty:8.3
ApproachRate:9.6
SliderMultiplier:1.8
SliderTickRate:1

[Events]
//Background and Video events
0,0,"bg.jpg",0,0
//Break Periods
2,42223,43514
2,66223,69014
//Storyboard Layer 0 (Background)
//Storyboard Layer 1 (Fail)
//Storyboard Layer 2 (Pass)
//Storyboard Layer 3 (Foreground)
//Storyboard Sound Samples

[TimingPoints]
23,250,4,1,1,80,1,0
26023,-100,4,1,1,90,0,1
33398,-100,4,1,1,90,0,0
34023,-100,4,1,1,90,0,1
42023,-100,4,2,1,70,0,0
45023,-166.666666666667,4,2,1,70,0,0
45648,-166.666666666667,4,2,1,70,0,0
46023,-142.857142857143,4,1,1,70,0,0
47023,-117.647058823529,4,1,1,70,0,0
48023,-100,4,1,1,80,0,0
50023,-100,4,1,1,70,0,0
53023,-100,4,1,1,70,0,0
54023,-100,4,1,1,70,0,0
57898,-200,4,1,1,70,0,0
59023,-100,4,1,1,70,0,0
61898,-100,4,1,1,80,0,0
66023,-200,4,1,1,80,0,0
69273,-200,4,2,0,60,0,0
70023,-142.857142857143,4,1,1,80,0,1
70085,-142.857142857143,4,1,1,80,0,0
71023,-125,4,1,1,80,0,0
72023,-111.111111111111,4,1,1,80,0,0
73023,-100,4,1,1,80,0,0
74023,-100,4,1,1,90,0,1
81023,-100,4,1,1,90,0,0
82023,-100,4,1,1,90,0,1
89398,-100,4,1,1,90,0,0
90023,-100,4,1,1,90,0,1
98023,-100,4,1,1,80,0,0
110210,-100,4,1,0,10,0,0

[Colours]
Combo1 : 146,80,78
Combo2 : 193,175,102
Combo3 : 215,81,81
Combo4 : 194,208,149

[HitObjects]
239,45,23,6,0,B|243:81|243:81|240:104|240:104|246:146,1,90,4|0,0:0|0:0,0:0:0:0:
244,134,210,1,0,0:0:0:0:
244,134,273,1,0,0:0:0:0:
373,266,398,2,0,L|357:163,1,90,12|0,0:0|0:0,0:0:0:0:
166,120,648,2,0,P|168:162|223:210,1,90,12|0,0:0|0:0,0:0:0:0:
399,40,898,2,0,B|376:30|376:30|296:44,1,90,12|0,0:0|0:0,0:0:0:0:
248,140,1148,5,12,0:0:0:0:
186,279,1273,1,8,0:0:0:0:
166,120,1398,1,0,0:2:0:0:
256,246,1523,2,0,P|263:284|243:331,1,90,8|0,0:0|0:2,0:0:0:0:
208,354,1710,1,0,0:0:0:0:
208,354,1773,2,0,L|103:340,1,90,8|0,0:0|0:2,0:0:0:0:
323,197,2023,5,4,0:0:0:0:
349,305,2148,1,0,0:2:0:0:
433,235,2273,1,0,0:0:0:0:
398,117,2398,2,0,B|363:103|363:103|344:107|344:107|299:97,1,90,12|0,0:0|0:0,0:0:0:0:
174,274,2648,2,0,P|222:268|263:239,1,90,12|0,0:0|0:0,0:0:0:0:
95,78,2898,2,0,B|90:109|90:109|96:126|96:126|90:169,1,90,12|0,0:0|0:0,0:0:0:0:
70,281,3148,5,12,0:0:0:0:
171,163,3273,1,8,0:0:0:0:
8,192,3398,1,8,0:0:0:0:
74,285,3523,1,8,0:0:0:0:
94,275,3585,1,0,0:0:0:0:
115,268,3648,1,0,0:0:0:0:
138,265,3710,1,0,0:0:0:0:
162,267,3773,2,0,P|185:276|206:287,3,45,0|0|0|0,0:0|0:0|0:0|0:0,0:0:0:0:
223,325,4023,6,0,B|262:337|262:337|321:342,1,90,4|0,0:0|0:0,0:0:0:0:
463,260,4273,1,0,0:0:0:0:
277,60,4398,2,0,B|269:96|269:96|289:154,1,90,12|0,0:0|0:0,0:0:0:0:
219,321,4648,2,0,P|220:275|244:234,1,90,12|0,0:0|0:0,0:0:0:0:
345,90,4898,2,0,B|358:118|358:118|356:144|356:144|378:183,1,90,12|0,0:0|0:0,0:0:0:0:
467,264,5148,5,12,0:0:0:0:
475,138,5273,1,8,0:0:0:0:
402,235,5398,1,0,0:0:0:0:
435,73,5523,1,8,0:0:0:0:
444,57,5585,1,0,0:0:0:0:
460,50,5648,1,0,0:0:0:0:
477,52,5710,1,0,0:0:0:0:
491,64,5773,2,0,L|499:115,3,45,8|8|0|0,0:0|0:0|0:0|0:0,0:0:0:0:
475,138,6023,6,0,B|458:179|458:179|461:233,1,90,4|0,0:0|0:0,0:0:0:0:
391,330,6273,1,0,0:0:0:0:
254,178,6398,2,0,B|276:167|276:167|294:175|294:175|356:171,1,90,12|0,0:0|0:0,0:0:0:0:
218,347,6648,2,0,L|101:357,1,90,12|0,0:0|0:0,0:0:0:0:
222,100,6898,2,0,B|255:82|255:82|321:81,1,90,12|0,0:0|0:0,0:0:0:0:
177,286,7148,5,12,0:0:0:0:
168,147,7273,1,8,0:0:0:0:
251,256,7398,1,0,0:0:0:0:
94,169,7523,2,0,P|92:135|108:98,3,45,8|0|0|0,0:0|0:0|0:0|0:0,0:0:0:0:
110,29,7773,1,0,0:0:0:0:
136,33,7835,1,0,0:0:0:0:
163,36,7898,1,0,0:0:0:0:
190,36,7960,1,0,0:0:0:0:
217,33,8023,6,0,B|252:29|252:29|316:47,1,90,0|0,0:0|0:0,0:0:0:0:
346,153,8273,2,0,L|330:197,3,45,8|0|0|0,0:0|0:0|0:0|0:0,0:0:0:0:
365,280,8523,1,8,0:0:0:0:
383,309,8585,1,0,0:0:0:0:
410,328,8647,1,0,0:0:0:0:
443,333,8710,1,0,0:0:0:0:
475,323,8773,2,0,P|497:288|500:265,3,45,8|0|0|0,0:0|0:0|0:0|0:0,0:0:0:0:
476,260,9023,6,0,P|462:208|479:156,1,90,0|8,0:0|0:0,0:0:0:0:
480,73,9210,1,8,0:0:0:0:
480,73,9273,2,0,L|370:71,1,90,8|8,0:0|0:0,0:0:0:0:
291,77,9460,1,0,0:0:0:0:
271,95,9523,1,8,0:0:0:0:
278,250,9648,1,4,0:0:0:0:
278,250,9898,6,0,B|222:232|222:232|97:253,1,180,4|0,0:0|0:0,0:0:0:0:
31,151,10273,2,0,B|58:125|58:125|129:113,1,90,10|0,0:2|0:0,0:0:0:0:
206,162,10460,1,0,0:0:0:0:
206,162,10523,2,0,L|192:52,1,90,10|0,0:2|0:0,0:0:0:0:
54,17,10773,1,10,0:2:0:0:
35,154,10898,1,0,0:0:0:0:
32,176,10960,1,0,0:0:0:0:
35,199,11023,6,0,P|42:234|32:299,1,90,10|0,0:2|0:0,0:0:0:0:
30,80,11273,2,0,B|63:85|63:85|118:147,1,90,10|0,0:2|0:0,0:0:0:0:
169,251,11523,1,8,0:0:0:0:
205,97,11648,1,8,0:0:0:0:
173,255,11773,1,8,0:0:0:0:
209,101,11898,6,0,P|246:102|254:232,1,180,4|0,0:2|0:0,0:0:0:0:
117,85,12273,2,0,B|133:53|133:53|194:18,1,90,10|0,0:2|0:0,0:0:0:0:
276,218,12523,2,0,B|250:256|250:256|227:317,1,90,10|0,0:2|0:0,0:0:0:0:
331,71,12773,2,0,P|378:92|400:151,1,90,10|0,0:2|0:0,0:0:0:0:
375,220,12960,1,0,0:0:0:0:
375,220,13023,6,0,L|378:321,1,90,10|0,0:2|0:0,0:0:0:0:
191,175,13273,2,0,P|215:145|275:129,1,90,10|0,0:2|0:0,0:0:0:0:
279,138,13460,1,0,0:0:0:0:
284,156,13523,1,12,0:0:0:0:
110,181,13648,1,12,0:0:0:0:
233,54,13773,1,12,0:0:0:0:
238,229,13898,6,0,B|179:252|179:252|144:281|144:281|63:312,1,180,4|0,0:0|0:0,0:0:0:0:
35,120,14273,2,0,B|66:129|66:129|148:121,1,90,10|0,0:2|0:0,0:0:0:0:
188,45,14523,2,0,B|157:36|157:36|75:44,1,90,10|0,0:2|0:0,0:0:0:0:
24,195,14773,1,12,0:2:0:0:
217,117,14898,1,12,0:2:0:0:
138,257,15023,5,8,0:0:0:0:
125,273,15085,1,0,0:0:0:0:
108,284,15148,2,0,B|88:296|88:296|68:286|68:286|34:295|9:287,1,90,0|8,0:0|0:0,0:0:0:0:
221,121,15398,2,0,B|247:129|247:129|282:202,1,90,0|10,0:0|0:2,0:0:0:0:
180,337,15648,1,8,0:0:0:0:
171,177,15773,1,10,0:2:0:0:
319,126,15898,6,0,B|296:155|298:200|298:200|249:230|249:230|238:272,1,180,4|8,0:0|0:0,0:0:0:0:
154,80,16273,2,0,P|180:54|247:49,1,90,8|8,0:0|0:0,0:0:0:0:
176,245,16523,1,0,0:0:0:0:
27,212,16648,1,8,0:0:0:0:
69,66,16773,2,0,B|105:60|105:60|170:86,1,90,8|8,0:0|0:0,0:0:0:0:
112,302,17023,6,0,P|92:250|100:210,1,90,8|0,0:0|0:0,0:0:0:0:
332,116,17273,2,0,B|326:148|326:148|314:161|314:161|306:215,1,90,8|0,0:0|0:0,0:0:0:0:
298,353,17523,1,12,0:2:0:0:
260,96,17648,1,12,0:2:0:0:
361,274,17773,1,12,0:2:0:0:
197,175,17898,6,0,B|176:101|223:58|223:58|265:102,1,180,4|0,0:2|0:0,0:0:0:0:
252,281,18273,2,0,B|224:290|224:290|146:274,1,90,10|0,0:2|0:0,0:0:0:0:
90,212,18460,1,0,0:0:0:0:
90,212,18523,2,0,L|68:327,1,90,10|0,0:2|0:0,0:0:0:0:
42,84,18773,2,0,B|69:69|69:69|92:75|92:75|154:65,1,90,10|0,0:2|0:0,0:0:0:0:
140,74,18960,1,0,0:0:0:0:
146,89,19023,5,10,0:2:0:0:
200,233,19148,2,0,B|242:215|242:215|283:177,1,90,0|10,0:0|0:2,0:0:0:0:
379,62,19398,2,0,L|315:49,1,45,0|0,0:0|0:0,0:0:0:0:
352,141,19523,1,8,0:0:0:0:
385,145,19585,1,0,0:0:0:0:
417,137,19648,1,0,0:0:0:0:
443,116,19710,1,0,0:0:0:0:
459,87,19773,1,8,0:0:0:0:
335,53,19898,6,0,L|371:249,1,180,4|0,0:0|0:0,0:0:0:0:
459,87,20273,2,0,B|448:38|397:21,1,90,10|0,0:2|0:0,0:0:0:0:
275,15,20460,1,0,0:0:0:0:
263,51,20523,2,0,L|280:147,1,90,10|0,0:2|0:0,0:0:0:0:
164,312,20773,2,0,B|178:281|178:281|167:213,1,90,10|0,0:2|0:0,0:0:0:0:
73,67,21023,6,0,P|64:84|60:119,3,45,8|0|0|0,0:0|0:0|0:0|0:0,0:0:0:0:
53,195,21273,1,8,0:0:0:0:
86,191,21335,1,0,0:0:0:0:
116,176,21398,1,0,0:0:0:0:
146,161,21460,1,0,0:0:0:0:
179,158,21523,2,0,B|220:174|220:174|255:216,1,90,8|8,0:0|0:0,0:0:0:0:
210,375,21773,1,8,0:0:0:0:
167,81,21898,6,0,B|287:125|287:125|272:98|283:62,1,180,4|0,0:0|0:0,0:0:0:0:
111,28,22273,2,0,P|90:66|99:117,1,90,10|0,0:2|0:0,0:0:0:0:
161,166,22460,1,0,0:0:0:0:
161,166,22523,2,0,B|175:144|175:144|167:78,1,90,10|0,0:2|0:0,0:0:0:0:
9,32,22773,1,12,0:2:0:0:
78,227,22898,1,12,0:0:0:0:
240,107,23023,6,0,P|279:95|359:100,1,90,12|0,0:2|0:0,0:0:0:0:
289,286,23273,2,0,B|256:275|256:275|225:217,1,90,8|0,0:0|0:0,0:0:0:0:
123,68,23523,1,8,0:0:0:0:
3,202,23648,1,0,0:0:0:0:
163,284,23773,1,8,0:0:0:0:
37,78,23898,6,0,B|70:118|68:154|68:154|117:174|117:174|146:238,1,180,4|0,0:0|0:0,0:0:0:0:
337,143,24273,2,0,B|319:101|319:101|276:63,1,90,8|0,0:0|0:0,0:0:0:0:
396,270,24523,1,8,0:0:0:0:
470,171,24648,1,0,0:0:0:0:
388,72,24773,2,0,B|354:102|354:102|336:144,1,90,8|0,0:0|0:0,0:0:0:0:
305,302,25023,5,8,0:0:0:0:
241,197,25148,1,8,0:0:0:0:
286,72,25273,2,0,L|193:37,1,90,8|8,0:0|0:0,0:0:0:0:
64,39,25523,1,8,0:0:0:0:
62,69,25585,1,0,0:0:0:0:
61,99,25648,1,0,0:0:0:0:
59,129,25710,1,0,0:0:0:0:
69,156,25773,1,8,0:0:0:0:
67,186,25835,1,0,0:0:0:0:
66,216,25898,1,0,0:0:0:0:
64,246,25960,1,0,0:0:0:0:
88,278,26023,6,0,B|111:261|111:261|193:254,1,90,6|8,0:0|0:0,0:0:0:0:
382,164,26273,2,0,B|369:189|369:189|371:197|371:197|346:216|346:216|329:253,1,90,2|8,0:3|0:0,0:0:0:0:
197,185,26523,1,2,0:3:0:0:
321,116,26648,1,8,0:0:0:0:
278,293,26773,2,0,B|261:268|261:268|260:196,1,90,2|8,0:3|0:0,0:0:0:0:
302,41,27023,6,0,P|346:43|391:81,1,90,2|8,0:0|0:0,0:0:0:0:
332,230,27273,1,2,0:3:0:0:
231,114,27398,1,10,0:0:0:0:
174,295,27523,2,0,B|150:284|150:284|138:206,1,90,2|8,0:3|0:0,0:0:0:0:
230,24,27773,2,0,L|232:136,1,90,2|8,0:0|0:0,0:0:0:0:
77,191,28023,6,0,P|116:155|172:163,1,90,6|8,0:0|0:0,0:0:0:0:
311,258,28273,1,2,0:3:0:0:
319,151,28398,1,8,0:0:0:0:
223,198,28523,1,2,0:3:0:0:
317,272,28648,1,8,0:0:0:0:
231,114,28773,1,2,0:3:0:0:
228,91,28835,1,0,0:0:0:0:
233,70,28898,1,8,0:0:0:0:
358,65,29023,6,0,B|395:70|395:70|460:118,1,90,2|8,0:0|0:0,0:0:0:0:
431,260,29273,1,2,0:3:0:0:
285,353,29398,2,0,B|292:311|292:311|326:257,1,90,10|2,0:0|0:3,0:0:0:0:
473,182,29648,2,0,B|450:191|450:191|429:184|429:184|387:192,1,90,10|2,0:0|0:3,0:0:0:0:
221,220,29898,1,10,0:0:0:0:
273,74,30023,6,0,P|298:61|383:83,1,90,6|8,0:0|0:0,0:0:0:0:
308,238,30273,1,2,0:3:0:0:
181,154,30398,2,0,B|153:146|153:146|81:173,1,90,10|2,0:0|0:3,0:0:0:0:
63,341,30648,1,8,0:0:0:0:
234,308,30773,2,0,P|230:259|214:201,1,90,2|8,0:0|0:0,0:0:0:0:
103,31,31023,6,0,B|100:67|100:67|115:132,1,90,2|8,0:0|0:0,0:0:0:0:
296,230,31273,1,2,0:3:0:0:
302,234,31335,1,0,0:0:0:0:
308,238,31398,2,0,L|292:142,1,90,10|2,0:0|0:3,0:0:0:0:
179,66,31648,2,0,B|203:89|203:89|278:81,1,90,10|2,0:0|0:3,0:0:0:0:
369,26,31898,1,10,0:0:0:0:
103,31,32023,6,0,P|94:72|117:122,1,90,6|8,0:0|0:0,0:0:0:0:
193,305,32273,2,0,B|208:281|208:281|203:209,1,90,2|8,0:0|0:0,0:0:0:0:
261,35,32523,2,0,B|272:66|272:66|270:83|270:83|293:134,1,90,2|8,0:0|0:0,0:0:0:0:
338,304,32773,2,0,B|338:251|291:225,1,90,2|8,0:0|0:0,0:0:0:0:
106,132,33023,6,0,B|97:153|97:153|119:226,2,90,2|8|2,0:0|0:0|0:3,0:0:0:0:
155,26,33398,1,10,0:0:0:0:
24,181,33523,1,10,0:0:0:0:
203,217,33648,1,8,0:0:0:0:
60,335,33773,1,10,0:0:0:0:
55,301,33835,1,0,0:0:0:0:
64,269,33898,1,10,0:0:0:0:
84,243,33960,1,0,0:0:0:0:
114,227,34023,6,0,B|148:230|148:230|213:214,1,90,6|8,0:0|0:0,0:0:0:0:
373,56,34273,2,0,B|338:56|338:56|280:78,1,90,2|8,0:3|0:0,0:0:0:0:
148,160,34523,1,2,0:3:0:0:
91,69,34648,1,8,0:0:0:0:
210,74,34773,1,2,0:3:0:0:
210,74,34835,1,0,0:0:0:0:
210,74,34898,1,8,0:0:0:0:
51,135,35023,6,0,P|16:95|16:40,1,90,2|8,0:0|0:0,0:0:0:0:
214,78,35273,1,2,0:3:0:0:
186,221,35398,2,0,B|178:249|178:249|177:287|177:287|158:340,1,90,10|2,0:0|0:3,0:0:0:0:
26,349,35648,1,8,0:0:0:0:
148,160,35773,2,0,P|185:150|241:176,1,90,2|8,0:0|0:0,0:0:0:0:
348,315,36023,6,0,L|358:206,1,90,6|8,0:0|0:0,0:0:0:0:
374,23,36273,1,2,0:3:0:0:
252,174,36398,1,8,0:0:0:0:
433,127,36523,2,0,B|457:121|457:121|464:99|464:99|506:54,1,90,2|8,0:3|0:0,0:0:0:0:
268,48,36773,1,2,0:3:0:0:
357,204,36898,1,8,0:0:0:0:
272,52,37023,6,0,B|234:47|234:47|168:64,1,90,2|8,0:0|0:0,0:0:0:0:
75,265,37273,1,2,0:3:0:0:
68,270,37335,1,0,0:0:0:0:
61,275,37398,2,0,L|60:176,1,90,10|2,0:0|0:3,0:0:0:0:
191,67,37648,2,0,P|205:119|196:172,1,90,10|2,0:0|0:3,0:0:0:0:
139,309,37898,1,10,0:0:0:0:
23,102,38023,6,0,B|46:93|46:93|63:108|63:108|105:119,1,90,6|8,0:0|0:0,0:0:0:0:
253,243,38273,1,2,0:3:0:0:
253,243,38335,1,0,0:0:0:0:
253,243,38398,2,0,P|269:195|273:146,1,90,10|2,0:0|0:3,0:0:0:0:
184,44,38648,1,8,0:0:0:0:
147,214,38773,2,0,L|126:315,1,90,2|8,0:0|0:0,0:0:0:0:
311,367,39023,6,0,B|326:340|326:340|336:261,1,90,2|8,0:0|0:0,0:0:0:0:
278,35,39273,2,0,P|253:89|256:133,1,90,2|10,0:3|0:0,0:0:0:0:
416,301,39523,2,0,B|408:267|408:267|410:248|410:248|399:198,1,90,2|10,0:3|0:0,0:0:0:0:
176,141,39773,1,2,0:3:0:0:
299,253,39898,1,10,0:0:0:0:
204,68,40023,5,6,0:0:0:0:
170,63,40085,1,0,0:0:0:0:
138,71,40148,1,0,0:0:0:0:
112,92,40210,1,0,0:0:0:0:
96,122,40273,1,4,0:0:0:0:
92,155,40335,1,0,0:0:0:0:
104,187,40398,2,0,P|113:215|114:242,3,45,0|0|2|0,0:0|0:0|0:3|0:0,0:0:0:0:
110,276,40648,1,4,0:2:0:0:
205,79,40773,2,0,B|224:43|224:43|279:-1,1,90,2|4,0:3|0:2,0:0:0:0:
299,253,41023,6,0,B|279:288|279:288|224:333,1,90,2|0,0:3|0:0,0:0:0:0:
92,155,41273,2,0,L|197:154,1,90,4|0,0:0|0:0,0:0:0:0:
349,184,41523,1,4,0:0:0:0:
375,162,41585,1,0,0:0:0:0:
390,133,41648,1,0,0:0:0:0:
393,99,41710,1,0,0:0:0:0:
382,68,41773,1,2,0:3:0:0:
361,42,41835,1,0,0:0:0:0:
331,28,41898,1,0,0:0:0:0:
326,61,41960,1,0,0:0:0:0:
322,95,42023,5,4,0:2:0:0:
244,166,44023,5,0,0:0:0:0:
248,170,44523,1,0,0:0:0:0:
252,174,45023,2,0,L|297:186,2,26.9999991760254,0|0|0,0:0|0:0|0:0,0:0:0:0:
182,137,45273,1,0,0:0:0:0:
179,57,45398,1,0,0:0:0:0:
250,31,45523,2,0,L|278:29,1,26.9999991760254,0|0,1:0|1:0,0:0:0:0:
297,37,45648,2,0,B|321:62|321:62|345:68|345:68|385:105,1,107.999996704102,0|0,1:0|0:0,0:0:0:0:
409,207,46023,6,0,P|373:202|342:206,1,62.9999980773926,4|0,0:0|0:0,0:0:0:0:
281,272,46273,2,0,P|246:260|197:250,1,62.9999980773926,0|0,0:0|0:0,0:0:0:0:
147,313,46523,2,0,P|118:325|75:335,1,62.9999980773926,8|0,0:0|0:0,0:0:0:0:
18,268,46773,1,0,0:0:0:0:
36,175,46898,1,0,0:0:0:0:
113,229,47023,6,0,P|154:234|197:227,1,76.5000014591217,8|0,0:0|0:0,0:0:0:0:
295,185,47273,2,0,B|281:164|281:164|272:136|272:136|253:106,1,76.5000014591217,0|0,0:0|0:0,0:0:0:0:
168,49,47523,2,0,L|123:153,1,76.5000014591217,8|0,0:0|0:0,0:0:0:0:
193,219,47773,1,8,0:0:0:0:
252,120,47898,1,8,0:0:0:0:
322,216,48023,5,8,0:0:0:0:
355,221,48085,1,0,0:0:0:0:
387,213,48148,1,0,0:0:0:0:
415,194,48210,1,0,0:0:0:0:
433,166,48273,1,0,0:0:0:0:
369,52,48398,2,0,B|356:81|356:81|353:151,1,90,4|0,0:2|0:0,0:0:0:0:
268,339,48648,2,0,B|259:311|259:311|262:291|262:291|248:239,1,90,4|0,0:2|0:0,0:0:0:0:
212,118,48898,1,0,0:0:0:0:
100,51,49023,5,0,0:0:0:0:
79,77,49085,1,0,0:0:0:0:
73,110,49148,1,0,0:0:0:0:
76,144,49210,1,0,0:0:0:0:
81,177,49273,1,0,0:0:0:0:
78,211,49335,1,0,0:0:0:0:
68,243,49398,2,0,L|41:285,2,45,8|8|0,0:0|1:0|0:0,0:0:0:0:
187,155,49648,2,0,L|211:117,2,45,0|0|8,0:0|0:0|0:0,0:0:0:0:
118,302,49898,1,8,0:0:0:0:
149,84,50023,6,0,P|175:56|246:57,1,90,4|0,0:0|0:0,0:0:0:0:
376,84,50273,2,0,B|365:120|365:120|367:135|367:135|356:177,1,90,0|0,0:0|0:0,0:0:0:0:
308,321,50523,2,0,B|284:302|284:302|218:293,1,90,8|0,0:0|0:0,0:0:0:0:
89,162,50773,1,0,0:0:0:0:
227,197,50898,1,0,0:0:0:0:
118,302,51023,6,0,B|116:272|116:272|135:253|135:253|152:207,1,90,8|0,0:0|0:0,0:0:0:0:
195,86,51273,1,0,0:0:0:0:
301,203,51398,1,0,0:0:0:0:
216,344,51523,2,0,B|214:312|214:312|221:289|221:289|219:229,1,90,8|0,0:0|0:0,0:0:0:0:
190,79,51773,1,0,0:0:0:0:
150,224,51898,1,0,0:0:0:0:
194,83,52023,6,0,P|239:60|345:153,1,180,12|0,0:0|0:0,0:0:0:0:
324,316,52398,1,0,0:0:0:0:
415,192,52523,2,0,P|426:136|418:95,1,90,8|0,0:0|0:0,0:0:0:0:
265,18,52773,1,8,0:0:0:0:
277,168,52898,1,0,0:0:0:0:
394,40,53023,5,8,0:0:0:0:
428,33,53085,1,0,0:0:0:0:
462,46,53148,1,0,0:0:0:0:
485,72,53210,1,0,0:0:0:0:
499,107,53273,2,0,P|501:140|496:167,3,45,8|0|0|0,0:0|0:0|0:0|0:0,0:0:0:0:
492,196,53523,1,8,0:0:0:0:
325,228,53648,1,8,0:0:0:0:
428,111,53773,1,8,0:0:0:0:
410,276,53898,1,8,0:0:0:0:
328,82,54023,6,0,B|293:76|293:76|240:87,1,90,4|0,0:0|0:0,0:0:0:0:
145,203,54273,2,0,P|99:216|48:203,1,90,0|0,0:0|0:0,0:0:0:0:
65,41,54523,2,0,B|81:71|81:71|80:91|80:91|100:130,1,90,8|0,0:0|0:0,0:0:0:0:
175,302,54773,1,0,0:0:0:0:
191,133,54898,1,0,0:0:0:0:
14,129,55023,6,0,L|70:229,1,90,8|0,0:0|0:0,0:0:0:0:
175,302,55273,2,0,B|179:268|179:268|210:198,1,90,0|0,0:0|0:0,0:0:0:0:
320,104,55523,1,8,0:0:0:0:
292,277,55648,1,0,0:0:0:0:
191,133,55773,1,0,0:0:0:0:
374,217,55898,6,0,P|388:261|376:330,1,90,0|12,0:0|0:0,0:0:0:0:
233,360,56148,1,0,0:0:0:0:
265,166,56273,2,0,B|288:138|288:138|362:110,1,90,0|0,0:0|0:0,0:0:0:0:
210,230,56523,2,0,P|182:178|241:86,1,180,8|8,0:0|0:0,0:0:0:0:
302,238,56898,1,0,0:0:0:0:
326,81,57023,5,8,0:0:0:0:
341,51,57085,1,0,0:0:0:0:
366,28,57148,1,0,0:0:0:0:
397,17,57210,1,0,0:0:0:0:
431,18,57273,2,0,P|458:34|471:56,3,45,8|0|0|0,0:0|0:0|0:0|0:0,0:0:0:0:
484,87,57523,1,8,0:0:0:0:
404,268,57648,1,8,0:0:0:0:
412,260,57898,6,0,B|420:225|395:190|395:190|373:150|386:107|416:87,1,180,14|0,0:2|0:0,0:0:0:0:
489,249,58523,2,0,P|485:286|458:325,2,67.5,4|4|4,0:0|0:0|0:0,0:0:0:0:
488,112,59023,6,0,L|473:64,3,45,0|0|0|0,0:0|0:0|0:0|0:0,0:0:0:0:
373,143,59273,2,0,L|365:202,3,45,0|0|0|0,0:0|0:0|0:0|0:0,0:0:0:0:
318,58,59523,1,8,0:0:0:0:
287,45,59585,1,8,0:0:0:0:
254,52,59648,1,8,0:0:0:0:
231,75,59710,1,8,0:0:0:0:
225,108,59773,1,8,0:0:0:0:
227,142,59835,1,8,0:0:0:0:
235,174,59898,1,8,0:0:0:0:
242,207,59960,1,8,0:0:0:0:
237,240,60023,6,0,B|228:288|228:288|235:313|235:313|220:381,2,135,12|4|4,0:0|0:0|0:0,0:0:0:0:
231,75,60523,2,0,L|199:33,3,45,8|0|0|0,0:0|0:0|0:0|0:0,0:0:0:0:
115,42,60773,2,0,B|105:64|105:64|99:143,1,90,8|0,0:0|0:0,0:0:0:0:
139,226,60960,1,0,0:0:0:0:
139,226,61023,6,0,P|145:272|137:333,1,90,12|4,0:0|0:0,0:0:0:0:
231,75,61273,2,0,P|257:46|323:29,1,90,12|4,0:0|0:0,0:0:0:0:
454,188,61523,1,12,0:0:0:0:
268,139,61648,1,0,0:0:0:0:
451,67,61773,1,8,0:0:0:0:
296,235,61898,6,0,B|252:269|252:269|191:276|191:276|139:316,1,180,4|0,0:0|0:2,0:0:0:0:
149,109,62273,2,0,B|182:87|182:87|232:73,1,90,10|0,0:2|0:0,0:0:0:0:
442,236,62523,2,0,B|455:273|455:273|456:325,1,90,10|0,0:2|0:0,0:0:0:0:
296,235,62773,1,10,0:2:0:0:
500,194,62898,1,8,0:0:0:0:
388,378,63023,6,0,B|357:362|334:322|338:289|338:289|308:269|308:269|293:229,1,180,10|10,0:2|0:2,0:0:0:0:
216,59,63398,1,8,0:0:0:0:
95,209,63523,2,0,B|80:241|80:241|80:303,1,90,10|8,0:2|0:0,0:0:0:0:
92,310,63710,1,0,0:0:0:0:
110,318,63773,1,8,0:0:0:0:
234,207,63898,1,0,0:0:0:0:
86,100,64023,6,0,P|43:113|13:152,1,90,12|2,0:0|0:2,0:0:0:0:
110,318,64273,1,8,0:0:0:0:
110,318,64398,2,0,L|135:220,1,90,6|0,0:2|0:0,0:0:0:0:
298,91,64648,2,0,L|277:188,1,90,6|0,0:2|0:0,0:0:0:0:
242,357,64898,1,6,0:2:0:0:
132,230,65023,5,8,0:0:0:0:
125,186,65085,1,0,0:0:0:0:
142,145,65148,1,0,0:0:0:0:
179,119,65210,1,0,0:0:0:0:
223,117,65273,2,0,P|258:133|272:168,3,45,8|0|0|0,0:0|0:0|0:0|0:0,0:0:0:0:
278,178,65523,2,0,B|275:223|275:223|286:251|286:251|322:240|362:266,1,135,12|0,0:0|0:0,0:0:0:0:
198,42,66023,5,4,0:2:0:0:
269,319,69523,6,0,B|261:285|271:253|271:253|282:219|268:171,1,135,2|0,2:0|0:0,0:0:0:0:
185,93,70023,6,0,P|178:124|178:160,1,62.9999980773926,12|0,0:0|0:0,0:0:0:0:
278,67,70273,2,0,P|281:22|279:-8,1,62.9999980773926,0|0,0:0|0:0,0:0:0:0:
372,128,70523,2,0,P|367:182|369:216,1,62.9999980773926,8|0,0:0|0:0,0:0:0:0:
268,298,70773,2,0,P|272:249|270:216,1,62.9999980773926,0|0,0:0|0:0,0:0:0:0:
101,138,71023,6,0,P|94:190|170:250,1,144,8|0,0:0|0:0,0:0:0:0:
257,166,71398,1,0,0:0:0:0:
151,75,71523,2,0,P|97:70|28:86,1,108,8|0,0:0|0:0,0:0:0:0:
8,88,71773,2,0,P|5:39|16:-6,1,72,0|0,0:0|0:0,0:0:0:0:
230,50,72023,5,12,0:0:0:0:
245,75,72085,1,0,0:0:0:0:
250,105,72148,1,0,0:0:0:0:
245,135,72210,1,0,0:0:0:0:
230,161,72273,1,8,0:0:0:0:
151,75,72398,2,0,P|156:30|176:1,1,80.9999975280763,4|0,0:2|0:0,0:0:0:0:
319,148,72648,2,0,B|323:179|323:179|318:200|318:200|325:264,1,80.9999975280763,4|0,0:2|0:0,0:0:0:0:
227,332,72898,1,0,0:0:0:0:
250,105,73023,6,0,B|279:75|279:75|313:71|313:71|347:81|361:114|429:85,1,180,0|0,0:0|0:0,0:0:0:0:
321,227,73398,1,4,0:0:0:0:
148,148,73523,1,0,0:0:0:0:
148,148,73585,1,0,0:0:0:0:
148,148,73648,1,4,0:0:0:0:
287,2,73773,1,4,0:0:0:0:
313,0,73835,1,0,0:0:0:0:
340,0,73898,1,4,0:0:0:0:
365,9,73960,1,0,0:0:0:0:
387,25,74023,6,0,B|396:60|396:60|386:143,1,90,6|8,0:0|0:0,0:0:0:0:
318,309,74273,2,0,B|319:265|319:265|308:198,1,90,2|8,0:3|0:0,0:0:0:0:
204,95,74523,1,2,0:3:0:0:
212,273,74648,1,8,0:0:0:0:
308,140,74773,1,2,0:3:0:0:
308,140,74835,1,0,0:0:0:0:
308,140,74898,1,8,0:0:0:0:
105,212,75023,6,0,P|92:260|101:307,1,90,2|8,0:0|0:0,0:0:0:0:
274,214,75273,1,2,0:3:0:0:
133,126,75398,2,0,P|80:128|29:155,1,90,10|2,0:0|0:3,0:0:0:0:
206,305,75648,1,8,0:0:0:0:
218,117,75773,2,0,B|223:83|223:83|260:21,1,90,2|8,0:0|0:0,0:0:0:0:
362,208,76023,6,0,B|358:244|358:244|360:265|360:265|354:326,1,90,6|8,0:0|0:0,0:0:0:0:
137,215,76273,2,0,B|140:178|140:178|129:100,1,90,2|8,0:3|0:0,0:0:0:0:
25,260,76523,1,2,0:3:0:0:
137,344,76648,1,8,0:0:0:0:
69,170,76773,1,2,0:3:0:0:
69,170,76835,1,0,0:0:0:0:
69,170,76898,1,8,0:0:0:0:
141,348,77023,6,0,P|158:300|190:266,1,90,2|8,0:0|0:0,0:0:0:0:
358,177,77273,1,2,0:3:0:0:
364,183,77335,1,0,0:0:0:0:
370,189,77398,2,0,L|369:289,1,90,10|2,0:0|0:3,0:0:0:0:
183,271,77648,2,0,P|191:204|176:142,1,90,10|2,0:0|0:3,0:0:0:0:
154,46,77898,1,10,0:0:0:0:
84,254,78023,6,0,B|82:285|82:285|94:363,1,90,6|8,0:0|0:0,0:0:0:0:
288,298,78273,1,2,0:3:0:0:
134,171,78398,2,0,P|83:161|12:184,1,90,10|2,0:0|0:3,0:0:0:0:
175,346,78648,1,8,0:0:0:0:
238,178,78773,2,0,B|245:152|245:152|260:132|260:132|272:89,1,90,2|8,0:0|0:0,0:0:0:0:
447,33,79023,6,0,B|461:63|461:63|461:151,1,90,2|8,0:0|0:0,0:0:0:0:
345,236,79273,1,2,0:3:0:0:
268,69,79398,2,0,P|224:47|177:47,1,90,10|2,0:0|0:3,0:0:0:0:
111,203,79648,2,0,P|119:249|108:307,1,90,10|2,0:0|0:3,0:0:0:0:
43,97,79898,1,10,0:0:0:0:
222,148,80023,6,0,B|247:162|247:162|278:221,1,90,6|8,0:0|0:0,0:0:0:0:
364,370,80273,1,2,0:3:0:0:
364,370,80335,1,0,0:0:0:0:
364,370,80398,1,8,0:0:0:0:
353,174,80523,2,0,P|356:115|375:72,1,90,2|8,0:3|0:0,0:0:0:0:
406,284,80773,1,2,0:3:0:0:
406,284,80835,1,0,0:0:0:0:
406,284,80898,1,8,0:0:0:0:
266,136,81023,5,2,0:0:0:0:
221,141,81085,1,0,0:0:0:0:
188,170,81148,1,0,0:0:0:0:
175,212,81210,1,0,0:0:0:0:
179,258,81273,2,0,P|183:286|181:321,3,45,2|0|8|0,0:3|0:0|0:0|0:0,0:0:0:0:
163,342,81523,2,0,B|99:350|59:337,1,90,10|8,0:0|0:0,0:0:0:0:
136,130,81773,1,8,0:0:0:0:
180,124,81835,1,0,0:0:0:0:
221,141,81898,1,8,0:0:0:0:
249,176,81960,1,0,0:0:0:0:
264,219,82023,6,0,B|260:249|260:249|265:272|265:272|258:324,1,90,6|8,0:0|0:0,0:0:0:0:
136,130,82273,2,0,B|143:98|143:98|176:36,1,90,2|8,0:3|0:0,0:0:0:0:
376,5,82523,1,2,0:3:0:0:
266,136,82648,1,8,0:0:0:0:
425,75,82773,2,0,P|475:74|513:90,1,90,2|8,0:3|0:0,0:0:0:0:
351,227,83023,6,0,B|320:233|320:233|247:214,1,90,6|8,0:0|0:0,0:0:0:0:
320,59,83273,1,2,0:3:0:0:
427,211,83398,2,0,P|428:243|393:312,1,90,10|2,0:0|0:3,0:0:0:0:
254,361,83648,1,8,0:0:0:0:
239,169,83773,2,0,P|230:126|203:76,1,90,2|8,0:0|0:0,0:0:0:0:
388,13,84023,6,0,P|367:53|358:96,1,90,6|8,0:0|0:0,0:0:0:0:
340,286,84273,1,2,0:3:0:0:
432,175,84398,1,8,0:0:0:0:
303,150,84523,1,2,0:3:0:0:
335,301,84648,1,8,0:0:0:0:
432,175,84773,1,2,0:3:0:0:
433,152,84835,1,0,0:0:0:0:
427,131,84898,1,8,0:0:0:0:
291,70,85023,6,0,P|250:84|223:128,1,90,6|8,0:0|0:0,0:0:0:0:
199,297,85273,1,2,0:3:0:0:
303,150,85398,2,0,B|327:142|327:142|410:157,1,90,14|2,0:0|0:3,0:0:0:0:
291,308,85648,1,14,0:0:0:0:
224,125,85773,1,2,0:3:0:0:
224,125,85835,1,0,0:0:0:0:
224,125,85898,1,14,0:0:0:0:
370,238,86023,6,0,P|417:236|468:194,1,90,6|8,0:0|0:0,0:0:0:0:
474,29,86273,1,2,0:3:0:0:
291,70,86398,2,0,P|245:78|178:63,1,90,14|2,0:0|0:3,0:0:0:0:
38,9,86648,1,8,0:0:0:0:
142,189,86773,2,0,B|150:220|150:220|164:234|164:234|183:283,1,90,6|8,0:0|0:0,0:0:0:0:
291,70,87023,6,0,B|313:46|313:46|381:25,1,90,6|8,0:0|0:0,0:0:0:0:
456,207,87273,1,2,0:3:0:0:
463,214,87335,1,0,0:0:0:0:
469,220,87398,2,0,L|462:339,1,90,14|2,0:0|0:3,0:0:0:0:
263,227,87648,2,0,P|271:180|310:133,1,90,14|2,0:0|0:3,0:0:0:0:
422,11,87898,1,14,0:0:0:0:
347,237,88023,6,0,P|339:284|300:331,1,90,6|8,0:0|0:0,0:0:0:0:
199,131,88273,2,0,B|191:93|191:93|160:34,1,90,6|8,0:0|0:0,0:0:0:0:
137,292,88523,2,0,B|123:320|123:320|125:341|125:341|106:380,1,90,6|8,0:0|0:0,0:0:0:0:
286,131,88773,2,0,B|294:93|294:93|325:34,1,90,6|8,0:0|0:0,0:0:0:0:
372,292,89023,6,0,B|386:320|386:320|384:341|384:341|403:380,2,90,6|0|2,0:0|0:0|0:3,0:0:0:0:
286,131,89398,1,14,0:0:0:0:
434,180,89523,1,14,0:0:0:0:
293,309,89648,1,12,0:0:0:0:
472,350,89773,1,10,0:0:0:0:
494,311,89835,1,0,0:0:0:0:
500,267,89898,1,14,0:0:0:0:
487,224,89960,1,0,0:0:0:0:
457,189,90023,6,0,L|362:200,1,90,6|8,0:0|0:0,0:0:0:0:
192,106,90273,2,0,B|217:101|217:101|285:123,1,90,2|8,0:3|0:0,0:0:0:0:
319,315,90523,1,2,0:3:0:0:
191,254,90648,1,8,0:0:0:0:
299,198,90773,1,2,0:3:0:0:
299,198,90835,1,0,0:0:0:0:
299,198,90898,1,8,0:0:0:0:
229,338,91023,6,0,B|204:343|204:343|136:321,1,90,6|8,0:0|0:0,0:0:0:0:
299,198,91273,1,2,0:3:0:0:
407,292,91398,2,0,L|393:381,1,90,10|2,0:0|0:3,0:0:0:0:
303,202,91648,1,8,0:0:0:0:
465,140,91773,2,0,P|488:184|482:249,1,90,2|8,0:0|0:0,0:0:0:0:
307,206,92023,6,0,P|284:162|290:97,1,90,6|8,0:0|0:0,0:0:0:0:
141,27,92273,1,2,0:3:0:0:
162,183,92398,1,8,0:0:0:0:
262,33,92523,2,0,P|314:38|360:82,1,90,2|8,0:3|0:0,0:0:0:0:
408,221,92773,1,2,0:3:0:0:
233,170,92898,1,8,0:0:0:0:
400,114,93023,6,0,B|440:112|440:112|499:128,1,90,6|0,0:0|0:0,0:0:0:0:
442,304,93273,1,2,0:3:0:0:
400,114,93398,2,0,P|391:66|400:13,1,90,14|2,0:0|0:3,0:0:0:0:
297,261,93648,2,0,P|306:309|297:362,1,90,14|2,0:0|0:3,0:0:0:0:
227,142,93898,1,14,0:0:0:0:
408,221,94023,6,0,B|429:250|429:250|420:322,1,90,6|12,0:0|0:0,0:0:0:0:
211,347,94273,1,2,0:3:0:0:
227,142,94398,1,10,0:0:0:0:
227,142,94460,1,0,0:0:0:0:
227,142,94523,2,0,L|230:23,1,90,4|8,0:0|0:0,0:0:0:0:
73,195,94773,2,0,B|69:228|69:228|83:297,1,90,6|8,0:0|0:0,0:0:0:0:
316,136,95023,6,0,B|320:103|320:103|306:34,1,90,6|8,0:0|0:0,0:0:0:0:
135,108,95273,1,2,0:3:0:0:
128,282,95398,2,0,P|127:337|144:383,1,90,14|2,0:0|0:3,0:0:0:0:
226,311,95585,1,0,0:0:0:0:
226,311,95648,2,0,P|227:256|210:210,1,90,14|2,0:0|0:3,0:0:0:0:
43,119,95898,1,14,0:0:0:0:
183,26,96023,5,12,0:0:0:0:
225,12,96085,1,0,0:0:0:0:
269,20,96148,1,14,0:0:0:0:
305,46,96210,1,0,0:0:0:0:
325,86,96273,1,8,0:0:0:0:
325,130,96335,1,0,0:0:0:0:
315,176,96398,2,0,P|307:224|312:248,3,45,12|0|8|0,0:0|0:0|0:0|0:0,0:0:0:0:
316,266,96648,1,12,0:0:0:0:
422,134,96773,2,0,L|456:75,2,45,8|0|12,0:0|0:0|0:0,0:0:0:0:
223,124,97023,6,0,B|175:130|126:103|126:104,1,90,8|12,0:0|0:0,0:0:0:0:
333,46,97273,1,8,0:0:0:0:
313,182,97398,1,12,0:0:0:0:
333,46,97523,1,12,0:0:0:0:
372,25,97585,1,0,0:0:0:0:
417,23,97648,1,12,0:0:0:0:
458,40,97710,1,8,0:0:0:0:
489,72,97773,2,0,P|496:110|485:153,3,45,8|8|8|8,0:0|0:0|0:0|0:0,0:0:0:0:
463,150,98023,6,0,B|452:185|452:185|453:202|453:202|438:248,1,90,4|0,0:0|0:0,0:0:0:0:
441,236,98210,1,0,0:0:0:0:
441,236,98273,1,0,0:0:0:0:
313,130,98398,2,0,B|310:91|310:91|337:37,1,90,12|0,0:0|0:0,0:0:0:0:
512,285,98648,2,0,P|479:315|434:322,1,90,12|0,0:0|0:0,0:0:0:0:
417,96,98898,2,0,B|446:94|446:94|468:117|468:117|499:130,1,90,12|0,0:0|0:0,0:0:0:0:
348,263,99148,5,12,0:0:0:0:
232,172,99273,1,8,0:0:0:0:
391,160,99398,1,0,0:0:0:0:
222,245,99523,2,0,P|183:228|158:180,1,90,8|0,0:0|0:0,0:0:0:0:
163,143,99710,1,0,0:0:0:0:
163,143,99773,2,0,P|173:87|171:47,1,90,8|0,0:0|0:0,0:0:0:0:
89,228,100023,5,4,0:0:0:0:
141,342,100148,1,0,0:0:0:0:
222,245,100273,1,0,0:0:0:0:
163,143,100398,2,0,B|128:137|128:137|101:146|101:146|45:142,1,90,12|0,0:0|0:0,0:0:0:0:
251,331,100648,2,0,B|277:306|277:306|300:240,1,90,12|0,0:0|0:0,0:0:0:0:
341,78,100898,2,0,L|369:192,1,90,12|0,0:0|0:0,0:0:0:0:
428,320,101148,5,12,0:0:0:0:
442,166,101273,1,8,0:0:0:0:
346,289,101398,1,0,0:0:0:0:
501,229,101523,1,8,0:0:0:0:
511,197,101585,1,0,0:0:0:0:
512,163,101648,1,0,0:0:0:0:
506,130,101710,1,0,0:0:0:0:
490,101,101773,2,0,B|470:84|420:87,3,45,8|0|0|0,0:0|0:0|0:0|0:0,0:0:0:0:
381,125,102023,6,0,B|357:136|357:136|273:129,1,90,8|8,0:0|0:0,0:0:0:0:
144,29,102273,1,8,0:0:0:0:
375,35,102398,2,0,L|382:144,1,90,12|0,0:0|0:0,0:0:0:0:
189,201,102648,2,0,B|186:166|186:166|204:90,1,90,12|0,0:0|0:0,0:0:0:0:
346,289,102898,2,0,B|349:322|349:322|337:347|337:347|340:380,1,90,12|0,0:0|0:0,0:0:0:0:
267,217,103148,5,8,0:0:0:0:
305,195,103210,1,0,0:0:0:0:
350,189,103273,1,8,0:0:0:0:
393,200,103335,1,0,0:0:0:0:
429,226,103398,1,8,0:0:0:0:
254,299,103523,2,0,L|142:281,1,90,8|8,0:0|0:0,0:0:0:0:
355,117,103773,2,0,L|443:131,1,90,8|0,0:0|0:0,0:0:0:0:
254,299,104023,6,0,B|265:232|265:232|284:252,1,90,4|0,0:0|0:0,0:0:0:0:
280,248,104210,1,0,0:0:0:0:
280,248,104273,1,0,0:0:0:0:
410,157,104398,2,0,B|420:193|420:193|426:254,1,90,12|0,0:0|0:0,0:0:0:0:
189,358,104648,2,0,B|179:327|179:327|186:302|186:302|180:271,1,90,12|0,0:0|0:0,0:0:0:0:
260,70,104898,2,0,P|278:120|269:177,1,90,12|0,0:0|0:0,0:0:0:0:
115,235,105148,5,12,0:0:0:0:
88,109,105273,1,8,0:0:0:0:
208,180,105398,1,0,0:0:0:0:
34,171,105523,1,8,0:0:0:0:
10,133,105585,1,0,0:0:0:0:
10,88,105648,1,0,0:0:0:0:
33,50,105710,1,0,0:0:0:0:
72,28,105773,2,0,P|113:33|135:27,3,45,8|0|0|0,0:0|0:0|0:0|0:0,0:0:0:0:
193,18,106023,6,0,L|198:128,1,90,0|0,0:0|0:0,0:0:0:0:
209,283,106273,2,0,L|212:346,2,45,8|0|0,0:0|0:0|0:0,0:0:0:0:
273,156,106523,1,8,0:0:0:0:
303,123,106585,1,0,0:0:0:0:
346,109,106648,1,0,0:0:0:0:
390,116,106710,1,0,0:0:0:0:
426,142,106773,2,0,P|437:177|438:208,3,45,8|0|0|0,0:0|0:0|0:0|0:0,0:0:0:0:
416,276,107023,1,0,0:0:0:0:
294,102,107148,6,0,B|289:76|289:76|301:2,1,90,8|0,0:0|0:0,0:0:0:0:
446,57,107335,1,0,0:0:0:0:
446,57,107398,2,0,L|451:158,1,90,8|0,0:0|0:0,0:0:0:0:
457,318,107648,5,12,0:0:0:0:
109,83,107898,1,4,0:0:0:0:
256,192,108023,12,2,110210,2:0:0:0:
