osu file format v14

[General]
AudioFilename: ww.mp3
AudioLeadIn: 2000
PreviewTime: 65773
Countdown: 0
SampleSet: Normal
StackLeniency: 0.7
Mode: 1
LetterboxInBreaks: 0
WidescreenStoryboard: 1

[Editor]
DistanceSpacing: 0.8
BeatDivisor: 4
GridSize: 32
TimelineZoom: 3.499999

[Metadata]
Title:Yotogibanashi no Kamikakushi
TitleUnicode:夜伽話の神隠し
Artist:LIQU@.
ArtistUnicode:LIQU@。
Creator:Kyubey
Version:Nwolf's Muzukashii
Source:東方Project
Tags:ryuu minstrel c80 comiket yuta 夜が降りてくる ~ Evening Star 東方萃夢想 ~ Immaterial and Missing Power ZUN yakumo yukari nwolf dainesl touhou leader lunarblossom okoratu
BeatmapID:661518
BeatmapSetID:236396

[Difficulty]
HPDrainRate:4.5
CircleSize:5
OverallDifficulty:5
ApproachRate:8
SliderMultiplier:1.4
SliderTickRate:1

[Events]
//Background and Video events
0,0,"bg.jpg",0,125
//Break Periods
//Storyboard Layer 0 (Background)
//Storyboard Layer 1 (Fail)
//Storyboard Layer 2 (Pass)
//Storyboard Layer 3 (Foreground)
//Storyboard Sound Samples

[TimingPoints]
23,250,4,1,0,80,1,0
26023,-100,4,1,0,90,0,1
42023,-100,4,1,0,80,0,0
42273,-100,4,1,0,40,0,0
45460,-100,4,1,0,60,0,0
45960,-100,4,1,0,75,0,0
70023,-100,4,1,0,90,0,1
98023,-100,4,1,0,80,0,0

[Colours]
Combo1 : 146,80,78
Combo2 : 193,175,102
Combo3 : 215,81,81
Combo4 : 194,208,149

[HitObjects]
288,224,23,5,12,0:0:0:0:
224,160,273,1,0,0:0:0:0:
288,160,398,1,8,0:0:0:0:
288,160,648,1,8,0:0:0:0:
288,160,898,1,8,0:0:0:0:
288,160,1148,1,8,0:0:0:0:
288,160,1273,1,8,0:0:0:0:
224,160,1523,1,0,0:0:0:0:
288,224,2023,1,12,0:0:0:0:
224,160,2273,1,0,0:0:0:0:
288,160,2398,1,8,0:0:0:0:
224,160,2648,1,0,0:0:0:0:
288,160,2898,1,8,0:0:0:0:
288,160,3148,1,8,0:0:0:0:
224,160,3273,1,0,0:0:0:0:
288,160,3523,1,8,0:0:0:0:
288,224,4023,1,12,0:0:0:0:
224,160,4273,1,0,0:0:0:0:
288,160,4398,1,8,0:0:0:0:
288,160,4648,1,8,0:0:0:0:
288,160,4898,1,8,0:0:0:0:
224,160,5148,1,0,0:0:0:0:
288,160,5273,1,8,0:0:0:0:
224,160,5523,1,0,0:0:0:0:
288,224,6023,1,12,0:0:0:0:
224,160,6273,1,0,0:0:0:0:
288,160,6398,1,8,0:0:0:0:
224,160,6648,1,0,0:0:0:0:
288,160,6898,1,8,0:0:0:0:
288,160,7148,1,8,0:0:0:0:
224,160,7273,1,0,0:0:0:0:
288,160,7523,1,8,0:0:0:0:
224,160,8023,1,0,0:0:0:0:
224,160,8398,1,0,0:0:0:0:
224,160,8523,1,0,0:0:0:0:
224,160,8773,1,0,0:0:0:0:
224,160,9023,1,0,0:0:0:0:
288,160,9523,1,8,0:0:0:0:
224,224,9648,1,4,0:0:0:0:
288,224,9898,5,12,0:0:0:0:
288,160,10273,1,8,0:0:0:0:
288,160,10523,1,8,0:0:0:0:
288,160,10773,1,8,0:0:0:0:
288,160,10898,1,8,0:0:0:0:
288,160,11023,1,8,0:0:0:0:
288,160,11273,1,8,0:0:0:0:
224,160,11523,1,0,0:0:0:0:
288,224,11898,1,12,0:0:0:0:
288,160,12273,1,8,0:0:0:0:
288,160,12523,1,8,0:0:0:0:
288,160,12773,1,8,0:0:0:0:
288,160,12898,1,8,0:0:0:0:
288,160,13023,1,8,0:0:0:0:
288,160,13273,1,8,0:0:0:0:
224,160,13523,1,0,0:0:0:0:
224,224,13898,1,4,0:0:0:0:
288,160,14273,1,8,0:0:0:0:
288,160,14523,1,8,0:0:0:0:
224,160,14773,1,0,0:0:0:0:
224,160,14898,1,0,0:0:0:0:
224,160,15023,1,0,0:0:0:0:
224,160,15148,1,0,0:0:0:0:
224,160,15273,1,0,0:0:0:0:
224,160,15523,1,0,0:0:0:0:
224,160,15648,1,0,0:0:0:0:
288,224,15898,1,12,0:0:0:0:
288,160,16273,1,8,0:0:0:0:
224,160,16523,1,0,0:0:0:0:
288,160,16773,1,8,0:0:0:0:
288,160,17273,1,8,0:0:0:0:
288,224,17523,1,12,0:0:0:0:
224,224,17898,1,4,0:0:0:0:
288,160,18273,1,8,0:0:0:0:
288,160,18523,1,8,0:0:0:0:
288,160,18773,1,8,0:0:0:0:
288,160,18898,1,8,0:0:0:0:
288,160,19023,1,8,0:0:0:0:
288,160,19273,1,8,0:0:0:0:
224,160,19523,1,0,0:0:0:0:
288,224,19898,1,12,0:0:0:0:
288,160,20273,1,8,0:0:0:0:
288,160,20523,1,8,0:0:0:0:
288,160,20773,1,8,0:0:0:0:
288,160,20898,1,8,0:0:0:0:
288,160,21023,1,8,0:0:0:0:
224,160,21273,1,0,0:0:0:0:
288,160,21523,1,8,0:0:0:0:
224,224,21898,1,4,0:0:0:0:
288,160,22273,1,8,0:0:0:0:
288,160,22523,1,8,0:0:0:0:
224,160,22773,1,0,0:0:0:0:
224,160,22898,1,0,0:0:0:0:
224,160,23023,1,0,0:0:0:0:
224,160,23148,1,0,0:0:0:0:
224,160,23273,1,0,0:0:0:0:
288,160,23523,1,8,0:0:0:0:
224,160,23898,1,0,0:0:0:0:
288,160,24273,1,8,0:0:0:0:
224,160,24523,1,0,0:0:0:0:
224,160,24648,1,0,0:0:0:0:
288,160,24773,1,8,0:0:0:0:
288,160,25023,1,8,0:0:0:0:
224,160,25773,1,0,0:0:0:0:
288,224,26023,5,12,0:0:0:0:
224,160,26273,1,0,0:0:0:0:
224,160,26523,1,0,0:0:0:0:
224,160,26773,1,0,0:0:0:0:
224,160,26898,1,0,0:0:0:0:
288,160,27023,1,8,0:0:0:0:
288,160,27398,1,8,0:0:0:0:
288,160,27773,1,8,0:0:0:0:
224,160,28023,1,0,0:0:0:0:
224,160,28273,1,0,0:0:0:0:
224,160,28523,1,0,0:0:0:0:
224,160,28773,1,0,0:0:0:0:
224,160,28898,1,0,0:0:0:0:
288,160,29023,1,8,0:0:0:0:
288,160,29398,1,8,0:0:0:0:
288,160,29648,1,8,0:0:0:0:
288,160,29898,1,8,0:0:0:0:
224,224,30023,1,4,0:0:0:0:
288,160,30398,1,8,0:0:0:0:
288,160,30773,1,8,0:0:0:0:
224,160,31023,1,0,0:0:0:0:
224,160,31273,1,0,0:0:0:0:
288,160,31398,1,8,0:0:0:0:
288,160,31648,1,8,0:0:0:0:
288,160,31898,1,8,0:0:0:0:
288,160,32023,1,0,0:0:0:0:
224,160,32273,1,0,0:0:0:0:
288,160,32523,1,8,0:0:0:0:
288,160,32773,1,8,0:0:0:0:
224,160,33023,1,0,0:0:0:0:
288,160,33398,1,8,0:0:0:0:
288,160,33773,1,8,0:0:0:0:
224,224,34023,1,4,0:0:0:0:
224,160,34273,1,0,0:0:0:0:
224,160,34523,1,0,0:0:0:0:
224,160,34773,1,0,0:0:0:0:
224,160,34898,1,0,0:0:0:0:
288,160,35023,1,8,0:0:0:0:
288,160,35398,1,8,0:0:0:0:
224,160,35773,1,0,0:0:0:0:
288,160,36023,1,8,0:0:0:0:
224,160,36273,1,0,0:0:0:0:
224,160,36523,1,0,0:0:0:0:
224,160,36773,1,0,0:0:0:0:
224,160,36898,1,0,0:0:0:0:
288,160,37023,1,8,0:0:0:0:
288,160,37398,1,8,0:0:0:0:
288,160,37648,1,8,0:0:0:0:
288,160,37898,1,8,0:0:0:0:
224,224,38023,1,4,0:0:0:0:
288,160,38398,1,8,0:0:0:0:
288,160,38773,1,8,0:0:0:0:
288,160,39023,1,8,0:0:0:0:
224,160,39273,1,0,0:0:0:0:
288,160,39398,1,8,0:0:0:0:
288,160,39648,1,8,0:0:0:0:
224,160,39898,1,0,0:0:0:0:
256,192,40023,12,0,41773,0:0:0:0:
224,160,42023,5,0,0:0:0:0:
288,160,44023,1,8,0:0:0:0:
288,160,44523,1,8,0:0:0:0:
288,160,45023,1,8,0:0:0:0:
288,160,45273,1,8,0:0:0:0:
288,160,45523,1,8,0:0:0:0:
224,160,45648,1,0,0:0:0:0:
288,224,46023,1,12,0:0:0:0:
288,160,46523,1,8,0:0:0:0:
288,160,46773,1,8,0:0:0:0:
224,160,47023,1,0,0:0:0:0:
288,160,47523,1,8,0:0:0:0:
224,160,47773,1,0,0:0:0:0:
288,160,48023,1,8,0:0:0:0:
224,224,48398,1,4,0:0:0:0:
288,224,48648,1,12,0:0:0:0:
224,160,49023,1,0,0:0:0:0:
224,160,49148,1,0,0:0:0:0:
224,160,49273,1,0,0:0:0:0:
288,160,49523,1,8,0:0:0:0:
224,160,49773,1,0,0:0:0:0:
288,224,50023,1,12,0:0:0:0:
288,160,50523,1,8,0:0:0:0:
224,160,50773,1,0,0:0:0:0:
224,160,50898,1,0,0:0:0:0:
288,160,51023,1,8,0:0:0:0:
288,160,51523,1,8,0:0:0:0:
224,160,51648,1,0,0:0:0:0:
224,160,51773,1,0,0:0:0:0:
224,160,51898,1,0,0:0:0:0:
288,160,52023,1,8,0:0:0:0:
288,160,52523,1,8,0:0:0:0:
224,160,52773,1,0,0:0:0:0:
224,160,52898,1,0,0:0:0:0:
288,160,53023,1,8,0:0:0:0:
224,160,53273,1,0,0:0:0:0:
288,160,53523,1,8,0:0:0:0:
288,224,54023,1,12,0:0:0:0:
288,160,54523,1,8,0:0:0:0:
224,160,54773,1,0,0:0:0:0:
224,160,54898,1,0,0:0:0:0:
288,160,55023,1,8,0:0:0:0:
288,160,55523,1,8,0:0:0:0:
224,160,55648,1,0,0:0:0:0:
224,160,55773,1,0,0:0:0:0:
224,160,55898,1,0,0:0:0:0:
288,160,56023,1,8,0:0:0:0:
288,160,56523,1,8,0:0:0:0:
224,160,56773,1,0,0:0:0:0:
224,160,56898,1,0,0:0:0:0:
288,160,57023,1,8,0:0:0:0:
224,160,57523,1,0,0:0:0:0:
288,160,57648,1,8,0:0:0:0:
288,224,57898,1,12,0:0:0:0:
288,224,58523,1,12,0:0:0:0:
288,224,58710,1,12,0:0:0:0:
288,224,58898,1,12,0:0:0:0:
224,224,59023,1,4,0:0:0:0:
288,160,59523,1,8,0:0:0:0:
224,224,60023,1,4,0:0:0:0:
288,160,60210,1,8,0:0:0:0:
224,224,60398,1,4,0:0:0:0:
288,224,60523,1,12,0:0:0:0:
288,224,61023,1,12,0:0:0:0:
224,160,61210,1,0,0:0:0:0:
288,224,61398,1,12,0:0:0:0:
224,224,61523,1,4,0:0:0:0:
288,224,61898,1,12,0:0:0:0:
288,160,62273,1,8,0:0:0:0:
288,160,62523,1,8,0:0:0:0:
288,160,62773,1,8,0:0:0:0:
288,160,62898,1,8,0:0:0:0:
288,160,63023,1,8,0:0:0:0:
288,160,63273,1,8,0:0:0:0:
288,160,63523,1,8,0:0:0:0:
224,160,63773,1,0,0:0:0:0:
224,224,64023,1,4,0:0:0:0:
288,160,64148,1,8,0:0:0:0:
288,160,64398,1,8,0:0:0:0:
288,160,64648,1,8,0:0:0:0:
288,160,64898,1,8,0:0:0:0:
288,160,65023,1,8,0:0:0:0:
224,160,65273,1,0,0:0:0:0:
288,160,65523,1,8,0:0:0:0:
224,224,66023,5,4,0:0:0:0:
224,160,68023,1,0,0:0:0:0:
224,160,69023,1,0,0:0:0:0:
224,160,69773,1,0,0:0:0:0:
288,224,70023,1,12,0:0:0:0:
224,160,70273,1,0,0:0:0:0:
288,160,70523,1,8,0:0:0:0:
224,160,70773,1,0,0:0:0:0:
288,160,71023,1,8,0:0:0:0:
224,160,71398,1,0,0:0:0:0:
288,160,71523,1,8,0:0:0:0:
224,160,71773,1,0,0:0:0:0:
288,160,72023,1,8,0:0:0:0:
288,224,72398,1,12,0:0:0:0:
288,224,72648,1,12,0:0:0:0:
224,160,73023,1,0,0:0:0:0:
288,160,73523,1,8,0:0:0:0:
288,224,74023,1,12,0:0:0:0:
224,160,74273,1,0,0:0:0:0:
224,160,74523,1,0,0:0:0:0:
224,160,74773,1,0,0:0:0:0:
224,160,74898,1,0,0:0:0:0:
288,160,75023,1,8,0:0:0:0:
224,160,75273,1,0,0:0:0:0:
288,160,75398,1,8,0:0:0:0:
288,160,75773,1,8,0:0:0:0:
224,160,76023,1,0,0:0:0:0:
224,160,76273,1,0,0:0:0:0:
224,160,76523,1,0,0:0:0:0:
224,160,76773,1,0,0:0:0:0:
224,160,76898,1,0,0:0:0:0:
288,160,77023,1,8,0:0:0:0:
224,160,77398,1,0,0:0:0:0:
288,160,77648,1,8,0:0:0:0:
224,224,78023,1,4,0:0:0:0:
224,160,78273,1,0,0:0:0:0:
288,160,78398,1,8,0:0:0:0:
288,160,78773,1,8,0:0:0:0:
224,160,79023,1,0,0:0:0:0:
224,160,79273,1,0,0:0:0:0:
288,160,79398,1,8,0:0:0:0:
288,160,79648,1,8,0:0:0:0:
288,160,79898,1,8,0:0:0:0:
288,160,80023,1,8,0:0:0:0:
224,160,80273,1,0,0:0:0:0:
224,160,80523,1,0,0:0:0:0:
224,160,80773,1,0,0:0:0:0:
288,160,81023,1,8,0:0:0:0:
288,160,81523,1,8,0:0:0:0:
288,224,82023,1,12,0:0:0:0:
224,160,82273,1,0,0:0:0:0:
224,160,82523,1,0,0:0:0:0:
224,160,82773,1,0,0:0:0:0:
224,160,82898,1,0,0:0:0:0:
288,160,83023,1,8,0:0:0:0:
224,160,83273,1,0,0:0:0:0:
288,160,83398,1,8,0:0:0:0:
288,160,83773,1,8,0:0:0:0:
224,160,84023,1,0,0:0:0:0:
224,160,84273,1,0,0:0:0:0:
224,160,84523,1,0,0:0:0:0:
224,160,84773,1,0,0:0:0:0:
224,160,84898,1,0,0:0:0:0:
288,160,85023,1,8,0:0:0:0:
288,160,85398,1,8,0:0:0:0:
288,160,85648,1,8,0:0:0:0:
224,160,85898,1,0,0:0:0:0:
288,224,86023,1,12,0:0:0:0:
224,160,86273,1,0,0:0:0:0:
288,160,86398,1,8,0:0:0:0:
288,160,86773,1,8,0:0:0:0:
224,160,87023,1,0,0:0:0:0:
288,160,87398,1,8,0:0:0:0:
288,160,87648,1,8,0:0:0:0:
288,160,87898,1,8,0:0:0:0:
224,160,88023,1,0,0:0:0:0:
224,160,88273,1,0,0:0:0:0:
288,160,88523,1,8,0:0:0:0:
288,160,88773,1,8,0:0:0:0:
224,160,89023,1,0,0:0:0:0:
288,160,89398,1,8,0:0:0:0:
288,160,89773,1,8,0:0:0:0:
224,224,90023,1,4,0:0:0:0:
224,160,90273,1,0,0:0:0:0:
224,160,90523,1,0,0:0:0:0:
224,160,90773,1,0,0:0:0:0:
224,160,90898,1,0,0:0:0:0:
288,160,91023,1,8,0:0:0:0:
224,160,91273,1,0,0:0:0:0:
288,160,91398,1,8,0:0:0:0:
224,160,91648,1,0,0:0:0:0:
288,160,91773,1,8,0:0:0:0:
288,160,92023,1,8,0:0:0:0:
224,160,92273,1,0,0:0:0:0:
224,160,92523,1,0,0:0:0:0:
224,160,92773,1,0,0:0:0:0:
224,160,92898,1,0,0:0:0:0:
288,160,93023,1,8,0:0:0:0:
224,160,93273,1,0,0:0:0:0:
288,160,93398,1,8,0:0:0:0:
288,160,93648,1,8,0:0:0:0:
224,160,93898,1,0,0:0:0:0:
288,224,94023,1,12,0:0:0:0:
288,224,94523,1,12,0:0:0:0:
224,160,94773,1,0,0:0:0:0:
288,224,94898,1,12,0:0:0:0:
288,224,95273,1,12,0:0:0:0:
288,224,95523,1,12,0:0:0:0:
288,160,96023,1,8,0:0:0:0:
224,160,96273,1,0,0:0:0:0:
224,160,96398,1,0,0:0:0:0:
288,160,96523,1,8,0:0:0:0:
288,160,96648,1,8,0:0:0:0:
288,224,96898,1,12,0:0:0:0:
288,224,97148,1,12,0:0:0:0:
224,160,97273,1,0,0:0:0:0:
288,160,97523,1,8,0:0:0:0:
288,224,98023,5,12,0:0:0:0:
224,160,98273,1,0,0:0:0:0:
288,160,98398,1,8,0:0:0:0:
288,160,98648,1,8,0:0:0:0:
288,160,98898,1,8,0:0:0:0:
224,160,99148,1,0,0:0:0:0:
288,160,99273,1,8,0:0:0:0:
224,160,99523,1,0,0:0:0:0:
288,224,100023,1,12,0:0:0:0:
224,160,100273,1,0,0:0:0:0:
288,160,100398,1,8,0:0:0:0:
224,160,100648,1,0,0:0:0:0:
288,160,100898,1,8,0:0:0:0:
288,160,101148,1,8,0:0:0:0:
288,160,101273,1,8,0:0:0:0:
288,160,101523,1,8,0:0:0:0:
288,224,102023,1,12,0:0:0:0:
224,160,102273,1,0,0:0:0:0:
288,160,102398,1,8,0:0:0:0:
288,160,102648,1,8,0:0:0:0:
288,160,102898,1,8,0:0:0:0:
288,160,103148,1,8,0:0:0:0:
224,160,103273,1,0,0:0:0:0:
224,160,103523,1,0,0:0:0:0:
288,224,104023,1,12,0:0:0:0:
224,160,104273,1,0,0:0:0:0:
288,160,104398,1,8,0:0:0:0:
224,160,104648,1,0,0:0:0:0:
288,160,104898,1,8,0:0:0:0:
288,160,105148,1,8,0:0:0:0:
288,160,105273,1,8,0:0:0:0:
224,160,105523,1,0,0:0:0:0:
288,160,106023,1,8,0:0:0:0:
224,160,106273,1,0,0:0:0:0:
288,160,106523,1,8,0:0:0:0:
224,160,106773,1,0,0:0:0:0:
224,160,106898,1,0,0:0:0:0:
224,160,107023,1,0,0:0:0:0:
224,160,107273,1,0,0:0:0:0:
288,160,107523,1,8,0:0:0:0:
224,224,107648,1,4,0:0:0:0:
224,224,107898,1,4,0:0:0:0:
