osu file format v14

[General]
AudioFilename: ww.mp3
AudioLeadIn: 2000
PreviewTime: 65773
Countdown: 0
SampleSet: Normal
StackLeniency: 0.7
Mode: 0
LetterboxInBreaks: 0
WidescreenStoryboard: 0

[Editor]
DistanceSpacing: 0.6
BeatDivisor: 4
GridSize: 4
TimelineZoom: 2.4

[Metadata]
Title:Yotogibanashi no Kamikakushi
TitleUnicode:夜伽話の神隠し
Artist:LIQU@.
ArtistUnicode:LIQU@。
Creator:Kyubey
Version:Miryokuteki na Shijuu Kekkai
Source:東方Project
Tags:ryuu minstrel c80 comiket yuta 夜が降りてくる ~ Evening Star 東方萃夢想 ~ Immaterial and Missing Power ZUN yakumo yukari nwolf dainesl touhou leader lunarblossom okoratu
BeatmapID:547566
BeatmapSetID:236396

[Difficulty]
HPDrainRate:7
CircleSize:4
OverallDifficulty:9.3
ApproachRate:10
SliderMultiplier:2
SliderTickRate:1

[Events]
//Background and Video events
0,0,"bg.jpg",0,0
//Break Periods
2,42223,44573
2,66223,69023
//Storyboard Layer 0 (Background)
//Storyboard Layer 1 (Fail)
//Storyboard Layer 2 (Pass)
//Storyboard Layer 3 (Foreground)
//Storyboard Sound Samples

[TimingPoints]
23,250,4,1,1,80,1,0
26023,-86.9565217391304,4,1,1,90,0,1
42023,-166.666666666667,4,2,1,70,0,0
46023,-125,4,1,1,70,0,0
48023,-100,4,1,1,80,0,0
50023,-125,4,1,1,70,0,0
53023,-100,4,1,1,70,0,0
54023,-125,4,1,1,70,0,0
57898,-200,4,1,1,70,0,0
59023,-100,4,1,1,70,0,0
61898,-100,4,1,1,80,0,0
70023,-125,4,1,1,80,0,1
73960,-125,4,1,1,80,0,0
74023,-76.9230769230769,4,1,1,90,0,1
81960,-76.9230769230769,4,1,1,90,0,0
82023,-76.9230769230769,4,1,1,90,0,1
98023,-100,4,1,1,80,0,0
110210,-100,4,1,1,10,0,0

[Colours]
Combo1 : 146,80,78
Combo2 : 193,175,102
Combo3 : 215,81,81
Combo4 : 194,208,149

[HitObjects]
296,92,23,6,0,B|244:80|244:80|184:100,1,100,4|0,0:0|0:0,0:0:0:0:
200,94,210,1,0,0:0:0:0:
200,94,273,1,0,0:0:0:0:
72,148,398,2,0,B|60:96|60:96|76:36,1,100,12|0,0:0|0:0,0:0:0:0:
184,232,648,1,12,0:0:0:0:
92,336,773,1,0,0:0:0:0:
228,360,898,2,0,B|280:368|280:368|336:356,1,100,12|0,0:0|0:0,0:0:0:0:
432,128,1148,5,12,0:0:0:0:
280,176,1273,1,8,0:0:0:0:
404,276,1398,1,0,0:2:0:0:
324,96,1523,2,0,B|276:88|276:88|220:104,1,100,8|0,0:0|0:2,0:0:0:0:
108,244,1773,1,8,0:0:0:0:
116,256,1836,1,0,0:0:0:0:
124,268,1898,1,0,0:0:0:0:
132,280,1961,1,0,0:0:0:0:
140,292,2023,6,0,B|188:300|188:300|237:285,1,100,4|0,0:0|0:2,0:0:0:0:
237,285,2210,1,0,0:0:0:0:
237,285,2273,1,0,0:0:0:0:
284,152,2398,2,0,B|236:144|236:144|180:160,1,100,12|0,0:0|0:0,0:0:0:0:
237,285,2648,1,12,0:0:0:0:
380,264,2773,1,0,0:0:0:0:
420,120,2898,2,0,P|467:142|508:224,1,100,12|0,0:0|0:0,0:0:0:0:
420,384,3148,5,12,0:0:0:0:
344,204,3273,1,8,0:0:0:0:
472,252,3398,1,8,0:0:0:0:
292,336,3523,1,8,0:0:0:0:
276,340,3585,1,0,0:0:0:0:
260,344,3648,1,0,0:0:0:0:
244,348,3710,1,0,0:0:0:0:
228,344,3773,1,0,0:0:0:0:
212,340,3835,1,0,0:0:0:0:
196,336,3898,1,0,0:0:0:0:
180,332,3960,1,0,0:0:0:0:
164,328,4023,6,0,B|115:317|115:317|40:336,1,100,4|0,0:0|0:0,0:0:0:0:
66,329,4210,1,0,0:0:0:0:
66,329,4273,1,0,0:0:0:0:
264,232,4398,2,0,B|275:183|275:183|262:134,1,100,12|0,0:0|0:0,0:0:0:0:
132,192,4648,1,12,0:0:0:0:
164,328,4773,1,0,0:0:0:0:
364,248,4898,2,0,B|375:199|375:199|362:150,1,100,12|0,0:0|0:0,0:0:0:0:
272,200,5148,5,12,0:0:0:0:
352,348,5273,1,8,0:0:0:0:
464,220,5398,1,0,0:0:0:0:
340,112,5523,2,0,L|280:92,3,50,8|0|0|0,0:0|0:0|0:0|0:0,0:0:0:0:
264,108,5773,1,8,0:0:0:0:
236,116,5835,1,0,0:0:0:0:
204,116,5898,1,0,0:0:0:0:
176,108,5960,1,0,0:0:0:0:
148,92,6023,6,0,P|96:84|36:100,1,100,4|0,0:0|0:0,0:0:0:0:
50,93,6210,1,0,0:0:0:0:
50,93,6273,1,0,0:0:0:0:
196,214,6398,2,0,P|244:222|291:207,1,100,12|0,0:0|0:0,0:0:0:0:
307,25,6648,2,0,P|258:16|212:32,1,100,12|0,0:0|0:0,0:0:0:0:
60,144,6898,2,0,B|47:189|47:189|59:241,1,100,12|0,0:0|0:0,0:0:0:0:
154,356,7148,5,12,0:0:0:0:
196,214,7273,1,8,0:0:0:0:
58,240,7398,1,8,0:0:0:0:
308,324,7523,1,8,0:0:0:0:
324,328,7585,1,0,0:0:0:0:
340,332,7648,1,0,0:0:0:0:
356,336,7710,1,0,0:0:0:0:
372,340,7773,1,0,0:0:0:0:
388,336,7835,1,0,0:0:0:0:
404,332,7898,1,0,0:0:0:0:
420,328,7960,1,0,0:0:0:0:
432,324,8023,6,0,P|448:288|444:224,1,100,0|0,0:0|0:0,0:0:0:0:
375,89,8273,1,8,0:0:0:0:
348,100,8335,1,0,0:0:0:0:
320,112,8398,1,0,0:0:0:0:
292,124,8460,1,0,0:0:0:0:
264,132,8523,1,8,0:0:0:0:
236,124,8585,1,0,0:0:0:0:
208,116,8648,1,0,0:0:0:0:
180,108,8710,1,0,0:0:0:0:
152,96,8773,2,0,L|80:112,3,50,8|0|0|0,0:0|0:0|0:0|0:0,0:0:0:0:
84,196,9023,5,0,0:0:0:0:
200,312,9148,1,8,0:0:0:0:
200,312,9210,1,8,0:0:0:0:
200,312,9273,1,8,0:0:0:0:
312,252,9398,1,8,0:0:0:0:
304,368,9523,1,8,0:0:0:0:
200,184,9648,2,0,P|188:132|208:76,1,100,4|0,0:0|0:0,0:0:0:0:
329,58,9898,6,0,B|366:154|311:251,1,200,4|0,0:0|0:0,0:0:0:0:
76,228,10273,1,10,0:2:0:0:
104,100,10398,1,0,0:0:0:0:
112,88,10460,1,0,0:0:0:0:
120,76,10523,1,10,0:2:0:0:
200,184,10648,1,0,0:0:0:0:
76,228,10773,1,10,0:2:0:0:
172,328,10898,1,0,0:0:0:0:
172,328,10960,1,0,0:0:0:0:
172,328,11023,6,0,B|221:319|221:319|289:333,1,100,10|0,0:2|0:0,0:0:0:0:
392,372,11273,1,10,0:2:0:0:
312,240,11398,1,0,0:0:0:0:
456,200,11523,2,0,P|466:251|448:297,1,100,8|8,0:0|0:0,0:0:0:0:
348,108,11773,1,8,0:0:0:0:
412,40,11898,6,0,B|524:28|524:28|464:124,1,200,4|0,0:2|0:0,0:0:0:0:
348,108,12273,1,10,0:2:0:0:
248,12,12398,1,0,0:0:0:0:
248,12,12460,1,0,0:0:0:0:
248,12,12523,1,10,0:2:0:0:
156,116,12648,1,0,0:0:0:0:
272,192,12773,1,10,0:2:0:0:
172,288,12898,1,0,0:0:0:0:
264,360,13023,6,0,P|320:356|376:328,1,100,10|0,0:2|0:0,0:0:0:0:
172,288,13273,2,0,P|116:292|60:320,1,100,10|0,0:2|0:0,0:0:0:0:
288,264,13523,1,12,0:0:0:0:
332,136,13648,1,12,0:0:0:0:
188,72,13773,1,12,0:0:0:0:
144,200,13898,6,0,B|197:210|249:190|249:190|301:170|361:206,1,200,4|0,0:0|0:0,0:0:0:0:
480,180,14273,2,0,P|475:229|455:274,1,100,10|0,0:2|0:0,0:0:0:0:
360,380,14523,1,10,0:2:0:0:
288,264,14648,1,0,0:0:0:0:
424,104,14773,5,12,0:2:0:0:
454,274,14898,1,12,0:2:0:0:
288,264,15023,1,8,0:0:0:0:
288,264,15085,1,0,0:0:0:0:
288,264,15148,1,0,0:0:0:0:
152,180,15273,1,8,0:0:0:0:
152,180,15335,1,0,0:0:0:0:
152,180,15398,1,0,0:0:0:0:
164,316,15523,1,10,0:2:0:0:
296,360,15648,1,8,0:0:0:0:
424,300,15773,1,10,0:2:0:0:
424,164,15898,6,0,B|368:148|368:148|304:176|220:156,1,200,0|8,0:0|0:0,0:0:0:0:
172,52,16273,1,8,0:0:0:0:
292,52,16398,1,8,0:0:0:0:
188,240,16523,6,0,P|152:204|136:136,1,100,0|8,0:0|0:0,0:0:0:0:
308,208,16773,1,8,0:0:0:0:
296,360,16898,1,8,0:0:0:0:
228,157,17023,6,0,P|236:101|260:61,1,100,8|0,0:0|0:0,0:0:0:0:
392,244,17273,2,0,P|384:300|360:340,1,100,8|0,0:0|0:0,0:0:0:0:
192,320,17523,5,12,0:2:0:0:
68,176,17648,1,12,0:2:0:0:
256,136,17773,1,12,0:2:0:0:
176,208,17898,6,0,B|160:140|160:140|181:86|181:86|164:8,1,200,4|0,0:2|0:0,0:0:0:0:
32,60,18273,1,10,0:2:0:0:
0,196,18398,1,0,0:0:0:0:
0,196,18460,1,0,0:0:0:0:
0,196,18523,1,10,0:2:0:0:
100,296,18648,2,0,P|144:320|212:316,1,100,0|10,0:0|0:2,0:0:0:0:
244,232,18898,1,0,0:0:0:0:
240,216,18960,1,0,0:0:0:0:
236,200,19023,1,10,0:2:0:0:
284,328,19148,5,0,0:0:0:0:
384,380,19273,1,10,0:2:0:0:
480,332,19398,1,0,0:0:0:0:
384,280,19523,1,8,0:0:0:0:
372,308,19586,1,0,0:0:0:0:
364,332,19648,1,0,0:0:0:0:
372,356,19711,1,0,0:0:0:0:
384,380,19773,1,8,0:0:0:0:
480,332,19898,6,0,B|496:280|496:280|456:128,1,200,4|0,0:0|0:0,0:0:0:0:
424,24,20273,1,10,0:2:0:0:
343,111,20398,1,0,0:0:0:0:
343,111,20460,1,0,0:0:0:0:
343,111,20523,1,10,0:2:0:0:
334,20,20648,5,0,0:0:0:0:
512,60,20773,1,10,0:2:0:0:
390,186,20898,1,0,0:0:0:0:
260,152,21023,6,0,P|250:98|268:53,1,100,8|0,0:0|0:0,0:0:0:0:
266,56,21210,1,0,0:0:0:0:
266,56,21273,1,8,0:0:0:0:
312,224,21398,1,0,0:0:0:0:
312,224,21460,1,0,0:0:0:0:
312,224,21523,1,8,0:0:0:0:
220,300,21648,1,8,0:0:0:0:
260,152,21773,1,8,0:0:0:0:
264,368,21898,6,0,B|323:356|379:360|379:360|427:316|447:272,1,200,4|0,0:0|0:0,0:0:0:0:
504,176,22273,1,10,0:2:0:0:
364,172,22398,1,0,0:0:0:0:
364,172,22460,1,0,0:0:0:0:
364,172,22523,2,0,P|312:144|252:136,1,100,10|0,0:2|0:0,0:0:0:0:
284,248,22773,5,12,0:2:0:0:
396,64,22898,1,12,0:0:0:0:
180,64,23023,1,12,0:2:0:0:
172,84,23085,1,0,0:0:0:0:
164,104,23148,1,0,0:0:0:0:
172,124,23210,1,0,0:0:0:0:
180,144,23273,1,8,0:0:0:0:
188,164,23335,1,0,0:0:0:0:
196,184,23398,1,0,0:0:0:0:
204,204,23460,1,0,0:0:0:0:
212,220,23523,6,0,B|224:272|224:272|204:336,1,100,8|0,0:0|0:0,0:0:0:0:
88,304,23773,1,8,0:0:0:0:
56,167,23898,2,0,B|56:80|136:48|136:48|179:63,1,200,4|0,0:0|0:0,0:0:0:0:
276,80,24273,1,8,0:0:0:0:
448,340,24523,5,8,0:0:0:0:
352,360,24648,1,0,0:0:0:0:
256,344,24773,1,8,0:0:0:0:
276,80,25023,5,8,0:0:0:0:
372,52,25148,1,8,0:0:0:0:
348,148,25273,1,8,0:0:0:0:
252,176,25398,1,8,0:0:0:0:
180,104,25523,1,8,0:0:0:0:
156,96,25585,1,0,0:0:0:0:
132,88,25648,1,0,0:0:0:0:
108,80,25710,1,0,0:0:0:0:
84,72,25773,1,8,0:0:0:0:
88,96,25835,1,0,0:0:0:0:
92,120,25898,1,0,0:0:0:0:
96,144,25960,1,0,0:0:0:0:
100,168,26023,6,0,B|156:184|156:184|232:168,1,115.000002193451,6|8,0:0|0:0,0:0:0:0:
372,152,26273,1,0,0:0:0:0:
364,184,26335,1,0,0:0:0:0:
356,216,26398,1,8,0:0:0:0:
296,68,26523,2,0,P|348:40|436:60,1,115.000002193451,0|8,0:0|0:0,0:0:0:0:
180,104,26773,1,0,0:0:0:0:
148,92,26835,1,0,0:0:0:0:
116,80,26898,1,8,0:0:0:0:
20,212,27023,6,0,L|144:252,1,115.000002193451,2|8,0:0|0:0,0:0:0:0:
283,188,27273,2,0,L|340:180,2,57.5000010967255,0|0|10,0:0|0:0|0:0,0:0:0:0:
240,344,27523,2,0,P|188:372|120:376,1,115.000002193451,0|8,0:0|0:0,0:0:0:0:
128,248,27773,1,2,0:0:0:0:
139,217,27835,1,0,0:0:0:0:
151,185,27898,1,8,0:0:0:0:
284,188,28023,5,6,0:0:0:0:
372,212,28148,1,8,0:0:0:0:
348,124,28273,1,0,0:0:0:0:
348,124,28335,1,0,0:0:0:0:
348,124,28398,1,8,0:0:0:0:
307,281,28523,5,2,0:0:0:0:
440,148,28648,1,8,0:0:0:0:
256,92,28773,1,0,0:0:0:0:
256,92,28835,1,0,0:0:0:0:
256,92,28898,1,8,0:0:0:0:
284,188,29023,6,0,B|332:160|332:160|364:100,1,115.000002193451,2|8,0:0|0:0,0:0:0:0:
180,168,29273,1,0,0:0:0:0:
168,200,29336,1,0,0:0:0:0:
157,231,29398,1,10,0:0:0:0:
112,336,29523,1,0,0:0:0:0:
236,308,29648,1,10,0:0:0:0:
204,184,29773,1,0,0:0:0:0:
80,212,29898,1,10,0:0:0:0:
236,308,30023,6,0,P|292:304|356:280,1,115.000002193451,6|8,0:0|0:0,0:0:0:0:
420,88,30273,1,0,0:0:0:0:
384,84,30335,1,0,0:0:0:0:
348,92,30398,1,10,0:0:0:0:
280,232,30523,1,0,0:0:0:0:
384,160,30648,1,8,0:0:0:0:
272,104,30773,1,2,0:0:0:0:
256,76,30835,1,0,0:0:0:0:
268,44,30898,1,8,0:0:0:0:
420,88,31023,6,0,B|432:144|432:144|420:216,1,115.000002193451,2|8,0:0|0:0,0:0:0:0:
348,304,31273,2,0,L|288:312,2,57.5000010967255,0|0|10,0:0|0:0|0:0,0:0:0:0:
248,224,31523,1,0,0:0:0:0:
108,300,31648,1,10,0:0:0:0:
36,156,31773,1,0,0:0:0:0:
176,80,31898,1,10,0:0:0:0:
248,224,32023,6,0,B|304:232|304:232|372:220,1,115.000002193451,6|8,0:0|0:0,0:0:0:0:
280,80,32273,1,2,0:0:0:0:
248,68,32335,1,0,0:0:0:0:
216,56,32398,1,8,0:0:0:0:
76,136,32523,2,0,P|56:196|76:252,1,115.000002193451,2|8,0:0|0:0,0:0:0:0:
204,336,32773,1,2,0:0:0:0:
236,324,32835,1,0,0:0:0:0:
268,312,32898,1,8,0:0:0:0:
408,232,33023,6,0,B|420:176|420:176|408:108,1,115.000002193451,2|8,0:0|0:0,0:0:0:0:
272,40,33273,2,0,B|260:96|260:96|272:164,1,115.000002193451,0|10,0:0|0:0,0:0:0:0:
268,312,33523,1,10,0:0:0:0:
152,260,33648,1,8,0:0:0:0:
36,312,33773,1,10,0:0:0:0:
36,312,33835,1,0,0:0:0:0:
36,312,33898,1,10,0:0:0:0:
36,312,33960,1,0,0:0:0:0:
36,312,34023,6,0,P|24:252|48:176,1,115.000002193451,6|8,0:0|0:0,0:0:0:0:
152,260,34273,2,0,L|120:328,2,57.5000010967255,0|0|8,0:0|0:0|0:0,0:0:0:0:
288,172,34523,1,0,0:0:0:0:
140,104,34648,1,8,0:0:0:0:
152,260,34773,1,0,0:0:0:0:
152,260,34835,1,0,0:0:0:0:
152,260,34898,1,8,0:0:0:0:
300,328,35023,6,0,B|360:340|360:340|424:324,1,115.000002193451,2|8,0:0|0:0,0:0:0:0:
460,212,35273,1,0,0:0:0:0:
460,212,35335,1,0,0:0:0:0:
460,212,35398,1,10,0:0:0:0:
492,88,35523,2,0,P|435:84|383:108,1,115.000002193451,0|8,0:0|0:0,0:0:0:0:
264,152,35773,1,2,0:0:0:0:
240,140,35835,1,0,0:0:0:0:
212,128,35898,1,8,0:0:0:0:
84,8,36023,5,6,0:0:0:0:
212,8,36148,1,8,0:0:0:0:
84,128,36273,1,0,0:0:0:0:
64,108,36335,1,0,0:0:0:0:
44,88,36398,1,8,0:0:0:0:
160,72,36523,2,0,B|176:128|176:128|160:188,1,115.000002193451,2|8,0:0|0:0,0:0:0:0:
76,320,36773,2,0,L|12:336,2,57.5000010967255,0|0|8,0:0|0:0|0:0,0:0:0:0:
240,320,37023,6,0,B|288:308|288:308|376:324,1,115.000002193451,2|8,0:0|0:0,0:0:0:0:
424,200,37273,1,0,0:0:0:0:
424,200,37335,1,0,0:0:0:0:
424,200,37398,1,10,0:0:0:0:
488,149,37523,1,0,0:0:0:0:
372,135,37648,1,10,0:0:0:0:
359,249,37773,1,0,0:0:0:0:
474,263,37898,1,10,0:0:0:0:
440,60,38023,6,0,P|380:36|312:52,1,115.000002193451,6|8,0:0|0:0,0:0:0:0:
252,144,38273,1,0,0:0:0:0:
272,164,38335,1,0,0:0:0:0:
292,184,38398,1,10,0:0:0:0:
184,84,38523,2,0,B|168:140|168:140|188:208,1,115.000002193451,0|8,0:0|0:0,0:0:0:0:
348,99,38773,1,2,0:0:0:0:
340,71,38835,1,0,0:0:0:0:
332,43,38898,1,8,0:0:0:0:
252,144,39023,6,0,L|256:264,1,115.000002193451,2|8,0:0|0:0,0:0:0:0:
120,344,39273,2,0,L|116:229,1,115.000002193451,0|10,0:0|0:0,0:0:0:0:
368,252,39523,1,0,0:0:0:0:
340,328,39648,1,10,0:0:0:0:
264,300,39773,1,0,0:0:0:0:
292,224,39898,1,10,0:0:0:0:
340,328,40023,5,4,0:0:0:0:
304,316,40085,1,0,0:0:0:0:
264,316,40148,1,0,0:0:0:0:
228,332,40210,1,0,0:0:0:0:
192,348,40273,1,4,0:0:0:0:
152,348,40335,1,0,0:0:0:0:
112,340,40398,1,0,0:0:0:0:
76,320,40460,1,0,0:0:0:0:
48,292,40523,5,0,0:0:0:0:
28,256,40585,1,0,0:0:0:0:
20,216,40648,2,0,L|44:132,1,57.5000010967255,4|0,0:2|2:0,0:0:0:0:
176,152,40773,2,0,L|160:208,1,57.5000010967255,0|0,0:0|2:0,0:0:0:0:
104,72,40898,1,4,0:2:0:0:
236,56,41023,6,0,B|288:44|288:44|360:56,1,115.000002193451
420,136,41273,1,4,0:0:0:0:
420,136,41335,1,0,0:0:0:0:
420,136,41398,1,0,0:0:0:0:
512,88,41523,5,4,0:0:0:0:
508,76,41585,1,0,0:0:0:0:
504,64,41648,1,0,0:0:0:0:
500,52,41710,1,0,0:0:0:0:
496,40,41773,1,0,0:0:0:0:
479,76,41835,1,0,0:0:0:0:
463,113,41898,1,0,0:0:0:0:
446,150,41960,1,0,0:0:0:0:
430,187,42023,1,4,0:2:0:0:
360,192,45023,5,0,0:0:0:0:
360,192,45085,1,0,0:0:0:0:
360,192,45148,1,0,0:0:0:0:
300,140,45273,1,0,0:0:0:0:
376,112,45398,1,0,0:0:0:0:
432,168,45523,1,0,1:0:0:0:
432,168,45585,1,0,1:0:0:0:
432,168,45648,2,0,P|424:236|376:268,1,119.999996337891,0|0,1:0|0:0,0:0:0:0:
308,312,46023,6,0,P|272:308|204:308,1,80,4|0,0:0|0:0,0:0:0:0:
152,284,46273,1,0,0:0:0:0:
72,296,46398,1,0,0:0:0:0:
32,228,46523,2,0,P|24:184|36:124,1,80,8|0,0:0|0:0,0:0:0:0:
96,104,46773,1,0,0:0:0:0:
96,104,46898,1,0,0:0:0:0:
96,104,47023,6,0,P|104:148|92:208,1,80,8|0,0:0|0:0,0:0:0:0:
176,152,47273,2,0,P|216:148|276:148,1,80
336,140,47523,2,0,P|340:96|328:40,1,80,8|0,0:0|0:0,0:0:0:0:
240,36,47773,1,8,0:0:0:0:
148,56,47898,1,8,0:0:0:0:
52,40,48023,5,8,0:0:0:0:
58,53,48085,1,0,0:0:0:0:
61,67,48148,1,0,0:0:0:0:
61,81,48210,1,0,0:0:0:0:
61,96,48273,1,0,0:0:0:0:
141,155,48398,2,0,B|251:160|251:160|245:82|163:75,2,200,4|4|0,0:2|0:2|0:0,0:0:0:0:
51,200,49023,5,0,0:0:0:0:
54,219,49085,1,0,0:0:0:0:
61,237,49148,1,0,0:0:0:0:
71,254,49210,1,0,0:0:0:0:
84,268,49273,1,0,0:0:0:0:
100,279,49335,1,0,0:0:0:0:
118,285,49398,1,8,0:0:0:0:
137,287,49460,1,8,1:0:0:0:
159,284,49523,6,0,P|203:275|264:284,1,100
257,281,49710,1,0,0:0:0:0:
257,281,49773,1,8,0:0:0:0:
328,195,49898,1,8,0:0:0:0:
256,56,50023,6,0,B|224:84|220:128|220:128|256:224,1,160,4|0,0:0|0:0,0:0:0:0:
328,195,50398,1,0,0:0:0:0:
404,168,50523,2,0,P|444:160|492:176,1,80,8|0,0:0|0:0,0:0:0:0:
440,240,50773,1,0,0:0:0:0:
364,272,50898,1,0,0:0:0:0:
284,264,51023,6,0,P|243:258|196:264,1,80,8|0,0:0|0:0,0:0:0:0:
96,296,51273,1,0,0:0:0:0:
96,296,51398,1,0,0:0:0:0:
96,296,51523,2,0,P|68:264|52:216,1,80,8|0,0:0|0:0,0:0:0:0:
160,116,51773,1,0,0:0:0:0:
136,224,51898,1,0,0:0:0:0:
56,152,52023,6,0,P|64:64|148:8,1,160,12|0,0:0|0:0,0:0:0:0:
196,36,52398,1,0,0:0:0:0:
276,44,52523,2,0,L|360:36,1,80,8|0,0:0|0:0,0:0:0:0:
340,116,52773,2,0,L|424:132,1,80,8|0,0:0|0:0,0:0:0:0:
484,208,53023,5,8,0:0:0:0:
476,232,53085,1,0,0:0:0:0:
460,252,53148,1,0,0:0:0:0:
440,268,53210,1,0,0:0:0:0:
416,276,53273,5,8,0:0:0:0:
380,264,53335,1,0,0:0:0:0:
340,256,53398,1,0,0:0:0:0:
300,260,53460,1,0,0:0:0:0:
264,280,53523,6,0,L|220:316,1,50,8|0,0:0|0:0,0:0:0:0:
144,248,53648,2,0,L|84:256,1,50,8|0,0:0|0:0,0:0:0:0:
76,160,53773,2,0,L|16:152,1,50,8|0,0:0|0:0,0:0:0:0:
40,56,53898,2,0,L|0:16,1,50,8|0,0:0|0:0,0:0:0:0:
148,72,54023,6,0,B|194:63|232:80|232:80|267:80|308:64,1,160,4|0,0:0|0:0,0:0:0:0:
384,52,54398,1,0,0:0:0:0:
432,116,54523,2,0,P|403:144|344:168,1,80,8|0,0:0|0:0,0:0:0:0:
308,216,54773,2,0,P|268:208|216:208,1,80
164,256,55023,6,0,P|128:264|72:264,1,80,8|0,0:0|0:0,0:0:0:0:
64,188,55273,1,0,0:0:0:0:
100,116,55398,1,0,0:0:0:0:
180,100,55523,2,0,P|220:104|272:100,1,80,8|0,0:0|0:0,0:0:0:0:
340,116,55773,1,0,0:0:0:0:
412,84,55898,1,0,0:0:0:0:
480,128,56023,6,0,P|496:200|480:296,1,160,12|0,0:0|0:0,0:0:0:0:
412,320,56398,1,0,0:0:0:0:
332,304,56523,2,0,L|244:280,1,80,8|0,0:0|0:0,0:0:0:0:
248,360,56773,2,0,L|144:368,1,80,8|0,0:0|0:0,0:0:0:0:
76,332,57023,5,8,0:0:0:0:
67,309,57085,1,0,0:0:0:0:
60,285,57148,1,0,0:0:0:0:
56,261,57210,1,0,0:0:0:0:
55,236,57273,1,8,0:0:0:0:
57,212,57335,1,0,0:0:0:0:
63,188,57398,1,0,0:0:0:0:
71,165,57460,1,0,0:0:0:0:
84,144,57523,5,8,0:0:0:0:
221,96,57648,1,8,0:0:0:0:
221,96,57898,6,0,P|300:176|308:88,1,250,12|4,0:0|0:0,0:0:0:0:
172,240,58710,1,4,0:0:0:0:
368,288,58898,1,4,0:0:0:0:
280,344,59023,5,0,0:0:0:0:
256,340,59085,1,0,0:0:0:0:
232,336,59148,1,0,0:0:0:0:
208,332,59210,1,0,0:0:0:0:
184,328,59273,1,0,0:0:0:0:
160,324,59335,1,0,0:0:0:0:
136,320,59398,1,0,0:0:0:0:
112,316,59460,1,0,0:0:0:0:
88,312,59523,5,8,0:0:0:0:
67,283,59585,1,8,0:0:0:0:
53,251,59648,1,8,0:0:0:0:
45,217,59710,1,8,0:0:0:0:
44,182,59773,1,8,0:0:0:0:
49,148,59835,1,8,0:0:0:0:
61,115,59898,1,8,0:0:0:0:
80,85,59960,1,8,0:0:0:0:
104,60,60023,1,4,0:0:0:0:
344,188,60210,1,4,0:0:0:0:
184,216,60398,1,4,0:0:0:0:
276,76,60523,5,8,0:0:0:0:
304,64,60585,1,0,0:0:0:0:
335,58,60648,1,0,0:0:0:0:
366,61,60710,1,0,0:0:0:0:
396,70,60773,1,8,0:0:0:0:
423,86,60835,1,0,0:0:0:0:
445,107,60898,1,0,0:0:0:0:
462,134,60960,1,0,0:0:0:0:
472,163,61023,6,0,P|472:209|468:240,1,50,12|0,0:0|0:0,0:0:0:0:
376,308,61148,2,0,P|376:262|380:231,1,50,4|0,0:0|0:0,0:0:0:0:
368,144,61273,2,0,L|300:152,1,50,12|0,0:0|0:0,0:0:0:0:
264,280,61398,2,0,P|268:336|296:396,1,100,4|12,0:0|0:0,0:0:0:0:
376,308,61648,1,0,0:0:0:0:
376,308,61710,1,0,0:0:0:0:
376,308,61773,1,8,0:0:0:0:
264,280,61898,6,0,B|204:260|204:260|64:272,1,200,4|0,0:0|0:2,0:0:0:0:
67,271,62210,1,0,0:0:0:0:
67,271,62273,1,10,0:2:0:0:
188,344,62398,2,0,B|252:363|252:363|308:360,1,100,0|10,0:0|0:2,0:0:0:0:
336,228,62648,1,0,0:0:0:0:
248,120,62773,1,10,0:2:0:0:
136,204,62898,1,8,0:0:0:0:
224,312,63023,6,0,B|236:268|236:268|224:200,1,100,10|0,0:2|0:0,0:0:0:0:
226,214,63210,1,0,0:0:0:0:
226,214,63273,1,10,0:2:0:0:
132,91,63398,1,8,0:0:0:0:
336,131,63523,1,10,0:2:0:0:
228,216,63648,1,8,0:0:0:0:
104,164,63773,1,8,0:0:0:0:
308,96,63898,1,0,0:0:0:0:
308,96,63960,1,0,0:0:0:0:
308,96,64023,6,0,B|360:88|360:88|412:96,1,100,12|0,0:0|0:0,0:0:0:0:
352,224,64273,1,8,0:0:0:0:
312,232,64335,1,0,0:0:0:0:
272,240,64398,1,4,0:2:0:0:
428,176,64523,2,0,P|436:224|424:280,1,100,0|4,0:0|0:2,0:0:0:0:
239,247,64773,1,8,0:0:0:0:
239,247,64835,1,0,0:0:0:0:
239,247,64898,1,4,0:2:0:0:
184,144,65023,5,8,0:0:0:0:
176,140,65085,1,0,0:0:0:0:
168,136,65148,1,0,0:0:0:0:
160,132,65210,1,0,0:0:0:0:
152,128,65273,1,8,0:0:0:0:
144,124,65335,1,0,0:0:0:0:
136,120,65398,1,0,0:0:0:0:
128,116,65460,1,0,0:0:0:0:
120,112,65523,1,12,0:0:0:0:
120,112,66023,5,4,0:2:0:0:
120,112,70023,5,12,0:0:0:0:
185,157,70148,1,0,0:0:0:0:
231,92,70273,1,0,0:0:0:0:
166,45,70398,1,0,0:0:0:0:
107,126,70523,5,8,0:0:0:0:
201,170,70648,1,0,0:0:0:0:
244,76,70773,1,0,0:0:0:0:
150,32,70898,1,0,0:0:0:0:
97,146,71023,5,8,0:0:0:0:
221,180,71148,1,0,0:0:0:0:
254,56,71273,1,0,0:0:0:0:
130,22,71398,1,0,0:0:0:0:
93,170,71523,5,8,0:0:0:0:
245,184,71648,1,0,0:0:0:0:
258,32,71773,1,0,0:0:0:0:
106,18,71898,1,0,0:0:0:0:
92,193,72023,5,12,0:0:0:0:
100,204,72085,1,0,0:0:0:0:
108,216,72148,1,0,0:0:0:0:
116,228,72210,1,0,0:0:0:0:
124,240,72273,1,8,0:0:0:0:
132,252,72335,1,0,0:0:0:0:
140,264,72398,5,4,0:2:0:0:
404,64,72648,1,4,0:2:0:0:
488,324,72898,1,0,0:0:0:0:
312,344,73023,5,0,0:0:0:0:
288,340,73085,1,0,0:0:0:0:
264,336,73148,1,0,0:0:0:0:
240,332,73210,1,0,0:0:0:0:
216,328,73273,1,0,0:0:0:0:
192,324,73335,1,0,0:0:0:0:
164,320,73398,6,0,L|136:264,1,40,4|0,0:0|0:0,0:0:0:0:
128,100,73523,1,0,0:0:0:0:
128,100,73585,1,0,0:0:0:0:
128,100,73648,2,0,L|184:72,1,40,4|0,0:0|0:0,0:0:0:0:
348,64,73773,2,0,L|376:120,1,40,4|0,0:0|0:0,0:0:0:0:
384,284,73898,2,0,L|328:312,1,40,4|0,0:0|0:0,0:0:0:0:
256,192,74023,6,0,B|244:128|244:128|264:48,1,129.999994049073,6|8,0:0|0:0,0:0:0:0:
397,182,74273,1,0,0:0:0:0:
392,232,74335,1,0,0:0:0:0:
383,283,74398,1,8,0:0:0:0:
236,344,74523,2,0,B|168:332|168:332|88:352,1,129.999994049073,0|8,0:0|0:0,0:0:0:0:
32,180,74773,1,0,0:0:0:0:
32,180,74835,1,0,0:0:0:0:
32,180,74898,1,8,0:0:0:0:
196,104,75023,5,2,0:0:0:0:
316,160,75148,1,8,0:0:0:0:
208,236,75273,1,0,0:0:0:0:
208,236,75335,1,0,0:0:0:0:
208,236,75398,1,10,0:0:0:0:
276,68,75523,2,0,P|336:64|404:104,1,129.999994049073,0|8,0:0|0:0,0:0:0:0:
196,104,75773,1,2,0:0:0:0:
191,54,75835,1,0,0:0:0:0:
216,8,75898,1,8,0:0:0:0:
316,160,76023,6,0,B|328:228|328:228|308:312,1,129.999994049073,6|8,0:0|0:0,0:0:0:0:
488,340,76273,1,0,0:0:0:0:
496,288,76335,1,0,0:0:0:0:
504,236,76398,1,8,0:0:0:0:
408,32,76523,1,2,0:0:0:0:
412,200,76648,1,8,0:0:0:0:
472,124,76773,1,0,0:0:0:0:
420,116,76835,1,0,0:0:0:0:
368,108,76898,1,8,0:0:0:0:
196,104,77023,6,0,P|136:107|76:144,1,129.999994049073,2|8,0:0|0:0,0:0:0:0:
196,280,77273,1,0,0:0:0:0:
196,280,77335,1,0,0:0:0:0:
196,280,77398,1,10,0:0:0:0:
277,276,77523,1,0,0:0:0:0:
256,180,77648,1,10,0:0:0:0:
159,201,77773,1,0,0:0:0:0:
180,297,77898,1,10,0:0:0:0:
452,284,78023,6,0,B|464:220|464:220|448:152,1,129.999994049073,6|8,0:0|0:0,0:0:0:0:
296,56,78273,1,0,0:0:0:0:
296,56,78335,1,0,0:0:0:0:
296,56,78398,1,10,0:0:0:0:
304,176,78523,1,0,0:0:0:0:
432,48,78648,1,8,0:0:0:0:
232,120,78773,1,2,0:0:0:0:
216,168,78835,1,0,0:0:0:0:
228,220,78898,1,8,0:0:0:0:
284,352,79023,6,0,B|216:344|216:344|128:356,1,129.999994049073,2|8,0:0|0:0,0:0:0:0:
40,212,79273,1,0,0:0:0:0:
40,212,79335,1,0,0:0:0:0:
40,212,79398,1,10,0:0:0:0:
136,56,79523,2,0,B|156:120|156:120|136:200,1,129.999994049073,0|10,0:0|0:0,0:0:0:0:
304,176,79773,2,0,L|384:148,2,64.9999970245363,0|0|10,0:0|0:0|0:0,0:0:0:0:
284,352,80023,5,6,0:0:0:0:
132,252,80148,1,8,0:0:0:0:
304,176,80273,1,2,0:0:0:0:
304,176,80335,1,0,0:0:0:0:
304,176,80398,1,8,0:0:0:0:
456,276,80523,1,2,0:0:0:0:
352,292,80648,1,8,0:0:0:0:
332,192,80773,1,2,0:0:0:0:
436,176,80898,1,8,0:0:0:0:
352,292,81023,5,0,0:0:0:0:
304,272,81085,1,0,0:0:0:0:
252,272,81148,1,0,0:0:0:0:
208,300,81210,1,0,0:0:0:0:
172,336,81273,5,0,0:0:0:0:
152,332,81335,1,0,0:0:0:0:
132,328,81398,1,8,0:0:0:0:
112,324,81460,1,0,0:0:0:0:
92,320,81523,1,8,0:0:0:0:
20,196,81648,6,0,L|-4:120,2,64.9999970245363,8|0|8,0:0|0:0|0:0,0:0:0:0:
164,208,81898,1,8,0:0:0:0:
92,320,82023,6,0,B|84:252|84:252|100:164,1,129.999994049073,6|8,0:0|0:0,0:0:0:0:
276,160,82273,1,8,0:0:0:0:
292,208,82335,1,0,0:0:0:0:
276,256,82398,1,8,0:0:0:0:
212,84,82523,2,0,B|276:76|276:76|348:92,1,129.999994049073,2|8,0:0|0:0,0:0:0:0:
164,304,82773,1,8,0:0:0:0:
148,256,82835,1,0,0:0:0:0:
164,208,82898,1,8,0:0:0:0:
380,252,83023,6,0,B|364:300|364:300|292:352,1,129.999994049073,6|8,0:0|0:0,0:0:0:0:
164,208,83273,1,8,0:0:0:0:
164,208,83335,1,0,0:0:0:0:
164,208,83398,1,10,0:0:0:0:
88,272,83523,1,0,0:0:0:0:
256,240,83648,1,8,0:0:0:0:
144,116,83773,1,10,0:0:0:0:
96,140,83835,1,0,0:0:0:0:
76,188,83898,1,8,0:0:0:0:
252,136,84023,6,0,P|240:60|160:4,1,129.999994049073,6|8,0:0|0:0,0:0:0:0:
256,240,84273,2,0,L|356:212,2,64.9999970245363,8|0|8,0:0|0:0|0:0,0:0:0:0:
152,308,84523,1,2,0:0:0:0:
40,280,84648,1,8,0:0:0:0:
132,208,84773,1,8,0:0:0:0:
156,256,84836,1,0,0:0:0:0:
152,308,84898,1,8,0:0:0:0:
264,352,85023,6,0,B|328:364|328:364|408:344,1,129.999994049073,6|8,0:0|0:0,0:0:0:0:
336,172,85273,1,8,0:0:0:0:
320,220,85335,1,0,0:0:0:0:
320,272,85398,1,14,0:0:0:0:
428,236,85523,1,8,0:0:0:0:
408,80,85648,1,14,0:0:0:0:
252,96,85773,1,8,0:0:0:0:
272,252,85898,1,14,0:0:0:0:
408,80,86023,6,0,B|340:68|340:68|260:84,1,129.999994049073,6|8,0:0|0:0,0:0:0:0:
188,240,86273,1,8,0:0:0:0:
196,292,86335,1,0,0:0:0:0:
236,328,86398,1,14,0:0:0:0:
428,236,86523,1,0,0:0:0:0:
272,252,86648,1,8,0:0:0:0:
428,156,86773,1,14,0:0:0:0:
476,172,86835,1,0,0:0:0:0:
504,212,86898,1,8,0:0:0:0:
348,208,87023,6,0,P|340:144|368:76,1,129.999994049073,6|8,0:0|0:0,0:0:0:0:
272,252,87273,1,8,0:0:0:0:
272,252,87335,1,0,0:0:0:0:
272,252,87398,1,14,0:0:0:0:
124,304,87523,1,0,0:0:0:0:
96,124,87648,1,14,0:0:0:0:
276,96,87773,1,8,0:0:0:0:
304,276,87898,1,14,0:0:0:0:
196,128,88023,6,0,B|192:84|192:84|228:0,1,129.999994049073,6|8,0:0|0:0,0:0:0:0:
372,96,88273,1,14,0:0:0:0:
324,120,88335,1,0,0:0:0:0:
276,96,88398,1,8,0:0:0:0:
456,64,88523,2,0,B|460:108|460:108|424:192,1,129.999994049073,6|8,0:0|0:0,0:0:0:0:
304,276,88773,1,14,0:0:0:0:
304,276,88835,1,0,0:0:0:0:
304,276,88898,1,8,0:0:0:0:
200,236,89023,6,0,B|140:224|140:224|68:236,1,129.999994049073,6|8,0:0|0:0,0:0:0:0:
84,344,89273,2,0,B|144:356|144:356|216:344,1,129.999994049073,8|14,0:0|0:0,0:0:0:0:
304,276,89523,1,14,0:0:0:0:
292,164,89648,1,14,0:0:0:0:
400,208,89773,1,8,0:0:0:0:
400,208,89835,1,0,0:0:0:0:
400,208,89898,1,14,0:0:0:0:
400,208,89960,1,0,0:0:0:0:
400,208,90023,6,0,P|416:276|396:348,1,129.999994049073,6|8,0:0|0:0,0:0:0:0:
292,164,90273,1,8,0:0:0:0:
300,112,90335,1,0,0:0:0:0:
308,60,90398,1,8,0:0:0:0:
304,276,90523,1,2,0:0:0:0:
204,124,90648,1,8,0:0:0:0:
384,120,90773,1,8,0:0:0:0:
384,120,90835,1,0,0:0:0:0:
384,120,90898,1,8,0:0:0:0:
200,236,91023,6,0,B|140:248|140:248|64:232,1,129.999994049073,6|8,0:0|0:0,0:0:0:0:
136,60,91273,1,8,0:0:0:0:
180,32,91335,1,0,0:0:0:0:
232,32,91398,1,10,0:0:0:0:
384,120,91523,1,0,0:0:0:0:
204,124,91648,1,8,0:0:0:0:
356,32,91773,1,10,0:0:0:0:
408,32,91836,1,0,0:0:0:0:
452,60,91898,1,8,0:0:0:0:
387,247,92023,6,0,B|376:204|376:204|384:120,1,129.999994049073,6|8,0:0|0:0,0:0:0:0:
288,208,92273,1,8,0:0:0:0:
304,256,92335,1,0,0:0:0:0:
324,304,92398,1,8,0:0:0:0:
156,372,92523,1,2,0:0:0:0:
20,252,92648,1,8,0:0:0:0:
188,184,92773,1,8,0:0:0:0:
236,196,92835,1,0,0:0:0:0:
288,208,92898,1,8,0:0:0:0:
120,240,93023,6,0,P|100:188|140:108,1,129.999994049073,6|8,0:0|0:0,0:0:0:0:
308,112,93273,1,8,0:0:0:0:
308,112,93335,1,0,0:0:0:0:
308,112,93398,1,14,0:0:0:0:
288,208,93523,1,8,0:0:0:0:
208,88,93648,1,14,0:0:0:0:
328,12,93773,1,8,0:0:0:0:
408,132,93898,1,14,0:0:0:0:
408,132,93960,1,0,0:0:0:0:
408,132,94023,6,0,B|343:138|343:138|264:128,1,129.999994049073,6|12,0:0|0:0,0:0:0:0:
112,56,94273,1,8,0:0:0:0:
120,240,94398,1,10,0:0:0:0:
128,284,94460,1,0,0:0:0:0:
140,328,94523,1,12,0:0:0:0:
288,208,94648,1,8,0:0:0:0:
300,164,94711,1,0,0:0:0:0:
308,120,94773,1,14,0:0:0:0:
368,272,94898,5,8,0:0:0:0:
336,304,94960,1,0,0:0:0:0:
292,312,95023,1,14,0:0:0:0:
120,240,95148,1,14,0:0:0:0:
288,208,95273,1,8,0:0:0:0:
117,141,95398,5,12,0:0:0:0:
80,152,95460,1,0,0:0:0:0:
50,177,95523,1,8,0:0:0:0:
31,211,95585,1,0,0:0:0:0:
27,249,95648,1,12,0:0:0:0:
38,287,95710,1,0,0:0:0:0:
61,317,95773,1,8,0:0:0:0:
96,332,95835,1,0,0:0:0:0:
136,332,95898,2,0,P|168:324|224:328,1,64.9999970245363,12|0,0:0|0:0,0:0:0:0:
296,362,96023,5,12,0:0:0:0:
336,364,96085,1,0,0:0:0:0:
373,350,96148,1,12,0:0:0:0:
409,321,96210,1,0,0:0:0:0:
428,284,96273,5,8,0:0:0:0:
433,245,96335,1,0,0:0:0:0:
426,206,96398,1,12,0:0:0:0:
410,170,96460,1,0,0:0:0:0:
379,144,96523,1,8,0:0:0:0:
344,127,96585,1,0,0:0:0:0:
304,127,96648,6,0,P|272:136|232:164,1,64.9999970245363,12|0,0:0|0:0,0:0:0:0:
288,300,96773,1,8,0:0:0:0:
288,300,96835,1,0,0:0:0:0:
288,300,96898,2,0,P|308:270|317:233,1,64.9999970245363,12|0,0:0|0:0,0:0:0:0:
152,104,97023,5,8,0:0:0:0:
140,154,97085,1,0,0:0:0:0:
148,205,97148,1,12,0:0:0:0:
164,253,97210,1,0,0:0:0:0:
165,305,97273,1,8,0:0:0:0:
143,353,97335,1,0,0:0:0:0:
95,375,97398,5,12,0:0:0:0:
52,248,97523,1,12,0:0:0:0:
240,300,97648,5,12,0:0:0:0:
261,304,97710,1,8,0:0:0:0:
282,308,97773,1,8,0:0:0:0:
303,313,97835,1,8,0:0:0:0:
324,317,97898,1,8,0:0:0:0:
346,321,97960,1,8,0:0:0:0:
368,326,98023,6,0,B|380:278|380:278|368:218,1,100,4|0,0:0|0:0,0:0:0:0:
370,228,98210,1,0,0:0:0:0:
370,228,98273,1,0,0:0:0:0:
260,128,98398,2,0,B|248:176|248:176|257:225,1,100,12|0,0:0|0:0,0:0:0:0:
360,128,98648,1,12,0:0:0:0:
308,40,98773,1,0,0:0:0:0:
161,126,98898,2,0,B|213:134|213:134|260:128,1,100,12|0,0:0|0:0,0:0:0:0:
216,28,99148,5,12,0:0:0:0:
124,192,99273,1,8,0:0:0:0:
312,188,99398,1,0,0:0:0:0:
56,144,99523,2,0,B|44:192|44:192|60:244,1,100,8|0,0:0|0:0,0:0:0:0:
160,340,99773,1,8,0:0:0:0:
180,336,99835,1,0,0:0:0:0:
200,332,99898,1,0,0:0:0:0:
220,328,99960,1,0,0:0:0:0:
240,324,100023,6,0,B|292:316|292:316|364:328,1,100,4|0,0:0|0:0,0:0:0:0:
338,323,100210,1,0,0:0:0:0:
338,323,100273,1,0,0:0:0:0:
476,360,100398,2,0,B|484:312|484:312|472:244,1,100,12|0,0:0|0:0,0:0:0:0:
376,160,100648,1,12,0:0:0:0:
344,296,100773,1,0,0:0:0:0:
472,164,100898,2,0,P|460:112|404:64,1,100,12|0,0:0|0:0,0:0:0:0:
264,172,101148,5,12,0:0:0:0:
104,88,101273,1,8,0:0:0:0:
268,16,101398,1,0,0:0:0:0:
376,160,101523,1,8,0:0:0:0:
362,175,101585,1,0,0:0:0:0:
349,190,101648,1,0,0:0:0:0:
336,205,101710,1,0,0:0:0:0:
323,220,101773,1,8,0:0:0:0:
310,235,101835,1,0,0:0:0:0:
296,250,101898,1,0,0:0:0:0:
283,265,101960,1,0,0:0:0:0:
268,280,102023,6,0,B|220:272|220:272|156:280,1,100,8|8,0:0|0:0,0:0:0:0:
56,360,102273,1,8,0:0:0:0:
44,220,102398,2,0,B|36:168|36:168|48:100,1,100,12|0,0:0|0:0,0:0:0:0:
160,40,102648,2,0,B|168:92|168:92|156:160,1,100,12|0,0:0|0:0,0:0:0:0:
169,278,102898,1,12,0:0:0:0:
176,296,102960,1,0,0:0:0:0:
184,316,103023,1,0,0:0:0:0:
316,360,103148,5,8,0:0:0:0:
336,352,103210,1,0,0:0:0:0:
356,344,103273,1,8,0:0:0:0:
376,336,103335,1,0,0:0:0:0:
396,332,103398,1,8,0:0:0:0:
416,324,103460,1,8,0:0:0:0:
436,320,103523,2,0,L|484:272,3,50,8|0|8|8,0:0|0:0|0:0|0:0,0:0:0:0:
416,200,103773,1,8,0:0:0:0:
408,180,103835,1,0,0:0:0:0:
404,160,103898,1,0,0:0:0:0:
404,140,103960,1,0,0:0:0:0:
408,120,104023,6,0,P|360:112|288:128,1,100,4|0,0:0|0:0,0:0:0:0:
309,119,104210,1,0,0:0:0:0:
309,119,104273,1,0,0:0:0:0:
236,236,104398,2,0,P|284:244|356:228,1,100,12|0,0:0|0:0,0:0:0:0:
172,112,104648,1,12,0:0:0:0:
92,228,104773,1,0,0:0:0:0:
168,344,104898,2,0,B|176:296|176:296|164:216,1,100,12|0,0:0|0:0,0:0:0:0:
80,344,105148,5,12,0:0:0:0:
264,272,105273,1,8,0:0:0:0:
104,152,105398,1,0,0:0:0:0:
168,344,105523,1,8,0:0:0:0:
187,345,105585,1,0,0:0:0:0:
207,347,105648,1,0,0:0:0:0:
226,349,105710,1,0,0:0:0:0:
246,351,105773,5,8,0:0:0:0:
265,353,105835,1,0,0:0:0:0:
285,355,105898,1,0,0:0:0:0:
304,357,105960,1,0,0:0:0:0:
323,358,106023,2,0,L|390:335,3,50,0|0|0|0,0:0|0:0|0:0|0:0,0:0:0:0:
328,238,106273,5,8,0:0:0:0:
328,238,106335,1,0,0:0:0:0:
328,238,106398,2,0,L|335:165,1,50,0|0,0:0|0:0,0:0:0:0:
419,102,106523,1,8,0:0:0:0:
419,102,106585,1,0,0:0:0:0:
419,102,106648,2,0,L|478:144,1,50
482,247,106773,1,8,0:0:0:0:
482,247,106835,1,0,0:0:0:0:
482,247,106898,2,0,L|415:277,1,50
250,279,107023,5,0,0:0:0:0:
236,264,107085,1,0,0:0:0:0:
224,248,107148,1,8,0:0:0:0:
216,230,107210,1,8,0:0:0:0:
210,211,107273,1,0,0:0:0:0:
207,191,107335,1,0,0:0:0:0:
207,171,107398,1,8,0:0:0:0:
211,151,107460,1,8,0:0:0:0:
217,132,107523,1,0,0:0:0:0:
226,115,107585,1,0,0:0:0:0:
238,99,107648,5,12,0:0:0:0:
181,361,107898,1,4,0:0:0:0:
256,192,107960,12,0,110210,2:0:0:0:
