osu file format v14

[General]
AudioFilename: ww.mp3
AudioLeadIn: 2000
PreviewTime: 65773
Countdown: 0
SampleSet: Normal
StackLeniency: 0.7
Mode: 1
LetterboxInBreaks: 0
WidescreenStoryboard: 0

[Editor]
Bookmarks: 43773
DistanceSpacing: 0.6
BeatDivisor: 4
GridSize: 32
TimelineZoom: 3.499999

[Metadata]
Title:Yotogibanashi no Kamikakushi
TitleUnicode:夜伽話の神隠し
Artist:LIQU@.
ArtistUnicode:LIQU@。
Creator:Kyubey
Version:Dain's Oni
Source:東方Project
Tags:ryuu minstrel c80 comiket yuta 夜が降りてくる ~ Evening Star 東方萃夢想 ~ Immaterial and Missing Power ZUN yakumo yukari nwolf dainesl touhou leader lunarblossom okoratu
BeatmapID:661516
BeatmapSetID:236396

[Difficulty]
HPDrainRate:5
CircleSize:4
OverallDifficulty:5.5
ApproachRate:8
SliderMultiplier:1.4
SliderTickRate:1

[Events]
//Background and Video events
0,0,"bg.jpg",0,125
//Break Periods
//Storyboard Layer 0 (Background)
//Storyboard Layer 1 (Fail)
//Storyboard Layer 2 (Pass)
//Storyboard Layer 3 (Foreground)
//Storyboard Sound Samples

[TimingPoints]
23,250,4,1,0,80,1,0
26023,-100,4,1,0,90,0,1
42023,-100,4,1,0,80,0,0
42273,-100,4,1,0,40,0,0
45460,-100,4,1,0,60,0,0
45960,-100,4,1,0,75,0,0
70023,-100,4,1,0,90,0,1
98023,-100,4,1,0,80,0,0

[Colours]
Combo1 : 146,80,78
Combo2 : 193,175,102
Combo3 : 215,81,81
Combo4 : 194,208,149

[HitObjects]
256,192,23,5,12,0:0:0:0:
256,192,148,1,0,0:0:0:0:
256,192,210,1,0,0:0:0:0:
256,192,273,1,0,0:0:0:0:
256,192,398,1,12,0:0:0:0:
256,192,648,1,12,0:0:0:0:
256,192,898,1,12,0:0:0:0:
256,192,1023,1,0,0:0:0:0:
256,192,1148,1,12,0:0:0:0:
256,192,1273,1,12,0:0:0:0:
256,192,1398,1,0,0:0:0:0:
256,192,1523,1,0,0:0:0:0:
256,192,1648,1,8,0:0:0:0:
256,192,1710,1,8,0:0:0:0:
256,192,1773,1,8,0:0:0:0:
256,192,1898,1,0,0:0:0:0:
256,192,2023,1,8,0:0:0:0:
256,192,2148,1,0,0:0:0:0:
256,192,2210,1,0,0:0:0:0:
256,192,2273,1,0,0:0:0:0:
256,192,2398,1,12,0:0:0:0:
256,192,2648,1,12,0:0:0:0:
256,192,2898,1,12,0:0:0:0:
256,192,3148,1,0,0:0:0:0:
256,192,3273,1,12,0:0:0:0:
256,192,3398,1,0,0:0:0:0:
256,192,3523,1,8,0:0:0:0:
256,192,3585,1,8,0:0:0:0:
256,192,3648,1,8,0:0:0:0:
256,192,3773,1,0,0:0:0:0:
256,192,3835,1,0,0:0:0:0:
256,192,3898,1,0,0:0:0:0:
256,192,4023,1,12,0:0:0:0:
256,192,4148,1,0,0:0:0:0:
256,192,4210,1,0,0:0:0:0:
256,192,4273,1,0,0:0:0:0:
256,192,4398,1,12,0:0:0:0:
256,192,4648,1,12,0:0:0:0:
256,192,4898,1,12,0:0:0:0:
256,192,5023,1,0,0:0:0:0:
256,192,5148,1,12,0:0:0:0:
256,192,5273,1,12,0:0:0:0:
256,192,5398,1,0,0:0:0:0:
256,192,5523,1,0,0:0:0:0:
256,192,5648,1,0,0:0:0:0:
256,192,5773,1,8,0:0:0:0:
256,192,5898,1,0,0:0:0:0:
256,192,6023,1,8,0:0:0:0:
256,192,6148,1,0,0:0:0:0:
256,192,6210,1,0,0:0:0:0:
256,192,6273,1,0,0:0:0:0:
256,192,6398,1,12,0:0:0:0:
256,192,6648,1,12,0:0:0:0:
256,192,6898,1,12,0:0:0:0:
256,192,7148,1,0,0:0:0:0:
256,192,7273,1,12,0:0:0:0:
256,192,7523,1,8,0:0:0:0:
256,192,7585,1,8,0:0:0:0:
256,192,7648,1,0,0:0:0:0:
256,192,7710,1,0,0:0:0:0:
256,192,7773,1,0,0:0:0:0:
256,192,7835,1,0,0:0:0:0:
256,192,7898,1,0,0:0:0:0:
256,192,8023,1,8,0:0:0:0:
256,192,8148,1,0,0:0:0:0:
256,192,8273,1,0,0:0:0:0:
256,192,8398,1,8,0:0:0:0:
256,192,8523,1,0,0:0:0:0:
256,192,8648,1,0,0:0:0:0:
256,192,8773,1,8,0:0:0:0:
256,192,8898,1,0,0:0:0:0:
256,192,9023,1,0,0:0:0:0:
256,192,9085,1,0,0:0:0:0:
256,192,9148,1,8,0:0:0:0:
256,192,9273,1,0,0:0:0:0:
256,192,9335,1,0,0:0:0:0:
256,192,9398,1,8,0:0:0:0:
256,192,9523,1,0,0:0:0:0:
256,192,9648,1,12,0:0:0:0:
256,192,9898,1,4,0:0:0:0:
256,192,10148,1,0,0:0:0:0:
256,192,10273,1,8,0:0:0:0:
256,192,10398,1,0,0:0:0:0:
256,192,10460,1,0,0:0:0:0:
256,192,10523,1,8,0:0:0:0:
256,192,10648,1,0,0:0:0:0:
256,192,10773,1,8,0:0:0:0:
256,192,10898,1,0,0:0:0:0:
256,192,10960,1,0,0:0:0:0:
256,192,11023,1,8,0:0:0:0:
256,192,11148,1,0,0:0:0:0:
256,192,11273,1,8,0:0:0:0:
256,192,11398,1,0,0:0:0:0:
256,192,11460,1,0,0:0:0:0:
256,192,11523,1,8,0:0:0:0:
256,192,11648,1,0,0:0:0:0:
256,192,11898,1,12,0:0:0:0:
256,192,12148,1,0,0:0:0:0:
256,192,12273,1,8,0:0:0:0:
256,192,12398,1,0,0:0:0:0:
256,192,12460,1,0,0:0:0:0:
256,192,12523,1,8,0:0:0:0:
256,192,12648,1,0,0:0:0:0:
256,192,12773,1,8,0:0:0:0:
256,192,12898,1,0,0:0:0:0:
256,192,12960,1,0,0:0:0:0:
256,192,13023,1,8,0:0:0:0:
256,192,13148,1,0,0:0:0:0:
256,192,13273,1,8,0:0:0:0:
256,192,13398,1,0,0:0:0:0:
256,192,13460,1,0,0:0:0:0:
256,192,13523,1,8,0:0:0:0:
256,192,13648,1,0,0:0:0:0:
256,192,13898,1,12,0:0:0:0:
256,192,14148,1,0,0:0:0:0:
256,192,14273,1,8,0:0:0:0:
256,192,14398,1,0,0:0:0:0:
256,192,14460,1,0,0:0:0:0:
256,192,14523,1,8,0:0:0:0:
256,192,14648,1,0,0:0:0:0:
256,192,14773,1,12,0:0:0:0:
256,192,14898,1,12,0:0:0:0:
256,192,15023,1,0,0:0:0:0:
256,192,15148,1,12,0:0:0:0:
256,192,15273,1,0,0:0:0:0:
256,192,15523,1,8,0:0:0:0:
256,192,15648,1,0,0:0:0:0:
256,192,15773,1,0,0:0:0:0:
256,192,15898,1,8,0:0:0:0:
256,192,16148,1,0,0:0:0:0:
256,192,16273,1,8,0:0:0:0:
256,192,16398,1,0,0:0:0:0:
256,192,16523,1,0,0:0:0:0:
256,192,16648,1,0,0:0:0:0:
256,192,16773,1,8,0:0:0:0:
256,192,17023,1,0,0:0:0:0:
256,192,17148,1,0,0:0:0:0:
256,192,17273,1,8,0:0:0:0:
256,192,17523,1,12,0:0:0:0:
256,192,17648,1,12,0:0:0:0:
256,192,17773,1,12,0:0:0:0:
256,192,17898,1,4,0:0:0:0:
256,192,18148,1,0,0:0:0:0:
256,192,18273,1,8,0:0:0:0:
256,192,18398,1,0,0:0:0:0:
256,192,18460,1,0,0:0:0:0:
256,192,18523,1,8,0:0:0:0:
256,192,18648,1,0,0:0:0:0:
256,192,18773,1,8,0:0:0:0:
256,192,18898,1,0,0:0:0:0:
256,192,18960,1,0,0:0:0:0:
256,192,19023,1,8,0:0:0:0:
256,192,19148,1,0,0:0:0:0:
256,192,19273,1,8,0:0:0:0:
256,192,19398,1,0,0:0:0:0:
256,192,19460,1,0,0:0:0:0:
256,192,19523,1,8,0:0:0:0:
256,192,19648,1,0,0:0:0:0:
256,192,19898,1,12,0:0:0:0:
256,192,20148,1,0,0:0:0:0:
256,192,20273,1,8,0:0:0:0:
256,192,20398,1,0,0:0:0:0:
256,192,20460,1,0,0:0:0:0:
256,192,20523,1,8,0:0:0:0:
256,192,20648,1,0,0:0:0:0:
256,192,20773,1,8,0:0:0:0:
256,192,20898,1,0,0:0:0:0:
256,192,20960,1,0,0:0:0:0:
256,192,21023,1,8,0:0:0:0:
256,192,21148,1,0,0:0:0:0:
256,192,21273,1,8,0:0:0:0:
256,192,21335,1,0,0:0:0:0:
256,192,21398,1,0,0:0:0:0:
256,192,21460,1,0,0:0:0:0:
256,192,21523,1,8,0:0:0:0:
256,192,21648,1,0,0:0:0:0:
256,192,21898,1,12,0:0:0:0:
256,192,22148,1,0,0:0:0:0:
256,192,22210,1,0,0:0:0:0:
256,192,22273,1,8,0:0:0:0:
256,192,22398,1,0,0:0:0:0:
256,192,22523,1,8,0:0:0:0:
256,192,22648,1,0,0:0:0:0:
256,192,22773,1,12,0:0:0:0:
256,192,22898,1,12,0:0:0:0:
256,192,23023,1,0,0:0:0:0:
256,192,23148,1,12,0:0:0:0:
256,192,23273,1,0,0:0:0:0:
256,192,23523,1,0,0:0:0:0:
256,192,23648,1,8,0:0:0:0:
256,192,23773,1,0,0:0:0:0:
256,192,23898,1,8,0:0:0:0:
256,192,24148,1,0,0:0:0:0:
256,192,24273,1,8,0:0:0:0:
256,192,24523,1,0,0:0:0:0:
256,192,24648,1,0,0:0:0:0:
256,192,24773,1,8,0:0:0:0:
256,192,25023,1,0,0:0:0:0:
256,192,25148,1,0,0:0:0:0:
256,192,25273,1,8,0:0:0:0:
256,192,25398,1,0,0:0:0:0:
256,192,25460,1,0,0:0:0:0:
256,192,25523,1,8,0:0:0:0:
256,192,25585,1,8,0:0:0:0:
256,192,25648,1,0,0:0:0:0:
256,192,25710,1,0,0:0:0:0:
256,192,25773,1,8,0:0:0:0:
256,192,26023,1,4,0:0:0:0:
256,192,26148,1,8,0:0:0:0:
256,192,26273,1,0,0:0:0:0:
256,192,26398,1,8,0:0:0:0:
256,192,26523,1,0,0:0:0:0:
256,192,26648,1,8,0:0:0:0:
256,192,26773,1,0,0:0:0:0:
256,192,26835,1,0,0:0:0:0:
256,192,26898,1,8,0:0:0:0:
256,192,27023,1,0,0:0:0:0:
256,192,27148,1,8,0:0:0:0:
256,192,27273,1,0,0:0:0:0:
256,192,27398,1,8,0:0:0:0:
256,192,27523,1,0,0:0:0:0:
256,192,27648,1,8,0:0:0:0:
256,192,27773,1,0,0:0:0:0:
256,192,27835,1,0,0:0:0:0:
256,192,27898,1,8,0:0:0:0:
256,192,28023,1,0,0:0:0:0:
256,192,28273,1,0,0:0:0:0:
256,192,28398,1,8,0:0:0:0:
256,192,28523,1,0,0:0:0:0:
256,192,28648,1,8,0:0:0:0:
256,192,28773,1,0,0:0:0:0:
256,192,28835,1,0,0:0:0:0:
256,192,28898,1,8,0:0:0:0:
256,192,29023,1,0,0:0:0:0:
256,192,29148,1,8,0:0:0:0:
256,192,29210,1,0,0:0:0:0:
256,192,29273,1,0,0:0:0:0:
256,192,29335,1,0,0:0:0:0:
256,192,29398,1,8,0:0:0:0:
256,192,29648,1,8,0:0:0:0:
256,192,29898,1,8,0:0:0:0:
256,192,30023,1,4,0:0:0:0:
256,192,30148,1,8,0:0:0:0:
256,192,30273,1,0,0:0:0:0:
256,192,30335,1,0,0:0:0:0:
256,192,30398,1,8,0:0:0:0:
256,192,30523,1,0,0:0:0:0:
256,192,30648,1,8,0:0:0:0:
256,192,30773,1,0,0:0:0:0:
256,192,30835,1,0,0:0:0:0:
256,192,30898,1,8,0:0:0:0:
256,192,31023,1,0,0:0:0:0:
256,192,31148,1,8,0:0:0:0:
256,192,31273,1,0,0:0:0:0:
256,192,31398,1,8,0:0:0:0:
256,192,31523,1,0,0:0:0:0:
256,192,31648,1,8,0:0:0:0:
256,192,31773,1,0,0:0:0:0:
256,192,31835,1,0,0:0:0:0:
256,192,31898,1,8,0:0:0:0:
256,192,32023,1,0,0:0:0:0:
256,192,32273,1,0,0:0:0:0:
256,192,32398,1,8,0:0:0:0:
256,192,32523,1,0,0:0:0:0:
256,192,32648,1,8,0:0:0:0:
256,192,32773,1,0,0:0:0:0:
256,192,32835,1,0,0:0:0:0:
256,192,32898,1,8,0:0:0:0:
256,192,33023,1,0,0:0:0:0:
256,192,33148,1,8,0:0:0:0:
256,192,33273,1,0,0:0:0:0:
256,192,33335,1,0,0:0:0:0:
256,192,33398,1,8,0:0:0:0:
256,192,33523,1,0,0:0:0:0:
256,192,33648,1,8,0:0:0:0:
256,192,33898,1,8,0:0:0:0:
256,192,34023,1,4,0:0:0:0:
256,192,34148,1,8,0:0:0:0:
256,192,34273,1,0,0:0:0:0:
256,192,34398,1,8,0:0:0:0:
256,192,34523,1,0,0:0:0:0:
256,192,34648,1,8,0:0:0:0:
256,192,34773,1,0,0:0:0:0:
256,192,34835,1,0,0:0:0:0:
256,192,34898,1,8,0:0:0:0:
256,192,35023,1,0,0:0:0:0:
256,192,35148,1,8,0:0:0:0:
256,192,35273,1,0,0:0:0:0:
256,192,35398,1,8,0:0:0:0:
256,192,35523,1,0,0:0:0:0:
256,192,35648,1,8,0:0:0:0:
256,192,35773,1,0,0:0:0:0:
256,192,35835,1,0,0:0:0:0:
256,192,35898,1,8,0:0:0:0:
256,192,36023,1,0,0:0:0:0:
256,192,36273,1,0,0:0:0:0:
256,192,36398,1,8,0:0:0:0:
256,192,36523,1,0,0:0:0:0:
256,192,36648,1,8,0:0:0:0:
256,192,36773,1,0,0:0:0:0:
256,192,36835,1,0,0:0:0:0:
256,192,36898,1,8,0:0:0:0:
256,192,37023,1,0,0:0:0:0:
256,192,37148,1,8,0:0:0:0:
256,192,37210,1,0,0:0:0:0:
256,192,37273,1,0,0:0:0:0:
256,192,37335,1,0,0:0:0:0:
256,192,37398,1,8,0:0:0:0:
256,192,37648,1,8,0:0:0:0:
256,192,37898,1,8,0:0:0:0:
256,192,38023,1,4,0:0:0:0:
256,192,38148,1,8,0:0:0:0:
256,192,38273,1,0,0:0:0:0:
256,192,38335,1,0,0:0:0:0:
256,192,38398,1,8,0:0:0:0:
256,192,38523,1,0,0:0:0:0:
256,192,38648,1,8,0:0:0:0:
256,192,38773,1,0,0:0:0:0:
256,192,38835,1,0,0:0:0:0:
256,192,38898,1,8,0:0:0:0:
256,192,39023,1,0,0:0:0:0:
256,192,39148,1,8,0:0:0:0:
256,192,39273,1,0,0:0:0:0:
256,192,39398,1,8,0:0:0:0:
256,192,39523,1,0,0:0:0:0:
256,192,39648,1,8,0:0:0:0:
256,192,39773,1,0,0:0:0:0:
256,192,39835,1,0,0:0:0:0:
256,192,39898,1,8,0:0:0:0:
256,192,40023,1,0,0:0:0:0:
256,192,40273,1,8,0:0:0:0:
256,192,40335,1,8,0:0:0:0:
256,192,40398,1,0,0:0:0:0:
256,192,40648,1,12,0:0:0:0:
256,192,40773,1,0,0:0:0:0:
256,192,40898,1,12,0:0:0:0:
256,192,41023,1,0,0:0:0:0:
256,192,41148,1,12,0:0:0:0:
256,192,41398,1,0,0:0:0:0:
256,192,41460,1,0,0:0:0:0:
256,192,41523,1,0,0:0:0:0:
256,192,41648,1,8,0:0:0:0:
256,192,41773,1,0,0:0:0:0:
256,192,41835,1,0,0:0:0:0:
256,192,41898,1,0,0:0:0:0:
256,192,42023,1,8,0:0:0:0:
256,192,44023,1,8,0:0:0:0:
256,192,44523,1,8,0:0:0:0:
256,192,45023,1,8,0:0:0:0:
256,192,45148,1,8,0:0:0:0:
256,192,45273,1,8,0:0:0:0:
256,192,45398,1,8,0:0:0:0:
256,192,45523,1,0,0:0:0:0:
256,192,45585,1,0,0:0:0:0:
256,192,45648,1,8,0:0:0:0:
256,192,46023,1,4,0:0:0:0:
256,192,46273,1,0,0:0:0:0:
256,192,46398,1,0,0:0:0:0:
256,192,46523,1,8,0:0:0:0:
256,192,46773,1,0,0:0:0:0:
256,192,46898,1,0,0:0:0:0:
256,192,47023,1,8,0:0:0:0:
256,192,47148,1,0,0:0:0:0:
256,192,47273,1,0,0:0:0:0:
256,192,47398,1,0,0:0:0:0:
256,192,47523,1,8,0:0:0:0:
256,192,47773,1,8,0:0:0:0:
256,192,47898,1,8,0:0:0:0:
256,192,48023,1,8,0:0:0:0:
256,192,48148,1,0,0:0:0:0:
256,192,48210,1,0,0:0:0:0:
256,192,48273,1,0,0:0:0:0:
256,192,48398,1,12,0:0:0:0:
256,192,48648,1,12,0:0:0:0:
256,192,48898,1,0,0:0:0:0:
256,192,49023,1,8,0:0:0:0:
256,192,49273,1,0,0:0:0:0:
256,192,49335,1,0,0:0:0:0:
256,192,49398,1,0,0:0:0:0:
256,192,49523,1,8,0:0:0:0:
256,192,49648,1,0,0:0:0:0:
256,192,49710,1,0,0:0:0:0:
256,192,49773,1,8,0:0:0:0:
256,192,50023,1,12,0:0:0:0:
256,192,50273,1,0,0:0:0:0:
256,192,50398,1,0,0:0:0:0:
256,192,50523,1,8,0:0:0:0:
256,192,50773,1,0,0:0:0:0:
256,192,50898,1,0,0:0:0:0:
256,192,51023,1,8,0:0:0:0:
256,192,51148,1,0,0:0:0:0:
256,192,51273,1,0,0:0:0:0:
256,192,51398,1,0,0:0:0:0:
256,192,51523,1,8,0:0:0:0:
256,192,51648,1,0,0:0:0:0:
256,192,51898,1,0,0:0:0:0:
256,192,52023,1,8,0:0:0:0:
256,192,52273,1,0,0:0:0:0:
256,192,52398,1,0,0:0:0:0:
256,192,52523,1,8,0:0:0:0:
256,192,52773,1,0,0:0:0:0:
256,192,52898,1,0,0:0:0:0:
256,192,53023,1,8,0:0:0:0:
256,192,53273,1,0,0:0:0:0:
256,192,53335,1,0,0:0:0:0:
256,192,53398,1,0,0:0:0:0:
256,192,53523,1,8,0:0:0:0:
256,192,53585,1,8,0:0:0:0:
256,192,53648,1,8,0:0:0:0:
256,192,53710,1,8,0:0:0:0:
256,192,53773,1,8,0:0:0:0:
256,192,53898,1,8,0:0:0:0:
256,192,54023,1,4,0:0:0:0:
256,192,54273,1,0,0:0:0:0:
256,192,54398,1,0,0:0:0:0:
256,192,54523,1,8,0:0:0:0:
256,192,54773,1,0,0:0:0:0:
256,192,54898,1,0,0:0:0:0:
256,192,55023,1,8,0:0:0:0:
256,192,55148,1,0,0:0:0:0:
256,192,55273,1,0,0:0:0:0:
256,192,55398,1,0,0:0:0:0:
256,192,55523,1,8,0:0:0:0:
256,192,55773,1,0,0:0:0:0:
256,192,55898,1,0,0:0:0:0:
256,192,56023,1,8,0:0:0:0:
256,192,56273,1,0,0:0:0:0:
256,192,56523,1,8,0:0:0:0:
256,192,56773,1,0,0:0:0:0:
256,192,56898,1,0,0:0:0:0:
256,192,57023,1,8,0:0:0:0:
256,192,57085,1,8,0:0:0:0:
256,192,57148,1,0,0:0:0:0:
256,192,57273,1,0,0:0:0:0:
256,192,57398,1,0,0:0:0:0:
256,192,57523,1,8,0:0:0:0:
256,192,57648,1,0,0:0:0:0:
256,192,57898,1,4,0:0:0:0:
256,192,58523,1,12,0:0:0:0:
256,192,58710,1,12,0:0:0:0:
256,192,58898,1,12,0:0:0:0:
256,192,59023,1,8,0:0:0:0:
256,192,59085,1,8,0:0:0:0:
256,192,59148,1,0,0:0:0:0:
256,192,59273,1,0,0:0:0:0:
256,192,59398,1,0,0:0:0:0:
256,192,59523,1,8,0:0:0:0:
256,192,59648,1,0,0:0:0:0:
256,192,59710,1,0,0:0:0:0:
256,192,59773,1,0,0:0:0:0:
256,192,59898,1,0,0:0:0:0:
256,192,60023,1,12,0:0:0:0:
256,192,60148,1,12,0:0:0:0:
256,192,60523,1,8,0:0:0:0:
256,192,60585,1,8,0:0:0:0:
256,192,60648,1,0,0:0:0:0:
256,192,60773,1,0,0:0:0:0:
256,192,60898,1,0,0:0:0:0:
256,192,61023,1,8,0:0:0:0:
256,192,61148,1,0,0:0:0:0:
256,192,61273,1,8,0:0:0:0:
256,192,61398,1,0,0:0:0:0:
256,192,61523,1,8,0:0:0:0:
256,192,61773,1,0,0:0:0:0:
256,192,61898,1,12,0:0:0:0:
256,192,62148,1,0,0:0:0:0:
256,192,62210,1,0,0:0:0:0:
256,192,62273,1,8,0:0:0:0:
256,192,62398,1,0,0:0:0:0:
256,192,62523,1,8,0:0:0:0:
256,192,62648,1,0,0:0:0:0:
256,192,62710,1,0,0:0:0:0:
256,192,62773,1,8,0:0:0:0:
256,192,63023,1,8,0:0:0:0:
256,192,63148,1,0,0:0:0:0:
256,192,63211,1,0,0:0:0:0:
256,192,63273,1,8,0:0:0:0:
256,192,63398,1,0,0:0:0:0:
256,192,63523,1,8,0:0:0:0:
256,192,63648,1,0,0:0:0:0:
256,192,63710,1,0,0:0:0:0:
256,192,63773,1,8,0:0:0:0:
256,192,64023,1,0,0:0:0:0:
256,192,64085,1,0,0:0:0:0:
256,192,64148,1,8,0:0:0:0:
256,192,64273,1,0,0:0:0:0:
256,192,64398,1,8,0:0:0:0:
256,192,64523,1,0,0:0:0:0:
256,192,64585,1,0,0:0:0:0:
256,192,64648,1,8,0:0:0:0:
256,192,64773,1,0,0:0:0:0:
256,192,64898,1,8,0:0:0:0:
256,192,65023,1,8,0:0:0:0:
256,192,65085,1,8,0:0:0:0:
256,192,65148,1,8,0:0:0:0:
256,192,65273,1,0,0:0:0:0:
256,192,65335,1,0,0:0:0:0:
256,192,65398,1,0,0:0:0:0:
256,192,65523,1,12,0:0:0:0:
256,192,66023,1,4,0:0:0:0:
256,192,70023,1,4,0:0:0:0:
256,192,70273,1,0,0:0:0:0:
256,192,70398,1,0,0:0:0:0:
256,192,70523,1,8,0:0:0:0:
256,192,70773,1,0,0:0:0:0:
256,192,71023,1,0,0:0:0:0:
256,192,71148,1,0,0:0:0:0:
256,192,71273,1,0,0:0:0:0:
256,192,71398,1,0,0:0:0:0:
256,192,71523,1,8,0:0:0:0:
256,192,71773,1,0,0:0:0:0:
256,192,71898,1,0,0:0:0:0:
256,192,72023,1,8,0:0:0:0:
256,192,72273,1,0,0:0:0:0:
256,192,72398,1,12,0:0:0:0:
256,192,72648,1,12,0:0:0:0:
256,192,72898,1,0,0:0:0:0:
256,192,73023,1,8,0:0:0:0:
256,192,73085,1,8,0:0:0:0:
256,192,73148,1,8,0:0:0:0:
256,192,73273,1,0,0:0:0:0:
256,192,73335,1,0,0:0:0:0:
256,192,73398,1,0,0:0:0:0:
256,192,73523,1,8,0:0:0:0:
256,192,73773,1,8,0:0:0:0:
256,192,73835,1,8,0:0:0:0:
256,192,73898,1,8,0:0:0:0:
256,192,74023,1,4,0:0:0:0:
256,192,74148,1,8,0:0:0:0:
256,192,74273,1,0,0:0:0:0:
256,192,74398,1,8,0:0:0:0:
256,192,74523,1,0,0:0:0:0:
256,192,74648,1,8,0:0:0:0:
256,192,74773,1,0,0:0:0:0:
256,192,74835,1,0,0:0:0:0:
256,192,74898,1,8,0:0:0:0:
256,192,75023,1,0,0:0:0:0:
256,192,75148,1,8,0:0:0:0:
256,192,75273,1,0,0:0:0:0:
256,192,75398,1,8,0:0:0:0:
256,192,75523,1,0,0:0:0:0:
256,192,75648,1,8,0:0:0:0:
256,192,75773,1,0,0:0:0:0:
256,192,75835,1,0,0:0:0:0:
256,192,75898,1,8,0:0:0:0:
256,192,76023,1,0,0:0:0:0:
256,192,76273,1,0,0:0:0:0:
256,192,76398,1,8,0:0:0:0:
256,192,76523,1,0,0:0:0:0:
256,192,76648,1,8,0:0:0:0:
256,192,76773,1,0,0:0:0:0:
256,192,76835,1,0,0:0:0:0:
256,192,76898,1,8,0:0:0:0:
256,192,77023,1,0,0:0:0:0:
256,192,77148,1,8,0:0:0:0:
256,192,77210,1,0,0:0:0:0:
256,192,77273,1,0,0:0:0:0:
256,192,77335,1,0,0:0:0:0:
256,192,77398,1,8,0:0:0:0:
256,192,77648,1,8,0:0:0:0:
256,192,77898,1,8,0:0:0:0:
256,192,78023,1,4,0:0:0:0:
256,192,78148,1,8,0:0:0:0:
256,192,78273,1,0,0:0:0:0:
256,192,78335,1,0,0:0:0:0:
256,192,78398,1,8,0:0:0:0:
256,192,78523,1,0,0:0:0:0:
256,192,78648,1,8,0:0:0:0:
256,192,78773,1,0,0:0:0:0:
256,192,78835,1,0,0:0:0:0:
256,192,78898,1,8,0:0:0:0:
256,192,79023,1,0,0:0:0:0:
256,192,79148,1,8,0:0:0:0:
256,192,79273,1,0,0:0:0:0:
256,192,79398,1,8,0:0:0:0:
256,192,79523,1,0,0:0:0:0:
256,192,79648,1,8,0:0:0:0:
256,192,79773,1,0,0:0:0:0:
256,192,79835,1,0,0:0:0:0:
256,192,79898,1,8,0:0:0:0:
256,192,80023,1,0,0:0:0:0:
256,192,80273,1,0,0:0:0:0:
256,192,80398,1,8,0:0:0:0:
256,192,80523,1,0,0:0:0:0:
256,192,80648,1,8,0:0:0:0:
256,192,80773,1,0,0:0:0:0:
256,192,80835,1,0,0:0:0:0:
256,192,80898,1,8,0:0:0:0:
256,192,81023,1,0,0:0:0:0:
256,192,81148,1,8,0:0:0:0:
256,192,81210,1,8,0:0:0:0:
256,192,81273,1,0,0:0:0:0:
256,192,81335,1,0,0:0:0:0:
256,192,81398,1,0,0:0:0:0:
256,192,81523,1,8,0:0:0:0:
256,192,81773,1,8,0:0:0:0:
256,192,82023,1,4,0:0:0:0:
256,192,82148,1,8,0:0:0:0:
256,192,82273,1,0,0:0:0:0:
256,192,82398,1,8,0:0:0:0:
256,192,82523,1,0,0:0:0:0:
256,192,82648,1,8,0:0:0:0:
256,192,82773,1,0,0:0:0:0:
256,192,82835,1,0,0:0:0:0:
256,192,82898,1,8,0:0:0:0:
256,192,83023,1,0,0:0:0:0:
256,192,83148,1,8,0:0:0:0:
256,192,83273,1,0,0:0:0:0:
256,192,83398,1,8,0:0:0:0:
256,192,83523,1,0,0:0:0:0:
256,192,83648,1,8,0:0:0:0:
256,192,83773,1,0,0:0:0:0:
256,192,83835,1,0,0:0:0:0:
256,192,83898,1,8,0:0:0:0:
256,192,84023,1,0,0:0:0:0:
256,192,84273,1,0,0:0:0:0:
256,192,84398,1,8,0:0:0:0:
256,192,84523,1,0,0:0:0:0:
256,192,84648,1,8,0:0:0:0:
256,192,84773,1,0,0:0:0:0:
256,192,84835,1,0,0:0:0:0:
256,192,84898,1,8,0:0:0:0:
256,192,85023,1,0,0:0:0:0:
256,192,85148,1,8,0:0:0:0:
256,192,85210,1,0,0:0:0:0:
256,192,85273,1,0,0:0:0:0:
256,192,85335,1,0,0:0:0:0:
256,192,85398,1,8,0:0:0:0:
256,192,85648,1,8,0:0:0:0:
256,192,85898,1,8,0:0:0:0:
256,192,86023,1,4,0:0:0:0:
256,192,86148,1,8,0:0:0:0:
256,192,86273,1,0,0:0:0:0:
256,192,86335,1,0,0:0:0:0:
256,192,86398,1,8,0:0:0:0:
256,192,86523,1,0,0:0:0:0:
256,192,86648,1,8,0:0:0:0:
256,192,86773,1,0,0:0:0:0:
256,192,86835,1,0,0:0:0:0:
256,192,86898,1,8,0:0:0:0:
256,192,87023,1,0,0:0:0:0:
256,192,87148,1,8,0:0:0:0:
256,192,87273,1,0,0:0:0:0:
256,192,87335,1,0,0:0:0:0:
256,192,87398,1,8,0:0:0:0:
256,192,87523,1,0,0:0:0:0:
256,192,87648,1,8,0:0:0:0:
256,192,87898,1,8,0:0:0:0:
256,192,88023,1,0,0:0:0:0:
256,192,88148,1,8,0:0:0:0:
256,192,88273,1,0,0:0:0:0:
256,192,88335,1,0,0:0:0:0:
256,192,88398,1,8,0:0:0:0:
256,192,88523,1,0,0:0:0:0:
256,192,88648,1,8,0:0:0:0:
256,192,88773,1,0,0:0:0:0:
256,192,88835,1,0,0:0:0:0:
256,192,88898,1,8,0:0:0:0:
256,192,89023,1,0,0:0:0:0:
256,192,89148,1,8,0:0:0:0:
256,192,89210,1,0,0:0:0:0:
256,192,89273,1,0,0:0:0:0:
256,192,89335,1,0,0:0:0:0:
256,192,89398,1,8,0:0:0:0:
256,192,89648,1,8,0:0:0:0:
256,192,89898,1,8,0:0:0:0:
256,192,90023,1,4,0:0:0:0:
256,192,90148,1,8,0:0:0:0:
256,192,90273,1,0,0:0:0:0:
256,192,90398,1,8,0:0:0:0:
256,192,90523,1,0,0:0:0:0:
256,192,90648,1,8,0:0:0:0:
256,192,90773,1,0,0:0:0:0:
256,192,90835,1,0,0:0:0:0:
256,192,90898,1,8,0:0:0:0:
256,192,91023,1,0,0:0:0:0:
256,192,91148,1,8,0:0:0:0:
256,192,91273,1,0,0:0:0:0:
256,192,91335,1,0,0:0:0:0:
256,192,91398,1,8,0:0:0:0:
256,192,91523,1,0,0:0:0:0:
256,192,91648,1,8,0:0:0:0:
256,192,91773,1,0,0:0:0:0:
256,192,91835,1,0,0:0:0:0:
256,192,91898,1,8,0:0:0:0:
256,192,92023,1,0,0:0:0:0:
256,192,92273,1,0,0:0:0:0:
256,192,92398,1,8,0:0:0:0:
256,192,92523,1,0,0:0:0:0:
256,192,92648,1,8,0:0:0:0:
256,192,92773,1,0,0:0:0:0:
256,192,92835,1,0,0:0:0:0:
256,192,92898,1,8,0:0:0:0:
256,192,93023,1,0,0:0:0:0:
256,192,93148,1,8,0:0:0:0:
256,192,93210,1,0,0:0:0:0:
256,192,93273,1,0,0:0:0:0:
256,192,93335,1,0,0:0:0:0:
256,192,93398,1,8,0:0:0:0:
256,192,93648,1,8,0:0:0:0:
256,192,93898,1,8,0:0:0:0:
256,192,94023,1,4,0:0:0:0:
256,192,94148,1,8,0:0:0:0:
256,192,94273,1,0,0:0:0:0:
256,192,94398,1,8,0:0:0:0:
256,192,94523,1,4,0:0:0:0:
256,192,94648,1,8,0:0:0:0:
256,192,94773,1,0,0:0:0:0:
256,192,94898,1,8,0:0:0:0:
256,192,95023,1,4,0:0:0:0:
256,192,95148,1,8,0:0:0:0:
256,192,95273,1,0,0:0:0:0:
256,192,95335,1,0,0:0:0:0:
256,192,95398,1,8,0:0:0:0:
256,192,95523,1,4,0:0:0:0:
256,192,95648,1,8,0:0:0:0:
256,192,95773,1,0,0:0:0:0:
256,192,95835,1,0,0:0:0:0:
256,192,95898,1,8,0:0:0:0:
256,192,96023,1,4,0:0:0:0:
256,192,96273,1,8,0:0:0:0:
256,192,96335,1,8,0:0:0:0:
256,192,96398,1,0,0:0:0:0:
256,192,96648,1,12,0:0:0:0:
256,192,96773,1,0,0:0:0:0:
256,192,96898,1,12,0:0:0:0:
256,192,97023,1,0,0:0:0:0:
256,192,97148,1,12,0:0:0:0:
256,192,97398,1,8,0:0:0:0:
256,192,97460,1,8,0:0:0:0:
256,192,97523,1,8,0:0:0:0:
256,192,97648,1,0,0:0:0:0:
256,192,97773,1,0,0:0:0:0:
256,192,97835,1,0,0:0:0:0:
256,192,97898,1,0,0:0:0:0:
256,192,98023,1,12,0:0:0:0:
256,192,98148,1,0,0:0:0:0:
256,192,98210,1,0,0:0:0:0:
256,192,98273,1,0,0:0:0:0:
256,192,98398,1,12,0:0:0:0:
256,192,98648,1,12,0:0:0:0:
256,192,98898,1,12,0:0:0:0:
256,192,99023,1,0,0:0:0:0:
256,192,99148,1,12,0:0:0:0:
256,192,99273,1,12,0:0:0:0:
256,192,99398,1,0,0:0:0:0:
256,192,99523,1,0,0:0:0:0:
256,192,99648,1,8,0:0:0:0:
256,192,99710,1,8,0:0:0:0:
256,192,99773,1,8,0:0:0:0:
256,192,99898,1,0,0:0:0:0:
256,192,100023,1,8,0:0:0:0:
256,192,100148,1,0,0:0:0:0:
256,192,100210,1,0,0:0:0:0:
256,192,100273,1,0,0:0:0:0:
256,192,100398,1,12,0:0:0:0:
256,192,100648,1,12,0:0:0:0:
256,192,100898,1,12,0:0:0:0:
256,192,101148,1,0,0:0:0:0:
256,192,101273,1,12,0:0:0:0:
256,192,101398,1,0,0:0:0:0:
256,192,101523,1,8,0:0:0:0:
256,192,101585,1,8,0:0:0:0:
256,192,101648,1,8,0:0:0:0:
256,192,101773,1,0,0:0:0:0:
256,192,101835,1,0,0:0:0:0:
256,192,101898,1,0,0:0:0:0:
256,192,102023,1,8,0:0:0:0:
256,192,102148,1,0,0:0:0:0:
256,192,102210,1,0,0:0:0:0:
256,192,102273,1,0,0:0:0:0:
256,192,102398,1,12,0:0:0:0:
256,192,102648,1,12,0:0:0:0:
256,192,102898,1,8,0:0:0:0:
256,192,103023,1,0,0:0:0:0:
256,192,103148,1,8,0:0:0:0:
256,192,103273,1,8,0:0:0:0:
256,192,103398,1,0,0:0:0:0:
256,192,103523,1,0,0:0:0:0:
256,192,103648,1,0,0:0:0:0:
256,192,103773,1,8,0:0:0:0:
256,192,103898,1,0,0:0:0:0:
256,192,104023,1,12,0:0:0:0:
256,192,104148,1,0,0:0:0:0:
256,192,104210,1,0,0:0:0:0:
256,192,104273,1,0,0:0:0:0:
256,192,104398,1,12,0:0:0:0:
256,192,104648,1,12,0:0:0:0:
256,192,104898,1,12,0:0:0:0:
256,192,105148,1,0,0:0:0:0:
256,192,105273,1,12,0:0:0:0:
256,192,105523,1,8,0:0:0:0:
256,192,105585,1,8,0:0:0:0:
256,192,105648,1,0,0:0:0:0:
256,192,105710,1,0,0:0:0:0:
256,192,105773,1,0,0:0:0:0:
256,192,105835,1,0,0:0:0:0:
256,192,105898,1,0,0:0:0:0:
256,192,106023,1,8,0:0:0:0:
256,192,106148,1,0,0:0:0:0:
256,192,106273,1,0,0:0:0:0:
256,192,106398,1,8,0:0:0:0:
256,192,106523,1,0,0:0:0:0:
256,192,106648,1,0,0:0:0:0:
256,192,106773,1,8,0:0:0:0:
256,192,106898,1,0,0:0:0:0:
256,192,107023,1,0,0:0:0:0:
256,192,107085,1,0,0:0:0:0:
256,192,107148,1,8,0:0:0:0:
256,192,107273,1,0,0:0:0:0:
256,192,107335,1,0,0:0:0:0:
256,192,107398,1,8,0:0:0:0:
256,192,107523,1,0,0:0:0:0:
256,192,107648,1,12,0:0:0:0:
256,192,107898,1,4,0:0:0:0:
