osu file format v14

[General]
AudioFilename: ww.mp3
AudioLeadIn: 2000
PreviewTime: 65773
Countdown: 0
SampleSet: Normal
StackLeniency: 0.7
Mode: 0
LetterboxInBreaks: 0
WidescreenStoryboard: 0

[Editor]
DistanceSpacing: 1
BeatDivisor: 4
GridSize: 4
TimelineZoom: 1.8

[Metadata]
Title:Yotogibanashi no Kamikakushi
TitleUnicode:夜伽話の神隠し
Artist:LIQU@.
ArtistUnicode:LIQU@。
Creator:Kyubey
Version:Easy
Source:東方Project
Tags:ryuu minstrel c80 comiket yuta 夜が降りてくる ~ Evening Star 東方萃夢想 ~ Immaterial and Missing Power ZUN yakumo yukari nwolf dainesl touhou leader lunarblossom okoratu
BeatmapID:714980
BeatmapSetID:236396

[Difficulty]
HPDrainRate:2
CircleSize:3
OverallDifficulty:2
ApproachRate:3
SliderMultiplier:0.599999999999999
SliderTickRate:1

[Events]
//Background and Video events
0,0,"bg.jpg",0,0
//Break Periods
2,42223,44583
2,66223,68583
//Storyboard Layer 0 (Background)
//Storyboard Layer 1 (Fail)
//Storyboard Layer 2 (Pass)
//Storyboard Layer 3 (Foreground)
//Storyboard Sound Samples

[TimingPoints]
23,250,4,1,1,80,1,0
26023,-100,4,1,1,90,0,1
42023,-100,4,2,1,70,0,0
48023,-100,4,1,1,80,0,0
50023,-100,4,1,1,70,0,0
61898,-100,4,1,1,80,0,0
70023,-100,4,1,1,80,0,1
73960,-100,4,1,1,80,0,0
74023,-100,4,1,1,90,0,1
81960,-100,4,1,1,90,0,0
82023,-100,4,1,1,90,0,1
98023,-100,4,1,1,80,0,0
110210,-100,4,1,1,10,0,0

[Colours]
Combo1 : 146,80,78
Combo2 : 193,175,102
Combo3 : 215,81,81
Combo4 : 194,208,149

[HitObjects]
63,103,23,6,0,L|161:108,1,89.9999999999999,4|12,0:0|0:0,0:0:0:0:
200,148,648,1,12,0:0:0:0:
220,268,1148,2,0,L|316:252,1,89.9999999999999,12|8,0:0|0:0,0:0:0:0:
420,212,2023,2,0,P|424:164|412:120,1,89.9999999999999,4|12,0:0|0:0,0:0:0:0:
376,76,2648,1,12,0:0:0:0:
308,172,3148,2,0,L|219:188,1,89.9999999999999,12|8,0:0|0:0,0:0:0:0:
164,296,4023,6,0,P|210:307|262:301,1,89.9999999999999,4|12,0:0|0:0,0:0:0:0:
304,272,4648,1,12,0:0:0:0:
424,276,5148,2,0,P|428:232|424:180,1,89.9999999999999,12|8,0:0|0:0,0:0:0:0:
372,80,6023,2,0,L|282:75,1,89.9999999999999,4|12,0:0|0:0,0:0:0:0:
256,128,6648,1,12,0:0:0:0:
144,172,7148,2,0,P|92:168|40:176,1,89.9999999999999,12|8,0:0|0:0,0:0:0:0:
128,268,8023,6,0,L|216:320,2,89.9999999999999,0|8|0,0:0|0:0|0:0,0:0:0:0:
176,232,9023,2,0,L|276:216,2,89.9999999999999,0|8|0,0:0|0:0|0:0,0:0:0:0:
180,172,10023,5,4,0:0:0:0:
268,100,10523,2,0,P|324:120|400:96,1,120,10|10,0:2|0:2,0:0:0:0:
440,100,11273,2,0,L|428:228,1,120,10|8,0:2|0:0,0:0:0:0:
332,304,12273,5,10,0:2:0:0:
288,344,12523,2,0,B|228:353|228:353|164:344,1,120,10|10,0:2|0:2,0:0:0:0:
116,368,13273,1,10,0:2:0:0:
96,252,13773,1,8,0:0:0:0:
156,224,14023,6,0,L|168:156,1,59.9999999999999,4|10,0:0|0:2,0:0:0:0:
268,100,14773,1,12,0:2:0:0:
316,136,15023,2,0,L|344:272,2,120,8|10|4,0:0|0:2|0:0,0:0:0:0:
212,200,16523,6,0,L|184:336,1,120,0|8,0:0|0:0,0:0:0:0:
100,236,17523,2,0,L|75:118,1,120,12|4,0:2|0:0,0:0:0:0:
164,40,18523,6,0,B|224:32|224:32|296:40,1,120,10|10,0:2|0:2,0:0:0:0:
320,84,19273,2,0,P|313:143|352:192,1,120,10|8,0:2|0:0,0:0:0:0:
464,156,20273,5,10,0:2:0:0:
500,204,20523,2,0,L|484:344,1,120,10|8,0:2|0:0,0:0:0:0:
436,356,21273,1,8,0:0:0:0:
324,316,21773,1,8,0:0:0:0:
276,348,22023,6,0,L|140:340,1,120,4|10,0:0|0:2,0:0:0:0:
80,248,23023,2,0,L|216:240,1,120,12|8,0:2|0:0,0:0:0:0:
312,196,24023,5,4,0:0:0:0:
324,76,24523,2,0,P|260:65|184:72,2,120,8|8|8,0:0|0:0|0:0,0:0:0:0:
440,104,26023,6,0,L|436:252,1,120,4|8,0:0|0:0,0:0:0:0:
368,324,27023,2,0,L|220:320,1,120,0|8,0:0|0:0,0:0:0:0:
132,288,28023,2,0,B|72:288|36:328|36:328|40:288|20:256,2,180,4|8|8,0:0|0:0|0:0,0:0:0:0:
176,244,29773,1,8,0:0:0:0:
200,188,30023,6,0,B|208:128|208:128|188:64,1,120,4|8,0:0|0:0,0:0:0:0:
76,36,31023,2,0,L|108:160,1,120,0|8,0:0|0:0,0:0:0:0:
156,260,32023,1,4,0:0:0:0:
264,208,32523,1,8,0:0:0:0:
372,260,33023,1,8,0:0:0:0:
360,140,33523,1,8,0:0:0:0:
309,172,33773,1,8,0:0:0:0:
264,208,34023,6,0,L|276:328,1,120,4|8,0:0|0:0,0:0:0:0:
160,300,35023,2,0,P|132:256|124:164,1,120,0|8,0:0|0:0,0:0:0:0:
180,88,36023,2,0,B|240:72|270:85|304:100|360:88,2,180,4|8|8,0:0|0:0|0:0,0:0:0:0:
128,116,37773,1,8,0:0:0:0:
116,176,38023,6,0,B|112:216|112:216|144:296,1,120,4|8,0:0|0:0,0:0:0:0:
260,304,39023,2,0,B|264:264|264:264|232:184,1,120,0|8,0:0|0:0,0:0:0:0:
256,192,40023,12,4,42023,0:2:0:0:
360,156,46023,6,0,L|224:144,1,120,4|8,0:0|0:0,0:0:0:0:
172,244,47023,2,0,L|291:254,1,120,8|8,0:0|0:0,0:0:0:0:
412,272,48023,2,0,P|416:216|392:168,2,89.9999999999999,8|4|0,0:0|0:2|0:0,0:0:0:0:
376,320,49023,6,0,B|324:332|292:312|292:312|276:328|276:328|244:308|184:320,1,180,0|8,0:0|0:0,0:0:0:0:
152,336,50023,6,0,L|52:240,1,120,4|8,0:0|0:0,0:0:0:0:
65,131,51023,2,0,L|152:48,1,120,8|8,0:0|0:0,0:0:0:0:
272,48,52023,2,0,L|372:144,1,120,12|8,0:0|0:0,0:0:0:0:
358,252,53023,2,0,L|271:335,1,120,8|8,0:0|0:0,0:0:0:0:
152,360,54023,6,0,B|116:308|140:244|140:244|112:228|72:252,2,180,4|0|8,0:0|0:0|0:0,0:0:0:0:
240,276,56023,2,0,P|240:208|204:156,1,120,12|8,0:0|0:0,0:0:0:0:
92,156,57023,2,0,L|28:140,2,59.9999999999999,8|8|8,0:0|0:0|0:0,0:0:0:0:
148,84,57898,6,0,P|264:48|408:92,1,270,12|0,0:0|0:0,0:0:0:0:
440,204,59523,1,8,0:0:0:0:
424,324,60023,6,0,B|358:312|332:256|332:256|276:288|204:256,1,240,12|12,0:0|0:0,0:0:0:0:
168,224,61273,1,12,0:0:0:0:
113,247,61523,1,8,0:0:0:0:
16,320,62023,6,0,L|0:176,1,120,0|10,0:0|0:2,0:0:0:0:
100,128,63023,2,0,L|113:247,1,120,10|10,0:2|0:2,0:0:0:0:
232,260,64023,1,12,0:0:0:0:
328,188,64523,1,0,0:0:0:0:
448,208,65023,1,8,0:0:0:0:
232,260,66023,5,4,0:2:0:0:
152,48,70023,6,0,P|92:40|32:48,1,120,12|8,0:0|0:0,0:0:0:0:
4,164,71023,2,0,P|64:172|124:164,1,120,8|8,0:0|0:0,0:0:0:0:
240,132,72023,2,0,B|300:120|300:120|360:132,2,120,12|0|8,0:0|0:0|0:0,0:0:0:0:
140,196,73523,1,0,0:0:0:0:
136,256,73773,1,4,0:0:0:0:
132,316,74023,6,0,L|272:304,1,120,4|8,0:0|0:0,0:0:0:0:
280,188,75023,2,0,L|399:198,1,120,0|8,0:0|0:0,0:0:0:0:
364,84,76023,2,0,P|256:64|176:104,2,180,4|8|8,0:0|0:0|0:0,0:0:0:0:
408,124,77773,1,8,0:0:0:0:
452,164,78023,6,0,B|468:255|468:255|444:300,1,120,4|8,0:0|0:0,0:0:0:0:
348,332,79023,2,0,B|331:240|331:240|356:196,1,120,0|8,0:0|0:0,0:0:0:0:
284,112,80023,2,0,B|224:176|228:272|228:272|208:244|172:220,1,240,4|0,0:0|0:0,0:0:0:0:
140,340,81523,1,8,0:0:0:0:
188,372,81773,1,8,0:0:0:0:
252,380,82023,6,0,P|304:360|376:364,1,120,4|8,0:0|0:0,0:0:0:0:
436,260,83023,2,0,P|440:200|424:132,1,120,12|8,0:0|0:0,0:0:0:0:
308,124,84023,2,0,B|288:184|328:240|304:316,2,180,12|8|8,0:0|0:0|0:0,0:0:0:0:
292,68,85773,1,8,0:0:0:0:
240,40,86023,6,0,P|176:36|112:48,1,120,4|8,0:0|0:0,0:0:0:0:
60,148,87023,2,0,P|124:152|188:140,1,120,12|8,0:0|0:0,0:0:0:0:
300,144,88023,1,12,0:0:0:0:
348,256,88523,1,12,0:0:0:0:
228,248,89023,1,12,0:0:0:0:
108,236,89523,1,12,0:0:0:0:
68,192,89773,1,8,0:0:0:0:
28,148,90023,6,0,L|24:284,1,120,4|8,0:0|0:0,0:0:0:0:
92,368,91023,2,0,L|232:348,1,120,12|8,0:0|0:0,0:0:0:0:
324,316,92023,2,0,P|416:304|492:348,2,180,12|8|12,0:0|0:0|0:0,0:0:0:0:
272,288,93773,1,8,0:0:0:0:
248,232,94023,6,0,P|240:172|252:112,1,120,4|12,0:0|0:0,0:0:0:0:
356,56,95023,2,0,P|364:116|352:176,1,120,12|8,0:0|0:0,0:0:0:0:
256,192,96023,12,4,98023,0:0:0:0:
232,276,100023,6,0,L|128:272,1,89.9999999999999,4|12,0:0|0:0,0:0:0:0:
60,184,100898,1,12,0:0:0:0:
36,128,101148,2,0,P|32:80|44:32,1,89.9999999999999,12|8,0:0|0:0,0:0:0:0:
160,40,102023,6,0,P|200:44|272:36,1,89.9999999999999,8|12,0:0|0:0,0:0:0:0:
368,24,102898,1,12,0:0:0:0:
404,72,103148,2,0,L|380:184,1,89.9999999999999,8|8,0:0|0:0,0:0:0:0:
320,260,104023,2,0,L|224:236,1,89.9999999999999,4|12,0:0|0:0,0:0:0:0:
120,192,104898,1,12,0:0:0:0:
112,252,105148,2,0,P|126:298|172:344,1,89.9999999999999,12|8,0:0|0:0,0:0:0:0:
272,312,106023,6,0,L|380:296,2,89.9999999999999,0|8|8,0:0|0:0|0:0,0:0:0:0:
264,252,107023,2,0,P|292:180|248:104,1,150,0|12,0:0|0:0,0:0:0:0:
208,140,107898,1,4,0:0:0:0:
256,192,108023,12,0,110210,2:0:0:0:
