osu file format v6

[General]
AudioFilename: LIGHTS - ICE.mp3
AudioLeadIn: 0
PreviewTime: 40829
Countdown: 1
SampleSet: Normal
StackLeniency: 0.7
Mode: 0
LetterboxInBreaks: 1

[Editor]
Bookmarks: 41101,65081,91263,106556
DistanceSpacing: 1
BeatDivisor: 4
GridSize: 16

[Metadata]
Title:ICE
Artist:LIGHTS
Creator:Samurai_X
Version:Ice
Source:
Tags:

[Difficulty]
HPDrainRate:4
CircleSize:4
OverallDifficulty:4
SliderMultiplier:1.4
SliderTickRate:2

[Events]
//Background and Video events
Video,0,"LIGHTS - ICE.flv"
0,0,"LIGHTS - ICE.png"
//Break Periods
2,31432,39731
2,56523,63731
2,82160,89913
//Storyboard Layer 0 (Background)
//Storyboard Layer 1 (Fail)
//Storyboard Layer 2 (Pass)
//Storyboard Layer 3 (Foreground)
//Storyboard Sound Samples
//Background Colour Transformations
3,100,255,128,255

[TimingPoints]
14870,545.454545454545,4,1,0,15,1,0
91263,-100,4,1,0,15,0,1
106536,-100,4,1,0,15,0,0

[Colours]
Combo1 : 64,0,64
Combo2 : 255,255,0
Combo3 : 0,0,0
Combo4 : 255,128,192

[HitObjects]
256,192,14869,12,0,18142
256,32,19233,5,0
256,192,19779,1,2
256,352,20324,1,4
448,80,21415,2,0,B|448:224,2,140
256,32,23597,6,0,B|448:32|448:192,3,280,0|8|8|4
160,192,27960,5,2
272,112,28506,1,0
384,32,29051,1,2
384,320,30142,2,0,B|384:176,2,140,8|0|8
160,192,41051,6,0,B|160:96|256:96,1,140,8|4
352,192,42142,2,0,B|352:96|256:96,1,140,8|4
256,256,43506,2,0,B|256:160,5,70,8|8|0|8|0|8
352,192,45415,6,0,B|352:288|256:288,1,140,8|4
160,192,46506,2,0,B|160:288|256:288,1,140,8|0
256,128,47870,2,0,B|256:224,5,70,8|8|0|8|0|8
256,192,49779,12,0,51415
256,192,51960,6,0,B|352:192,1,70,8|8
325,192,52506,2,0,B|325:290,1,70,8|8
326,262,53051,2,0,B|246:262,1,70,8|8
464,256,54142,5,0
464,112,54688,1,0
320,112,55233,2,2,B|144:112,2,140,4|4|4
256,192,65051,12,0,68324
352,48,69415,5,0
352,192,69960,1,0
352,336,70506,1,0
208,336,71051,2,2,B|176:304|144:336,1,70
176,272,71597,2,2,B|176:192,2,70
256,80,73779,6,0,B|400:80,1,140
400,144,74597,2,2,B|244:144,1,140
256,208,75415,2,2,B|416:208,1,140
192,208,76779,1,0
256,48,78142,5,0
256,192,78688,1,0
256,336,79233,1,4
224,192,79779,2,2,B|304:192,1,70
256,192,80597,12,0,81960
176,96,91233,5,8
256,96,91506,1,0
336,96,91779,2,8,B|336:176,3,70,8|8|8|0
256,160,92869,1,8
176,160,93142,1,0
320,240,93688,6,0,B|320:288|256:288,1,70,8|8
256,240,94233,1,8
240,288,94506,2,0,B|192:288|192:240,2,70,0|8|8
256,144,95597,5,8
256,80,95869,1,8
320,80,96142,1,8
320,144,96415,1,0
320,144,96688,2,0,B|320:224,1,70,8|8
320,214,97233,2,0,B|404:214,1,70,8|0
256,176,98051,6,2,B|208:0|144:176,2,210,2|2|4
256,192,99960,12,0,101597
256,80,102142,6,0,B|256:176,1,70,8|8
256,150,102688,2,0,B|256:224,1,70,8|8
256,220,103233,2,0,B|256:304,1,70,8|8
256,192,104324,5,8
256,128,104597,1,0
192,128,104869,1,8
192,192,105142,1,8
192,256,105415,1,4
256,256,105688,1,4
320,256,105960,1,4
320,192,106233,1,4
320,128,106506,1,4
