osu file format v6

[General]
AudioFilename: LIGHTS - ICE.mp3
AudioLeadIn: 0
PreviewTime: 115263
Countdown: 0
SampleSet: Normal
StackLeniency: 0.2
Mode: 0
LetterboxInBreaks: 1

[Editor]
Bookmarks: 14900,41101,56354,65081,82263,91263,106536,115263,121809,123990,128354,130536,132718,141445,150172
DistanceSpacing: 1
BeatDivisor: 4
GridSize: 16

[Metadata]
Title:ICE
Artist:LIGHTS
Creator:Samurai_X
Version:Fire
Source:
Tags:

[Difficulty]
HPDrainRate:5
CircleSize:5
OverallDifficulty:7
SliderMultiplier:1.4
SliderTickRate:0.5

[Events]
//Background and Video events
Video,0,"LIGHTS - ICE.flv"
0,0,"LIGHTS - ICE.png"
//Break Periods
2,31433,40151
2,56524,64151
2,81888,90333
2,106706,114333
2,132888,140515
//Storyboard Layer 0 (Background)
//Storyboard Layer 1 (Fail)
//Storyboard Layer 2 (Pass)
//Storyboard Layer 3 (Foreground)
//Storyboard Sound Samples
//Background Colour Transformations
3,100,255,128,255

[TimingPoints]
14870,545.454545454545,4,1,0,16,1,0
91263,-100,4,1,0,16,0,1
106436,-100,4,1,0,16,0,0
106536,-100,4,1,0,16,0,1
106636,-100,4,1,0,16,0,0
150172,-100,4,1,0,16,0,1
158723,-100,4,1,0,16,0,0
158859,-100,4,1,0,16,0,1
179490,-100,4,1,0,0,0,0

[Colours]
Combo1 : 64,0,64
Combo2 : 255,255,0
Combo3 : 0,0,0
Combo4 : 255,128,192

[HitObjects]
256,64,14869,1,2
320,64,15142,1,0
384,64,15415,1,2
384,128,15688,2,0,B|352:160|307:116,1,70,2|2
256,128,16233,1,0
320,128,16506,1,2
384,128,16779,1,0
448,128,17051,2,0,B|480:96|448:64,1,70,2|2
450,66,17869,1,4
256,64,19233,5,2
256,112,19506,1,0
256,160,19779,1,2
256,112,20051,1,0
256,160,20324,1,2
256,160,20597,1,2
256,48,21415,2,8,B|288:16|324:56,2,70
256,192,23597,5,2
256,192,23869,1,0
256,192,24142,1,2
256,192,24415,2,0,B|288:224|320:192,1,70,2|2
317,194,24960,1,0
317,192,25233,2,0,B|288:158|256:190,1,70,2|2
256,192,25779,1,0
320,192,26051,1,2
176,192,26597,1,4
256,48,27960,6,0,B|320:48|288:112,1,70,2|0
224,112,28506,1,2
224,112,28779,1,0
224,48,29051,2,0,B|288:48|256:112,2,70,2|2|0
288,48,29869,2,8,B|352:48|320:112,1,70
329,158,30415,2,8,B|233:238|121:158,1,210
256,192,41051,6,8,B|304:192,2,35,8|8|8
256,256,41597,1,0
256,320,41870,1,8
256,256,42142,2,0,B|288:224|248:185,3,70,0|8|0|8
256,96,43506,2,0,B|256:160,5,35,8|8|8|0|8|8
256,96,44324,2,0,B|400:96,1,140,0|8
192,192,45415,6,0,B|208:144|256:144,3,70,0|8|0|8
336,192,46506,2,0,B|320:144|272:144,3,70,0|8|0|8
256,64,47870,2,0,B|256:112,5,35,8|8|8|0|8|0
256,112,48688,2,0,B|256:272,1,140,8|0
256,192,49779,12,4,51415
256,48,51960,6,2,B|256:96,1,35
256,82,52233,2,2,B|256:127,1,35
256,118,52506,2,2,B|256:176,1,35
256,155,52779,2,2,B|256:210,1,35
255,190,53051,2,8,B|319:254|383:190,1,140
496,272,54142,6,8,B|496:176|400:176,2,140
432,272,55506,1,8
368,272,55779,2,0,B|288:272,1,70,8|8
227,272,56324,1,4
256,80,65051,5,2
256,144,65324,1,0
256,208,65597,1,2
256,208,65870,1,0
256,272,66142,2,0,B|336:272,2,70,2|0|2
192,272,66960,2,8,B|112:272,1,70
192,272,67506,1,8
336,272,68051,1,2
48,80,69415,6,0,B|96:48|128:96,3,70,0|2|0|2
112,144,70506,1,0
112,144,70779,1,2
112,208,71051,2,8,B|192:208,1,70
256,208,71597,1,8
256,208,71870,1,8
256,208,72142,1,4
256,112,73779,6,0,B|416:112,1,140
464,112,74597,2,2,B|464:256,1,140
464,320,75415,2,2,B|320:320,1,140
324,320,76233,1,0
320,176,76779,1,4
256,112,78142,5,2
320,112,78415,1,0
384,112,78688,1,2
384,176,78960,2,0,B|304:176,2,70,0|2|2
448,176,79779,1,0
448,240,80051,1,2
384,240,80324,1,0
256,192,80597,12,4,81688
256,192,91233,5,8
320,192,91506,1,0
384,192,91779,1,8
384,128,92051,1,0
320,128,92324,2,0,B|272:128,6,35,8|0|0|0|8|8|8
256,192,93688,12,8,95051
192,192,95597,6,0,B|256:112|326:216,3,140,0|8|0|8
256,304,98051,2,0,B|256:240,10,35,8|8|8|0|8|0|0|0|8|0|0
256,192,99960,12,8,101597
256,64,102142,6,2,B|256:112,1,35
256,99,102415,2,2,B|256:144,1,35
256,134,102688,2,2,B|256:192,1,35
256,169,102960,2,2,B|256:224,1,35
256,204,103233,1,2
64,192,104324,6,8,B|144:192,1,70
134,192,104869,2,8,B|224:192,1,70
204,192,105415,2,8,B|288:192,1,70
336,192,105960,1,0
336,128,106233,1,8
336,192,106506,1,4
256,112,115233,6,0,B|256:64,2,35
304,112,115642,2,0,B|352:112,3,35
304,160,116188,2,0,B|352:160,1,35
256,176,116460,2,0,B|256:224,1,35
224,144,116733,2,0,B|176:144,3,35
144,208,117415,6,0,B|144:160,2,35
192,208,117824,2,0,B|240:208,3,35
192,272,118369,2,0,B|256:272,1,35
144,272,118642,2,0,B|144:320,1,35
112,240,118915,2,0,B|64:240,3,35
128,160,119597,6,0,B|128:208,2,35
80,160,120006,2,0,B|32:160,3,35
80,96,120551,2,0,B|16:96,1,35
128,96,120824,2,0,B|128:48,1,35
160,128,121097,2,0,B|208:128,3,35
176,192,121779,6,8,B|352:192,3,140
256,192,123960,6,0,B|256:144,1,35
256,157,124233,2,0,B|256:112,1,35
256,122,124506,2,0,B|256:80,1,35
256,80,124779,2,0,B|208:79,3,35
224,32,125324,2,0,B|179:32,1,35
186,16,125597,2,0,B|144:16,3,35
128,64,126142,6,0,B|176:64,3,35
144,112,126688,2,0,B|144:160,3,35
192,128,127233,2,0,B|240:128,3,35
224,160,127779,1,0
224,160,127915,1,0
224,160,128051,1,0
224,160,128188,1,0
144,128,128324,6,0,B|208:128,3,35
160,160,128869,2,0,B|160:208,3,35
192,176,129415,2,0,B|240:176,3,35
256,176,129960,1,0
256,176,130233,1,0
256,112,130506,6,0,B|256:272,1,140
256,192,131597,12,0,132688
256,64,141415,5,0
192,64,141688,1,0
128,64,141960,1,0
128,128,142233,2,8,B|160:160|206:115,1,70
256,128,142779,1,0
192,128,143051,1,0
128,128,143324,1,0
64,128,143597,2,8,B|32:96|64:64,1,70
62,66,144415,1,4
256,64,145779,5,0
256,112,146051,1,0
256,160,146324,1,8
256,112,146597,1,8
256,160,146870,1,0
256,160,147142,1,0
208,160,147415,2,8,B|208:80,1,70
154,89,147960,2,0,B|122:57|90:89,2,70,8|8|4
256,96,150142,6,0,B|288:64|336:112,3,70,8|0|8|0
288,160,151233,2,0,B|288:240,3,70,8|0|8|0
416,192,152597,2,0,B|416:144,5,35,8|8|8|0|8|0
416,192,153415,2,0,B|352:192|272:192,1,140,8|8
256,64,154506,5,8
256,112,154779,1,0
256,160,155051,2,8,B|288:192|320:160,1,70
256,160,155597,1,0
256,112,155870,1,8
256,64,156142,2,8,B|224:32|192:64,1,70
160,112,156960,5,8
160,112,157097,1,8
160,112,157233,1,8
160,112,157370,1,0
160,112,157506,1,8
160,112,157642,1,0
160,112,157779,1,8
160,112,157915,1,0
160,112,158051,2,8,B|320:112,1,140
256,192,158870,6,0,B|288:224|320:192,3,70,8|0|8|0
256,192,159960,2,0,B|224:224|192:192,3,70,8|0|8|0
256,112,161324,2,0,B|256:48,5,35,8|8|8|0|8|0
256,144,162142,2,8,B|320:208|400:128,1,140
432,64,163233,5,8
352,64,163506,1,0
272,64,163779,1,8
192,64,164051,1,0
112,64,164324,1,8
112,144,164597,1,0
192,144,164870,2,8,B|288:144,1,70
384,192,165688,1,8
352,192,165824,1,8
320,192,165960,1,8
288,192,166097,1,0
256,192,166233,1,8
176,192,166506,2,8,B|112:256|48:192,1,140
112,192,167597,6,2,B|112:80|256:0|400:80|399:232,1,420
256,64,169779,2,2,B|256:112,1,35
256,96,170051,2,2,B|256:138,1,35
256,131,170324,2,2,B|256:176,1,35
256,166,170597,2,2,B|256:224,1,35
256,201,170870,1,2
160,64,171960,6,8,B|240:64,1,70
230,64,172506,2,8,B|304:64,1,70
300,64,173051,2,8,B|384:64,1,70
432,192,174142,6,2,B|384:192,1,35
397,192,174415,2,2,B|352:192,1,35
362,192,174688,2,2,B|304:192,1,35
327,192,174960,2,2,B|272:192,1,35
292,192,175233,2,2,B|256:192,1,35
257,192,175506,1,2
256,32,176324,6,8,B|256:112,1,70
256,102,176870,2,8,B|256:192,1,70
256,172,177415,2,8,B|256:256,1,70
256,242,177960,1,8
256,171,178233,1,8
256,192,178506,12,0,179597
