osu file format v14

[General]
AudioFilename: MP3.mp3
AudioLeadIn: 0
PreviewTime: 62953
Countdown: 0
SampleSet: Normal
StackLeniency: 0.7
Mode: 1
LetterboxInBreaks: 0
WidescreenStoryboard: 0

[Editor]
DistanceSpacing: 1
BeatDivisor: 4
GridSize: 4
TimelineZoom: 2.2

[Metadata]
Title:Kebbetu no Tabi - PV ver -
TitleUnicode:決别の旅- PV ver -
Artist:LEMiao feat. YooSanHyakurei
ArtistUnicode:LEMiao feat. 瑶山百霊
Creator:-H a y a-
Version:Inner Oni
Source:東方Project
Tags:秘封活动记录 Yonder Voice Touhou
BeatmapID:703761
BeatmapSetID:315717

[Difficulty]
HPDrainRate:5
CircleSize:4
OverallDifficulty:5
ApproachRate:10
SliderMultiplier:1.4
SliderTickRate:1

[Events]
//Background and Video events
Video,-231,"2668182-1.flv",0,170
0,0,"39843956_p0.jpg",0,0
//Break Periods
//Storyboard Layer 0 (Background)
//Storyboard Layer 1 (Fail)
//Storyboard Layer 2 (Pass)
//Storyboard Layer 3 (Foreground)
//Storyboard Sound Samples

[TimingPoints]
1405,387.096774193548,4,1,0,80,1,0
63340,-100,4,1,0,80,0,1
87340,-100,4,1,0,80,0,0

[HitObjects]
228,164,1017,5,8,0:0:0:0:
220,152,1210,1,8,0:0:0:0:
228,164,1404,1,0,0:0:0:0:
228,164,1792,1,8,0:0:0:0:
228,164,2179,1,0,0:0:0:0:
228,164,2566,1,8,0:0:0:0:
224,164,2759,1,0,0:0:0:0:
228,164,2953,1,0,0:0:0:0:
228,164,3340,1,8,0:0:0:0:
228,164,3727,1,0,0:0:0:0:
215,160,4114,1,8,0:0:0:0:
215,160,4211,1,8,0:0:0:0:
215,159,4308,1,8,0:0:0:0:
228,164,4501,1,4,0:0:0:0:
224,156,4888,1,0,0:0:0:0:
224,152,5275,1,8,0:0:0:0:
224,152,5663,1,0,0:0:0:0:
224,156,5856,1,8,0:0:0:0:
220,157,6050,1,4,0:0:0:0:
224,156,6243,1,8,0:0:0:0:
224,156,6437,1,8,0:0:0:0:
228,156,6630,1,8,0:0:0:0:
222,144,6727,1,8,0:0:0:0:
228,156,6824,1,0,0:0:0:0:
224,152,7211,1,8,0:0:0:0:
228,160,7598,1,4,0:0:0:0:
228,160,8759,1,8,0:0:0:0:
228,160,9146,1,0,0:0:0:0:
228,160,9534,1,8,0:0:0:0:
232,160,9921,1,8,0:0:0:0:
240,163,10114,1,0,0:0:0:0:
228,160,10308,1,8,0:0:0:0:
228,160,10501,1,8,0:0:0:0:
256,192,10695,12,0,12243,0:0:0:0:
248,152,12824,5,8,0:0:0:0:
248,152,13017,1,0,0:0:0:0:
248,152,13211,1,0,0:0:0:0:
248,152,13404,1,8,0:0:0:0:
248,152,13598,1,8,0:0:0:0:
249,157,13695,1,8,0:0:0:0:
248,188,13792,5,0,0:0:0:0:
248,152,13985,1,0,0:0:0:0:
248,152,14082,1,0,0:0:0:0:
248,152,14179,1,8,0:0:0:0:
236,140,14372,1,0,0:0:0:0:
233,160,14566,1,0,0:0:0:0:
233,160,14759,1,8,0:0:0:0:
236,140,14953,1,8,0:0:0:0:
236,140,15146,1,0,0:0:0:0:
236,140,15243,1,0,0:0:0:0:
236,140,15340,1,8,0:0:0:0:
233,160,15534,1,0,0:0:0:0:
233,160,15727,1,8,0:0:0:0:
236,140,15921,1,8,0:0:0:0:
233,160,16114,1,0,0:0:0:0:
236,136,16308,1,0,0:0:0:0:
236,136,16501,1,8,0:0:0:0:
236,136,16695,1,8,0:0:0:0:
236,136,16792,1,8,0:0:0:0:
236,136,16888,1,0,0:0:0:0:
233,160,17082,1,0,0:0:0:0:
236,140,17275,1,8,0:0:0:0:
236,140,17469,1,0,0:0:0:0:
234,148,17566,1,0,0:0:0:0:
236,136,17663,1,0,0:0:0:0:
234,148,17856,1,8,0:0:0:0:
236,136,18050,1,8,0:0:0:0:
236,136,18243,1,0,0:0:0:0:
236,136,18340,1,0,0:0:0:0:
236,136,18437,1,8,0:0:0:0:
236,140,18630,1,8,0:0:0:0:
236,140,18824,1,8,0:0:0:0:
236,140,19017,1,0,0:0:0:0:
236,136,19211,1,8,0:0:0:0:
221,146,19308,1,8,0:0:0:0:
236,136,19404,1,0,0:0:0:0:
221,144,19501,1,0,0:0:0:0:
236,136,19598,1,8,0:0:0:0:
221,144,19695,1,8,0:0:0:0:
236,136,19792,1,0,0:0:0:0:
223,146,19888,1,8,0:0:0:0:
223,146,19985,1,0,0:0:0:0:
221,143,20179,1,0,0:0:0:0:
236,140,20372,1,8,0:0:0:0:
236,140,20566,1,0,0:0:0:0:
236,144,20663,1,0,0:0:0:0:
236,144,20759,1,0,0:0:0:0:
236,136,20953,1,0,0:0:0:0:
236,136,21146,1,8,0:0:0:0:
229,146,21340,1,8,0:0:0:0:
229,146,21437,1,8,0:0:0:0:
222,150,21534,1,0,0:0:0:0:
236,132,21727,1,0,0:0:0:0:
236,132,21824,1,0,0:0:0:0:
236,132,21921,1,8,0:0:0:0:
236,132,22114,1,0,0:0:0:0:
236,144,22308,1,8,0:0:0:0:
236,136,22501,1,0,0:0:0:0:
236,136,22695,1,8,0:0:0:0:
236,136,22888,1,0,0:0:0:0:
236,136,23082,1,0,0:0:0:0:
236,132,23275,1,8,0:0:0:0:
236,132,23469,1,8,0:0:0:0:
236,132,23663,1,0,0:0:0:0:
236,136,23759,1,0,0:0:0:0:
236,136,23856,1,8,0:0:0:0:
236,136,24050,1,0,0:0:0:0:
236,136,24243,1,8,0:0:0:0:
248,136,24437,1,8,0:0:0:0:
258,146,24534,1,8,0:0:0:0:
248,136,24630,1,0,0:0:0:0:
210,130,24727,1,8,0:0:0:0:
227,125,24824,1,0,0:0:0:0:
253,164,24921,1,0,0:0:0:0:
248,136,25017,1,8,0:0:0:0:
248,136,25211,1,0,0:0:0:0:
248,136,25598,1,0,0:0:0:0:
248,136,25792,1,8,0:0:0:0:
248,136,25985,1,0,0:0:0:0:
248,136,26179,1,4,0:0:0:0:
234,148,26566,1,0,0:0:0:0:
248,136,26953,1,8,0:0:0:0:
248,136,27727,1,8,0:0:0:0:
234,148,28114,1,0,0:0:0:0:
237,136,28308,1,0,0:0:0:0:
248,136,28501,1,8,0:0:0:0:
248,136,29275,1,0,0:0:0:0:
248,136,29663,1,8,0:0:0:0:
248,136,29856,1,0,0:0:0:0:
248,136,30050,1,8,0:0:0:0:
226,134,30243,1,0,0:0:0:0:
222,136,30437,1,8,0:0:0:0:
211,147,30630,1,8,0:0:0:0:
210,146,30824,1,0,0:0:0:0:
248,136,31211,1,0,0:0:0:0:
248,136,31404,1,8,0:0:0:0:
248,136,31501,1,8,0:0:0:0:
248,136,31598,1,0,0:0:0:0:
248,136,31985,1,8,0:0:0:0:
248,152,32372,1,0,0:0:0:0:
253,147,32759,1,0,0:0:0:0:
253,131,32953,1,0,0:0:0:0:
248,152,33146,1,8,0:0:0:0:
244,152,33534,1,0,0:0:0:0:
248,152,33921,1,8,0:0:0:0:
240,156,34501,1,8,0:0:0:0:
240,160,34695,1,8,0:0:0:0:
240,156,35082,1,0,0:0:0:0:
240,164,35469,1,0,0:0:0:0:
240,164,36050,1,0,0:0:0:0:
240,160,36146,1,0,0:0:0:0:
240,160,36243,1,8,0:0:0:0:
240,164,36630,1,0,0:0:0:0:
240,164,36824,1,0,0:0:0:0:
240,164,37017,1,8,0:0:0:0:
244,160,37404,1,8,0:0:0:0:
244,160,37792,1,0,0:0:0:0:
244,160,37985,1,8,0:0:0:0:
244,160,38082,1,8,0:0:0:0:
244,160,38179,1,8,0:0:0:0:
243,154,38372,1,8,0:0:0:0:
240,164,38566,1,4,0:0:0:0:
244,168,38759,1,8,0:0:0:0:
244,168,38953,1,8,0:0:0:0:
244,168,39146,1,0,0:0:0:0:
251,158,39340,1,8,0:0:0:0:
251,159,39437,1,8,0:0:0:0:
251,158,39534,1,0,0:0:0:0:
251,159,39727,1,8,0:0:0:0:
251,159,39921,1,8,0:0:0:0:
251,159,40114,1,4,0:0:0:0:
253,131,40308,1,8,0:0:0:0:
251,159,40501,1,8,0:0:0:0:
251,159,40695,1,0,0:0:0:0:
251,158,40888,1,0,0:0:0:0:
246,137,41082,1,8,0:0:0:0:
242,145,41275,1,8,0:0:0:0:
242,145,41372,1,0,0:0:0:0:
242,145,41469,1,0,0:0:0:0:
246,137,41663,1,12,0:0:0:0:
246,137,41856,1,0,0:0:0:0:
246,137,42050,1,8,0:0:0:0:
246,137,42146,1,8,0:0:0:0:
246,137,42243,1,0,0:0:0:0:
246,137,42437,1,0,0:0:0:0:
246,137,42630,1,0,0:0:0:0:
246,137,42824,1,8,0:0:0:0:
246,138,42921,1,8,0:0:0:0:
246,137,43017,1,8,0:0:0:0:
246,137,43211,1,4,0:0:0:0:
253,131,43404,1,8,0:0:0:0:
240,140,43598,1,8,0:0:0:0:
246,137,43792,1,0,0:0:0:0:
239,140,43985,1,8,0:0:0:0:
239,140,44179,1,0,0:0:0:0:
239,140,44372,1,8,0:0:0:0:
239,140,44469,1,8,0:0:0:0:
239,140,44566,1,8,0:0:0:0:
237,149,44759,1,0,0:0:0:0:
253,131,44856,1,0,0:0:0:0:
253,131,44953,1,8,0:0:0:0:
238,156,45146,1,8,0:0:0:0:
238,156,45340,1,0,0:0:0:0:
253,131,45534,1,8,0:0:0:0:
221,156,45727,1,0,0:0:0:0:
239,158,45921,1,0,0:0:0:0:
231,158,46017,1,0,0:0:0:0:
239,158,46114,1,8,0:0:0:0:
239,158,46308,1,4,0:0:0:0:
231,155,46501,1,8,0:0:0:0:
230,153,46598,1,8,0:0:0:0:
230,153,46695,1,0,0:0:0:0:
221,156,46888,1,8,0:0:0:0:
221,156,47082,1,0,0:0:0:0:
221,156,47275,1,0,0:0:0:0:
221,156,47469,1,8,0:0:0:0:
221,156,47566,1,8,0:0:0:0:
221,156,47663,1,8,0:0:0:0:
221,156,47856,1,4,0:0:0:0:
253,131,48050,1,0,0:0:0:0:
253,131,48146,1,0,0:0:0:0:
221,156,48243,1,8,0:0:0:0:
221,156,48437,1,0,0:0:0:0:
221,156,48824,1,0,0:0:0:0:
221,156,49017,1,8,0:0:0:0:
221,156,49211,1,0,0:0:0:0:
221,156,49404,1,0,0:0:0:0:
221,156,49598,1,0,0:0:0:0:
221,156,49695,1,0,0:0:0:0:
221,156,49792,1,8,0:0:0:0:
221,156,49985,1,0,0:0:0:0:
221,156,50372,1,8,0:0:0:0:
198,160,50469,1,8,0:0:0:0:
221,156,50566,1,0,0:0:0:0:
221,156,50663,1,8,0:0:0:0:
199,160,50759,1,8,0:0:0:0:
199,160,50856,1,8,0:0:0:0:
221,156,50953,1,0,0:0:0:0:
217,163,51340,1,8,0:0:0:0:
215,159,51534,1,0,0:0:0:0:
225,140,52114,1,8,0:0:0:0:
221,156,52501,1,4,0:0:0:0:
217,157,52888,1,8,0:0:0:0:
210,163,53082,1,0,0:0:0:0:
226,146,53663,1,8,0:0:0:0:
226,146,54050,1,4,0:0:0:0:
226,145,54437,1,8,0:0:0:0:
253,131,54630,1,8,0:0:0:0:
216,161,54824,1,8,0:0:0:0:
216,161,55211,1,0,0:0:0:0:
216,161,55404,1,8,0:0:0:0:
216,162,55598,1,0,0:0:0:0:
216,162,55792,1,8,0:0:0:0:
216,162,55985,1,0,0:0:0:0:
216,163,56179,1,0,0:0:0:0:
216,161,56372,1,8,0:0:0:0:
216,161,56566,1,0,0:0:0:0:
216,161,56759,1,0,0:0:0:0:
216,161,56953,1,8,0:0:0:0:
216,162,57050,1,8,0:0:0:0:
216,162,57146,1,0,0:0:0:0:
216,163,57727,1,8,0:0:0:0:
216,161,58114,1,0,0:0:0:0:
216,161,58308,1,8,0:0:0:0:
216,162,58695,1,0,0:0:0:0:
216,163,59082,1,8,0:0:0:0:
216,161,59469,1,0,0:0:0:0:
216,161,59856,1,8,0:0:0:0:
216,162,60050,1,0,0:0:0:0:
216,162,60243,1,0,0:0:0:0:
216,163,60630,1,0,0:0:0:0:
216,161,60824,1,0,0:0:0:0:
210,162,61404,1,0,0:0:0:0:
210,162,61792,1,0,0:0:0:0:
210,162,61985,1,0,0:0:0:0:
265,234,62759,5,8,0:0:0:0:
265,234,62856,1,8,0:0:0:0:
265,234,62953,1,8,0:0:0:0:
260,236,63146,1,8,0:0:0:0:
260,236,63340,1,4,0:0:0:0:
260,236,63534,1,0,0:0:0:0:
260,236,63630,1,0,0:0:0:0:
260,236,63727,1,8,0:0:0:0:
253,131,63824,1,8,0:0:0:0:
260,240,63921,1,0,0:0:0:0:
253,131,64017,1,8,0:0:0:0:
253,131,64114,1,0,0:0:0:0:
253,131,64211,1,0,0:0:0:0:
253,131,64308,1,8,0:0:0:0:
253,131,64501,1,0,0:0:0:0:
253,131,64695,1,8,0:0:0:0:
253,131,64792,1,8,0:0:0:0:
264,240,64888,1,8,0:0:0:0:
264,244,65082,1,0,0:0:0:0:
264,244,65275,1,8,0:0:0:0:
264,244,65372,1,8,0:0:0:0:
264,244,65469,1,0,0:0:0:0:
264,248,65663,1,8,0:0:0:0:
253,131,65759,1,0,0:0:0:0:
257,128,65856,1,8,0:0:0:0:
257,128,65953,1,8,0:0:0:0:
257,128,66050,1,0,0:0:0:0:
257,128,66146,1,8,0:0:0:0:
257,128,66243,1,8,0:0:0:0:
272,244,66340,1,0,0:0:0:0:
272,244,66437,1,8,0:0:0:0:
257,128,66534,1,8,0:0:0:0:
264,264,66630,1,0,0:0:0:0:
264,264,66824,1,8,0:0:0:0:
264,264,66921,1,8,0:0:0:0:
264,264,67017,1,0,0:0:0:0:
264,268,67211,1,8,0:0:0:0:
245,157,67308,1,8,0:0:0:0:
264,272,67404,1,0,0:0:0:0:
268,276,67598,1,8,0:0:0:0:
268,280,67695,1,8,0:0:0:0:
264,280,67792,1,0,0:0:0:0:
186,171,67888,1,8,0:0:0:0:
185,162,67985,1,0,0:0:0:0:
195,175,68082,1,0,0:0:0:0:
272,292,68179,1,8,0:0:0:0:
195,175,68275,1,0,0:0:0:0:
272,296,68372,1,8,0:0:0:0:
195,175,68469,1,8,0:0:0:0:
195,175,68566,1,0,0:0:0:0:
195,175,68663,1,8,0:0:0:0:
195,175,68759,1,0,0:0:0:0:
272,300,68953,1,0,0:0:0:0:
257,128,69050,1,8,0:0:0:0:
272,304,69146,1,8,0:0:0:0:
257,128,69340,1,0,0:0:0:0:
232,156,69534,1,8,0:0:0:0:
232,156,69727,1,0,0:0:0:0:
232,156,69824,1,0,0:0:0:0:
232,156,69921,1,8,0:0:0:0:
216,139,70017,1,8,0:0:0:0:
232,156,70114,1,0,0:0:0:0:
240,160,70308,1,8,0:0:0:0:
240,160,70404,1,8,0:0:0:0:
240,160,70501,1,0,0:0:0:0:
195,175,70598,1,0,0:0:0:0:
240,160,70695,1,8,0:0:0:0:
195,175,70792,1,0,0:0:0:0:
195,175,70888,1,8,0:0:0:0:
195,175,70985,1,8,0:0:0:0:
240,160,71082,1,0,0:0:0:0:
240,160,71275,1,0,0:0:0:0:
256,168,71469,1,8,0:0:0:0:
256,168,71566,1,0,0:0:0:0:
256,168,71663,1,0,0:0:0:0:
252,164,71759,1,8,0:0:0:0:
252,164,71856,1,0,0:0:0:0:
247,160,72050,1,0,0:0:0:0:
247,160,72146,1,0,0:0:0:0:
247,160,72243,1,8,0:0:0:0:
216,139,72340,1,0,0:0:0:0:
216,139,72437,1,8,0:0:0:0:
247,160,72630,1,8,0:0:0:0:
247,160,72824,1,8,0:0:0:0:
247,160,72921,1,8,0:0:0:0:
253,142,73017,1,0,0:0:0:0:
256,143,73211,1,0,0:0:0:0:
253,142,73404,1,8,0:0:0:0:
216,139,73501,1,0,0:0:0:0:
216,139,73598,1,8,0:0:0:0:
253,142,73695,1,8,0:0:0:0:
253,142,73792,1,0,0:0:0:0:
216,139,73888,1,8,0:0:0:0:
253,142,73985,1,8,0:0:0:0:
253,142,74082,1,0,0:0:0:0:
253,142,74179,1,8,0:0:0:0:
218,189,74372,1,8,0:0:0:0:
224,155,74566,1,8,0:0:0:0:
224,154,74663,1,8,0:0:0:0:
224,154,74759,1,0,0:0:0:0:
211,164,74953,1,0,0:0:0:0:
211,164,75050,1,8,0:0:0:0:
211,164,75146,1,0,0:0:0:0:
211,164,75243,1,0,0:0:0:0:
211,164,75340,1,8,0:0:0:0:
211,164,75437,1,8,0:0:0:0:
211,164,75534,1,0,0:0:0:0:
211,164,75727,1,0,0:0:0:0:
211,166,75921,1,0,0:0:0:0:
252,164,76017,1,0,0:0:0:0:
217,166,76114,1,8,0:0:0:0:
216,166,76308,1,0,0:0:0:0:
217,165,76501,1,8,0:0:0:0:
211,164,76695,5,8,0:0:0:0:
211,164,76792,1,8,0:0:0:0:
209,172,76888,1,0,0:0:0:0:
203,168,76985,1,0,0:0:0:0:
205,191,77082,1,8,0:0:0:0:
205,185,77275,1,0,0:0:0:0:
216,200,77469,1,8,0:0:0:0:
252,164,77566,1,8,0:0:0:0:
215,205,77663,1,0,0:0:0:0:
208,170,77759,1,8,0:0:0:0:
218,205,77856,1,0,0:0:0:0:
223,206,78050,1,8,0:0:0:0:
222,214,78243,1,0,0:0:0:0:
223,220,78437,1,8,0:0:0:0:
222,223,78534,1,8,0:0:0:0:
221,223,78630,1,0,0:0:0:0:
205,185,78824,1,8,0:0:0:0:
202,186,79017,1,0,0:0:0:0:
202,186,79211,1,8,0:0:0:0:
252,164,79308,1,8,0:0:0:0:
202,186,79404,1,8,0:0:0:0:
202,186,79598,1,0,0:0:0:0:
205,185,79695,1,0,0:0:0:0:
205,185,79792,1,8,0:0:0:0:
205,185,79985,1,8,0:0:0:0:
203,168,80179,1,8,0:0:0:0:
203,168,80275,1,0,0:0:0:0:
205,185,80372,1,8,0:0:0:0:
202,186,80469,1,8,0:0:0:0:
202,186,80566,1,0,0:0:0:0:
202,179,80663,1,0,0:0:0:0:
202,186,80759,1,8,0:0:0:0:
203,179,80856,1,0,0:0:0:0:
202,186,80953,1,8,0:0:0:0:
202,186,81050,1,0,0:0:0:0:
202,186,81146,1,0,0:0:0:0:
205,185,81340,1,0,0:0:0:0:
205,185,81437,1,0,0:0:0:0:
205,185,81534,1,8,0:0:0:0:
205,185,81630,1,8,0:0:0:0:
205,185,81727,1,0,0:0:0:0:
199,182,81824,1,8,0:0:0:0:
205,185,81921,1,0,0:0:0:0:
202,186,82114,1,8,0:0:0:0:
202,186,82308,1,0,0:0:0:0:
202,186,82501,1,8,0:0:0:0:
202,186,82598,1,8,0:0:0:0:
202,186,82695,1,0,0:0:0:0:
205,185,82888,1,8,0:0:0:0:
205,185,83082,1,0,0:0:0:0:
205,185,83275,1,8,0:0:0:0:
205,185,83469,1,0,0:0:0:0:
202,186,83663,1,8,0:0:0:0:
202,186,83759,1,8,0:0:0:0:
202,186,83856,1,8,0:0:0:0:
202,186,84050,1,0,0:0:0:0:
202,186,84243,1,8,0:0:0:0:
205,185,84437,1,0,0:0:0:0:
205,185,84630,1,0,0:0:0:0:
205,185,84727,1,0,0:0:0:0:
205,185,84824,1,8,0:0:0:0:
211,183,85017,1,4,0:0:0:0:
211,181,85404,1,0,0:0:0:0:
211,181,85598,1,0,0:0:0:0:
211,181,86179,1,8,0:0:0:0:
211,183,86566,1,0,0:0:0:0:
211,181,86759,1,0,0:0:0:0:
211,181,87146,1,8,0:0:0:0:
211,181,87340,1,0,0:0:0:0:
211,181,87534,1,8,0:0:0:0:
211,181,87630,1,8,0:0:0:0:
211,181,87727,1,8,0:0:0:0:
211,181,87921,1,0,0:0:0:0:
211,183,88114,1,8,0:0:0:0:
216,182,88308,1,0,0:0:0:0:
211,181,88501,1,0,0:0:0:0:
217,177,88598,1,0,0:0:0:0:
211,181,88695,1,0,0:0:0:0:
211,181,88888,1,8,0:0:0:0:
211,181,89275,1,8,0:0:0:0:
216,182,89663,1,0,0:0:0:0:
220,166,90243,1,8,0:0:0:0:
220,166,90437,1,0,0:0:0:0:
220,166,90824,1,0,0:0:0:0:
216,178,92372,1,0,0:0:0:0:
216,178,93146,1,0,0:0:0:0:
220,166,94211,1,8,0:0:0:0:
220,166,94259,1,0,0:0:0:0:
256,192,94308,12,0,97404,0:0:0:0:
