osu file format v11

[General]
AudioFilename: Time to get Away - LCD Soundsystem.mp3
AudioLeadIn: 0
PreviewTime: -1
Countdown: 1
SampleSet: Soft
StackLeniency: 0.7
Mode: 0
LetterboxInBreaks: 1

[Editor]
Bookmarks: 83233,171553
DistanceSpacing: 0.9
BeatDivisor: 2
GridSize: 4

[Metadata]
Title:Time to get away
TitleUnicode:Time to get away
Artist:LCD Soundsystem
ArtistUnicode:LCD Soundsystem
Creator:xRayne
Version:Normal
Source:
Tags:get away sound system
BeatmapID:190984
BeatmapSetID:64883

[Difficulty]
HPDrainRate:4
CircleSize:4
OverallDifficulty:5
ApproachRate:5
SliderMultiplier:1.2
SliderTickRate:1

[Events]
//Background and Video events
0,0,"LCD_Soundsystem-Sound_Of_Silver-Frontal.jpg"
//Break Periods
2,55593,60433
2,107433,114193
2,153993,160273
//Storyboard Layer 0 (Background)
//Storyboard Layer 1 (Fail)
//Storyboard Layer 2 (Pass)
//Storyboard Layer 3 (Foreground)
//Storyboard Sound Samples
//Background Colour Transformations
3,100,163,162,255

[TimingPoints]
15553,480,4,2,0,45,1,0
61633,-100,4,2,0,100,0,1
76993,-100,4,2,0,100,0,0
92353,-100,4,2,0,100,0,1
107713,-100,4,2,0,100,0,0
138433,-100,4,2,0,100,0,1
153793,-100,4,2,0,100,0,0

[Colours]
Combo1 : 128,0,64
Combo2 : 255,255,255
Combo3 : 0,0,0

[HitObjects]
112,52,15553,2,0,P|96:116|108:172,1,120,0|8,0:0|0:0,0:0:0
196,108,16273,1,0,0:0:0
196,108,16513,1,0,0:0:0
248,108,16753,1,0,0:0:0
300,108,16993,1,8,0:0:0
392,52,17473,6,0,P|408:116|396:172,1,120,0|8,0:0|0:0,0:0:0
344,184,18193,1,0,0:0:0
292,188,18433,1,0,0:0:0
184,188,18913,1,8,0:0:0
92,248,19393,6,0,P|72:180|96:128,1,120,0|8,0:0|0:0,0:0:0
180,80,20353,1,0,0:0:0
180,80,20833,1,8,0:0:0
288,84,21313,1,0,0:0:0
264,188,21793,2,0,P|184:260|108:160,1,240,8|8,0:0|0:0,0:0:0
108,184,23233,5,0,0:0:0
104,284,23713,1,0,0:0:0
108,184,23953,1,0,0:0:0
108,184,24193,2,0,P|160:208|192:264,1,120,0|8,0:0|0:0,0:0:0
280,312,25153,1,0,0:0:0
376,268,25633,1,8,0:0:0
484,248,26113,2,0,P|500:192|484:132,1,120,0|8,0:0|0:0,0:0:0
388,124,27073,5,0,0:0:0
288,88,27553,1,8,0:0:0
192,68,27793,1,0,0:0:0
192,68,28033,2,0,P|164:120|180:188,1,120,0|8,0:0|0:0,0:0:0
268,232,28993,2,0,P|172:288|78:219,2,240
320,236,31153,1,0,0:0:0
376,236,31393,1,8,0:0:0
388,112,31873,6,0,P|388:44,2,60,0|0|8,0:0|0:0|0:0,0:0:0
340,116,32593,1,0,0:0:0
284,116,32833,1,0,0:0:0
284,116,33313,1,8,0:0:0
176,108,33793,2,0,P|176:172,2,60,0|0|8,0:0|0:0|0:0,0:0:0
124,104,34513,1,0,0:0:0
68,104,34753,5,0,0:0:0
68,104,35233,1,8,0:0:0
176,108,35713,2,0,P|160:168|112:208,1,120,0|8,0:0|0:0,0:0:0
208,264,36673,2,0,P|112:320|18:251,2,240
260,264,38833,1,0,0:0:0
312,264,39073,1,8,0:0:0
396,332,39553,2,0,P|420:272|400:212,1,120,0|8,0:0|0:0,0:0:0
404,112,40513,6,0,P|276:112,3,120,0|8|0|8,0:0|0:0|0:0|0:0,0:0:0
192,60,42433,2,0,P|172:108|192:184,1,120,0|8,0:0|0:0,0:0:0
172,224,43153,1,0,0:0:0
144,272,43393,2,0,P|64:272,2,60,0|0|8,0:0|0:0|0:0,0:0:0
252,272,44353,5,0,0:0:0
252,272,44833,1,8,0:0:0
360,272,45313,1,0,0:0:0
360,272,45793,1,8,0:0:0
444,340,46273,6,0,P|468:268|448:224,1,120,0|8,0:0|0:0,0:0:0
408,200,46993,1,0,0:0:0
360,172,47233,1,0,0:0:0
252,176,47713,1,8,0:0:0
236,284,48193,6,0,P|184:256|160:192,1,120,0|8,0:0|0:0,0:0:0
152,96,49153,2,0,P|76:96,2,60,0|0|8,0:0|0:0|0:0,0:0:0
204,100,49873,1,0,0:0:0
260,100,50113,1,0,0:0:0
368,100,50593,1,8,0:0:0
464,52,51073,2,0,P|476:112|448:184,1,120,0|8,0:0|0:0,0:0:0
460,276,52033,5,0,0:0:0
352,276,52513,1,8,0:0:0
244,276,52993,1,0,0:0:0
216,228,53233,1,0,0:0:0
232,176,53473,1,8,0:0:0
256,192,53953,12,4,55393,0:0:0
352,288,61633,5,0,0:0:0
256,232,62113,2,0,P|236:292|256:344,2,120,8|0|8,0:0|0:0|0:0,0:0:0
300,260,63313,1,0,0:0:0
352,284,63553,1,0,0:0:0
464,232,64033,6,0,P|484:292|464:344,2,120,8|0|8,0:0|0:0|0:0,0:0:0
436,184,65233,1,0,0:0:0
408,136,65473,2,0,P|424:76|404:20,1,120,0|8,0:0|0:0,0:0:0
356,44,66193,1,0,0:0:0
328,92,66433,2,0,P|309:145|325:205,1,120,0|8,0:0|0:0,0:0:0
232,148,67393,5,0,0:0:0
144,208,67873,2,0,P|156:144|132:92,1,120,8|0,0:0|0:0,0:0:0
84,108,68593,1,0,0:0:0
44,144,68833,2,0,P|32:200|68:268,1,120,8|0,0:0|0:0,0:0:0
148,316,69793,1,8,0:0:0
256,320,70273,5,0,0:0:0
364,324,70753,1,8,0:0:0
416,324,70993,1,0,0:0:0
464,296,71233,2,0,P|487:239|475:183,1,120,0|8,0:0|0:0,0:0:0
392,116,72194,2,0,P|370:164|388:236,1,120,0|8,0:0|0:0,0:0:0
292,168,73153,1,0,0:0:0
196,220,73633,6,0,P|216:160|193:106,1,120,8|0,0:0|0:0,0:0:0
112,40,74593,2,0,P|93:93|109:153,1,120,8|0,0:0|0:0,0:0:0
144,196,75313,1,0,0:0:0
196,212,75553,1,8,0:0:0
304,208,76033,1,0,0:0:0
412,216,76513,1,8,0:0:0
500,160,76993,6,0,P|456:116|388:112,1,120,0|8,0:0|0:0,0:0:0
348,112,77713,1,0,0:0:0
296,112,77953,1,0,0:0:0
244,112,78193,2,0,P|164:112,2,60,0|8|0,0:0|0:0|0:0,0:0:0
296,112,78913,5,0,0:0:0
240,212,79393,1,0,0:0:0
348,212,79873,2,0,P|424:212,4,60,8|0|8|0|0,0:0|0:0|0:0|0:0|0:0,0:0:0
240,212,81313,1,8,0:0:0
188,116,81793,2,0,P|140:156|136:224,1,120,0|8,0:0|0:0,0:0:0
240,212,82753,5,0,0:0:0
284,308,83233,2,0,P|332:268|336:200,1,120,8|0,0:0|0:0,0:0:0
284,212,83953,1,0,0:0:0
232,212,84193,1,8,0:0:0
156,140,84673,6,0,P|12:140,2,120,0|8|0,0:0|0:0|0:0,0:0:0
236,212,86113,1,8,0:0:0
320,144,86593,2,0,P|468:144,2,120,0|8|0,0:0|0:0|0:0,0:0:0
280,180,87793,1,0,0:0:0
236,212,88033,2,0,P|164:212,2,60,8|0|8,0:0|0:0|0:0,0:0:0
300,300,88993,2,0,P|248:320|188:300,1,120,8|0,0:0|0:0,0:0:0
188,304,89953,1,8,0:0:0
88,268,90433,6,0,P|72:208|100:144,1,120,0|8,0:0|0:0,0:0:0
192,132,91393,1,0,0:0:0
192,132,91633,1,0,0:0:0
300,136,91873,1,8,0:0:0
300,136,92113,1,0,0:0:0
380,60,92353,6,0,P|412:124|388:192,1,120,0|8,0:0|0:0,0:0:0
300,136,93313,2,0,P|272:192|296:260,1,120,0|8,0:0|0:0,0:0:0
320,288,94033,1,0,0:0:0
372,296,94273,2,0,P|496:296,2,120,0|8|0,0:0|0:0|0:0,0:0:0
280,236,95713,1,8,0:0:0
192,300,96193,6,0,P|208:232|192:180,1,120,0|8,0:0|0:0,0:0:0
194,185,96913,1,0,0:0:0
108,240,97153,2,0,P|92:172|124:116,1,120,0|8,0:0|0:0,0:0:0
220,120,98113,1,0,0:0:0
328,120,98593,2,0,P|460:120,2,120,8|0|8,0:0|0:0|0:0,0:0:0
276,116,99793,1,0,0:0:0
224,116,100033,5,0,0:0:0
328,120,100513,2,0,P|312:172|328:260,1,120,8|0,0:0|0:0,0:0:0
416,188,101473,2,0,P|428:244|396:308,1,120,8|0,0:0|0:0,0:0:0
300,332,102433,1,8,0:0:0
208,272,102913,1,0,0:0:0
232,168,103393,1,8,0:0:0
324,128,103873,5,0,0:0:0
416,188,104353,1,8,0:0:0
488,268,104833,2,0,P|424:284|364:272,1,120,0|8,0:0|0:0,0:0:0
268,272,105793,2,0,P|196:272,3,60,0|0|8|0,0:0|0:0|0:0|0:0,0:0:0
156,272,106753,1,0,0:0:0
104,272,106993,1,0,0:0:0
52,272,107233,1,8,0:0:0
72,76,115393,5,0,0:0:0
124,76,115633,2,0,P|196:76,3,60,0|8|0|0,0:0|0:0|0:0|0:0,0:0:0
248,164,116833,1,8,0:0:0
248,164,117313,5,0,0:0:0
304,164,117553,2,0,P|376:164,3,60,0|8|0|0,0:0|0:0|0:0|0:0,0:0:0
400,204,118513,1,0,0:0:0
384,256,118753,1,8,0:0:0
328,256,118993,1,0,0:0:0
280,256,119233,5,0,0:0:0
220,344,119713,2,0,P|184:288|192:216,1,120,8|0,0:0|0:0,0:0:0
132,224,120433,1,0,0:0:0
80,224,120673,1,8,0:0:0
8,140,121153,6,0,P|68:120|124:136,1,120,0|8,0:0|0:0,0:0:0
168,160,121873,1,0,0:0:0
192,208,122113,2,0,P|320:208,1,120,0|8,0:0|0:0,0:0:0
340,164,122833,1,0,0:0:0
388,140,123073,6,0,P|444:120|501:134,1,120,0|2,0:0|0:0,0:0:0
496,188,123793,1,0,0:0:0
496,240,124032,1,0,0:0:0
472,288,124273,1,0,0:0:0
420,288,124513,1,2,0:0:0
388,244,124753,1,0,0:0:0
384,192,124993,5,0,0:0:0
280,160,125473,2,0,P|248:208|260:296,2,120,8|8|8,0:0|0:0|0:0,0:0:0
172,168,126913,1,0,0:0:0
120,168,127153,1,0,0:0:0
68,168,127393,2,0,P|76:100|124:56,1,120,8|0,0:0|0:0,0:0:0
216,64,128353,6,0,P|348:64,1,120,8|0,0:0|0:0,0:0:0
356,116,129073,1,0,0:0:0
368,168,129313,1,8,0:0:0
428,76,129793,2,0,P|462:113|470:181,1,120,0|8,0:0|0:0,0:0:0
484,232,130513,1,0,0:0:0
472,284,130753,5,0,0:0:0
428,312,130993,1,0,0:0:0
376,316,131233,1,2,0:0:0
344,276,131473,1,0,0:0:0
336,224,131713,1,0,0:0:0
348,176,131953,1,0,0:0:0
388,140,132193,1,2,0:0:0
340,44,132673,6,0,P|292:80|264:132,1,120,0|8,0:0|0:0,0:0:0
312,244,133633,1,0,0:0:0
244,328,134113,1,8,0:0:0
136,340,134593,2,0,P|116:276|136:216,1,120,0|8,0:0|0:0,0:0:0
184,224,135313,1,0,0:0:0
236,212,135553,2,0,P|256:148|236:88,1,120,0|8,0:0|0:0,0:0:0
340,144,136513,5,0,0:0:0
436,96,136993,2,0,P|422:145|442:209,1,120,8|0,0:0|0:0,0:0:0
392,228,137713,1,0,0:0:0
336,232,137953,1,8,0:0:0
336,340,138433,6,0,P|276:316|248:264,1,120,0|8,0:0|0:0,0:0:0
244,160,139393,2,0,P|244:88,1,60
244,48,139873,1,8,0:0:0
148,100,140353,1,0,0:0:0
108,64,140593,1,0,0:0:0
56,44,140833,2,0,P|40:104|52:160,1,120,8|0,0:0|0:0,0:0:0
148,212,141793,1,8,0:0:0
88,300,142273,6,0,P|148:320|208:292,1,120,0|8,0:0|0:0,0:0:0
252,296,142993,1,0,0:0:0
304,300,143233,2,0,P|376:300,2,60,0|0|8,0:0|0:0|0:0,0:0:0
252,296,143953,1,0,0:0:0
200,300,144193,6,0,P|192:236|208:180,1,120,0|8,0:0|0:0,0:0:0
316,192,145153,2,0,P|384:192,1,60
432,192,145633,1,8,0:0:0
436,244,145873,1,0,0:0:0
436,300,146113,5,0,0:0:0
328,300,146593,2,0,P|248:300,3,60,8|0|0|0,0:0|0:0|0:0|0:0,0:0:0
216,300,147553,1,8,0:0:0
112,328,148033,6,0,P|96:268|120:208,1,120,0|8,0:0|0:0,0:0:0
220,200,148993,1,0,0:0:0
272,200,149233,1,0,0:0:0
324,200,149473,2,0,P|340:140|321:87,1,120,8|0,0:0|0:0,0:0:0
212,88,150433,2,0,P|132:88,2,60,8|0|0,0:0|0:0|0:0,0:0:0
320,88,151393,1,8,0:0:0
428,84,151873,6,0,P|508:84,2,60,0|0|8,0:0|0:0|0:0,0:0:0
320,88,152833,2,0,P|308:140|340:220,1,120,0|8,0:0|0:0,0:0:0
292,244,153553,1,0,0:0:0
260,288,153793,1,4,0:0:0
256,192,161473,12,4,162913,0:0:0
196,136,163393,5,0,0:0:0
248,136,163633,1,0,0:0:0
300,136,163873,1,8,0:0:0
304,240,164353,2,0,P|248:264|184:232,1,120,0|8,0:0|0:0,0:0:0
196,136,165313,5,0,0:0:0
304,136,165793,1,8,0:0:0
412,132,166273,2,0,P|480:132,2,60,0|0|8,0:0|0:0|0:0,0:0:0
304,136,167233,5,0,0:0:0
252,136,167473,1,0,0:0:0
196,136,167713,1,8,0:0:0
88,132,168193,2,0,P|24:132,4,60,0|0|8|0|0,0:0|0:0|0:0|0:0|0:0,0:0:0
196,136,169633,1,8,0:0:0
88,132,170113,2,0,P|108:196|156:236,1,120,0|8,0:0|0:0,0:0:0
200,240,170833,1,0,0:0:0
256,240,171073,5,0,0:0:0
304,240,171313,1,0,0:0:0
356,236,171553,2,0,P|393:201|413:137,1,120,8|0,0:0|0:0,0:0:0
308,132,172513,1,8,0:0:0
200,136,172993,2,0,P|48:136,2,120,0|8|0,0:0|0:0|0:0,0:0:0
308,132,174433,1,8,0:0:0
308,184,174673,1,0,0:0:0
308,236,174913,6,0,P|308:356,2,120,0|8|0,0:0|0:0|0:0,0:0:0
256,244,176113,1,0,0:0:0
204,244,176353,1,8,0:0:0
124,316,176833,2,0,P|96:260|104:192,1,120,0|8,0:0|0:0,0:0:0
140,104,177793,1,0,0:0:0
192,104,178033,1,0,0:0:0
244,108,178273,1,8,0:0:0
348,132,178753,6,0,P|320:188|336:260,1,120,0|8,0:0|0:0,0:0:0
428,208,179713,2,0,P|444:264|412:332,1,120,0|8,0:0|0:0,0:0:0
316,324,180673,2,0,P|172:324,2,120,0|8|0,0:0|0:0|0:0,0:0:0
320,212,182113,1,8,0:0:0
356,108,182593,6,0,P|296:112|248:156,1,120,0|8,0:0|0:0,0:0:0
320,212,183553,1,0,0:0:0
320,212,184033,1,8,0:0:0
256,192,184513,12,4,185953,0:0:0
